#VERSION:0.83;
#TITLE:God sees all;
#SUBTITLE:;
#ARTIST:Ethyria;
#TITLETRANSLIT:;
#SUBTITLETRANSLIT:;
#ARTISTTRANSLIT:;
#GENRE:にじさんじ;
#ORIGIN:;
#CREDIT:;
#BANNER:God sees all.png;
#BACKGROUND:../bg.png;
#PREVIEWVID:;
#JACKET:God sees all-jacket.png;
#CDIMAGE:;
#DISCIMAGE:;
#LYRICSPATH:;
#CDTITLE:../cdtitle.png;
#MUSIC:God sees all.ogg;
#OFFSET:1.372000;
#SAMPLESTART:75.489998;
#SAMPLELENGTH:15.000000;
#SELECTABLE:YES;
#BPMS:0.000=153.000;
#STOPS:;
#DELAYS:;
#WARPS:;
#TIMESIGNATURES:0.000=4=4;
#TICKCOUNTS:0.000=4;
#COMBOS:0.000=1;
#SPEEDS:0.000=1.000=0.000=0;
#SCROLLS:0.000=1.000;
#FAKES:;
#LABELS:0.000=Song Start;
#BGCHANGES:4.000=God sees all.avi=1.000=0=0=0=StretchNoLoop====,
99999=-nosongbg-=1.000=0=0=0 // don't automatically add -songbackground-
;
#KEYSOUNDS:;
#ATTACKS:
;

//---------------dance-single - ----------------
#NOTEDATA:;
#CHARTNAME:;
#STEPSTYPE:dance-single;
#DESCRIPTION:;
#CHARTSTYLE:;
#DIFFICULTY:Hard;
#METER:11;
#RADARVALUES:0.432548,0.522775,0.246012,0.179778,0.000000,320.000000,294.000000,26.000000,19.000000,0.000000,0.000000,0.000000,0.000000,0.000000,0.432548,0.522775,0.246012,0.179778,0.000000,320.000000,294.000000,26.000000,19.000000,0.000000,0.000000,0.000000,0.000000,0.000000;
#CREDIT:led_light;
#NOTES:
0000
0000
0000
0000
,
0000
0000
0000
0000
,
0000
0000
0000
0000
,
0000
0000
0000
0000
,
0000
0000
0000
0000
,
0022
0000
0033
0001
1000
0000
1100
0000
,
0000
1000
0001
0100
0010
0000
0100
0000
,
0202
0000
0303
0001
1000
0000
1010
0000
,
1000
0100
1000
0000
1000
0100
0010
0000
,
2002
0000
0000
0003
,
0200
0000
0300
0000
,
0020
0000
0000
3000
,
0200
0000
0030
0000
,
0002
0000
0000
0300
,
0020
0000
0030
0000
,
2000
0000
0000
0003
,
0020
0000
0000
3030
,
1001
0000
0001
0100
0010
0000
0010
0100
,
0010
0000
0010
0000
0110
1000
0001
0000
,
0011
0000
0000
0100
1000
0000
0100
0010
,
0100
0000
0100
0000
1100
1000
0010
0000
,
1001
0000
0000
0001
0100
0000
0010
0100
,
0010
1000
1100
1000
,
0101
0000
0000
0001
0100
0000
0010
1000
,
0010
1000
0021
0130
,
1000
0000
1000
0100
0001
0000
0001
0100
,
1000
0001
0010
0110
,
0001
0000
1000
0010
0001
0000
0001
0010
,
1000
0000
0001
0010
0100
0000
2000
0000
,
3001
0000
0001
0010
1000
0000
1000
0010
,
0001
1000
0100
0110
,
1000
0000
0001
0100
1000
0000
1000
0100
,
0001
0000
1000
0100
0010
0000
0002
0000
,
1003
0000
1000
0000
0010
1000
0001
0100
,
0020
0001
0100
0100
,
1030
0000
0001
0000
0100
0010
1000
0100
,
0010
0100
2000
0000
0010
0000
3010
0000
,
0100
0000
0100
0000
0010
1000
0001
0010
,
0200
0001
0010
0010
,
1300
0000
0001
0000
0010
0001
0100
0010
,
1000
1000
0001
1000
,
1100
0010
0001
0000
1000
0100
1000
0010
,
0100
0001
0010
0000
0100
1000
0100
0010
,
0001
0100
0001
0000
1000
0010
1000
0100
,
0010
0001
0100
0000
0010
0000
0110
0000
,
1000
0100
1000
0100
1000
0001
0100
0010
,
1000
0001
1000
0001
1000
0100
0010
0001
,
0100
0100
0100
0100
0100
0100
0100
0100
,
0010
0000
0000
0000
,
1000
0100
0001
0100
1000
0000
1000
0100
,
0001
0100
1000
0000
0010
0000
0010
0000
,
0001
0010
1000
0010
0001
0000
0001
0010
,
1000
0010
0001
0000
0010
0100
0010
0100
,
1100
0000
0001
0100
0001
0000
0110
0000
,
0000
0001
0010
0000
0010
0100
0010
0000
,
1100
0000
0001
1000
0010
0000
0011
0000
,
0000
1000
0001
0000
1000
0010
0100
0000
,
0001
0010
1000
0010
0001
0000
0001
0010
,
1000
0010
0001
0000
0100
0000
0100
0000
,
1000
0100
0001
0100
1000
0000
1000
0100
,
0001
0100
1000
0000
0100
0010
0100
0010
,
0011
0000
1000
0010
1000
0000
0110
0000
,
0000
1000
0100
0000
0100
0010
0100
0000
,
0011
0000
1000
0001
0100
0000
1100
0000
,
0010
0001
1000
0000
0001
0100
0010
0000
,
1001
0000
0000
0000
;

//---------------dance-single - ----------------
#NOTEDATA:;
#CHARTNAME:;
#STEPSTYPE:dance-single;
#DESCRIPTION:;
#CHARTSTYLE:;
#DIFFICULTY:Medium;
#METER:8;
#RADARVALUES:0.351445,0.461272,0.302784,0.312246,0.000000,260.000000,228.000000,32.000000,33.000000,0.000000,0.000000,0.000000,0.000000,0.000000,0.351445,0.461272,0.302784,0.312246,0.000000,260.000000,228.000000,32.000000,33.000000,0.000000,0.000000,0.000000,0.000000,0.000000;
#CREDIT:led_light;
#NOTES:
// measure 0
0000
0000
0000
0000
,  // measure 1
0000
0000
0000
0000
,  // measure 2
0000
0000
0000
0000
,  // measure 3
0000
0000
0000
0000
,  // measure 4
0000
0000
0000
0000
,  // measure 5
2001
0000
3100
1001
,  // measure 6
0000
0001
0100
0000
0001
0000
1000
0000
,  // measure 7
0021
0000
1030
0110
,  // measure 8
1000
0100
0010
0000
0001
0000
1001
0000
,  // measure 9
0002
0000
0000
0000
,  // measure 10
2000
0000
0003
0000
,  // measure 11
0200
0000
3000
0000
,  // measure 12
0002
0000
0300
0000
,  // measure 13
2000
0000
0003
0000
,  // measure 14
0020
0000
3000
0000
,  // measure 15
0002
0000
0030
0000
,  // measure 16
2000
0000
0003
3000
,  // measure 17
0110
0000
0000
0001
0100
0000
1100
0000
,  // measure 18
0001
0000
0001
0000
0010
0100
0010
0000
,  // measure 19
1010
0000
0000
0001
0010
0000
0100
0000
,  // measure 20
0010
0010
1001
0010
,  // measure 21
0110
0000
0000
1000
0010
0000
0001
0010
,  // measure 22
0001
0001
0020
1030
,  // measure 23
0101
0000
0000
1000
0100
0000
0010
0000
,  // measure 24
0100
0100
1001
0100
,  // measure 25
1000
0102
0013
0201
,  // measure 26
0310
0001
0010
1010
,  // measure 27
0001
1200
0310
2100
,  // measure 28
3010
0000
0100
0010
0100
0000
0002
0000
,  // measure 29
0013
2001
3100
1002
,  // measure 30
0103
0010
1000
0200
,  // measure 31
0310
0012
0103
2010
,  // measure 32
3100
0000
0010
0100
0010
0000
0002
0000
,  // measure 33
1003
0000
1000
0000
0001
0100
0010
0000
,  // measure 34
2000
0100
0000
0100
,  // measure 35
3000
0000
0100
0000
1000
0001
0100
0000
,  // measure 36
0010
2000
0000
3001
,  // measure 37
0000
0000
0001
0000
1000
0010
0100
0000
,  // measure 38
0002
0010
0000
0010
,  // measure 39
0003
0000
0010
0000
0001
1000
0010
0000
,  // measure 40
0100
0100
0010
0100
,  // measure 41
1001
0000
0010
0000
1000
0100
0001
0000
,  // measure 42
0100
0000
0010
0000
0001
0100
1000
0000
,  // measure 43
0100
0000
0010
0000
0001
0010
1000
0000
,  // measure 44
0100
0010
0001
1001
,  // measure 45
0001
0100
0001
0000
0001
0100
0010
0000
,  // measure 46
1000
0100
1000
0000
1000
0100
0010
0000
,  // measure 47
0001
1000
0100
0010
0001
0100
0010
1000
,  // measure 48
0001
0000
0000
0000
,  // measure 49
2100
0100
3100
0200
,  // measure 50
0010
0310
0100
0100
,  // measure 51
0012
0010
0013
0020
,  // measure 52
0100
0000
0130
0000
0010
0100
0010
0000
,  // measure 53
0001
1000
0100
1010
,  // measure 54
0000
0010
0100
0000
0001
0000
0000
0000
,  // measure 55
1000
0001
0100
0011
,  // measure 56
0000
0001
1000
0000
0010
0100
0010
0000
,  // measure 57
2010
0010
3010
0020
,  // measure 58
0100
0130
0010
0010
,  // measure 59
0102
0100
0103
0200
,  // measure 60
0010
0000
0310
0000
0100
0010
0100
0000
,  // measure 61
0001
1000
0010
1100
,  // measure 62
0000
0100
0010
0000
0001
0000
0000
0000
,  // measure 63
1000
0001
0010
0101
,  // measure 64
0000
0001
1000
0000
0100
0010
0100
0000
,  // measure 65
1001
0000
0000
0000
;

//---------------dance-single - ----------------
#NOTEDATA:;
#CHARTNAME:;
#STEPSTYPE:dance-single;
#DESCRIPTION:;
#CHARTSTYLE:;
#DIFFICULTY:Easy;
#METER:5;
#RADARVALUES:0.212219,0.307515,0.160854,0.331170,0.000000,157.000000,140.000000,17.000000,35.000000,0.000000,0.000000,0.000000,0.000000,0.000000,0.212219,0.307515,0.160854,0.331170,0.000000,157.000000,140.000000,17.000000,35.000000,0.000000,0.000000,0.000000,0.000000,0.000000;
#CREDIT:led_light;
#NOTES:
// measure 0
0000
0000
0000
0000
,  // measure 1
0000
0000
0000
0000
,  // measure 2
0000
0000
0000
0000
,  // measure 3
0000
0000
0000
0000
,  // measure 4
0000
0000
0000
0000
,  // measure 5
2002
3003
0100
0100
,  // measure 6
0000
1000
0001
0100
,  // measure 7
0220
0330
1000
1000
,  // measure 8
0000
0010
0100
0100
,  // measure 9
1002
0000
0000
0000
,  // measure 10
0023
0000
0000
0000
,  // measure 11
0230
0000
0000
0000
,  // measure 12
2300
0000
0000
0000
,  // measure 13
3020
0000
0000
0000
,  // measure 14
2030
0000
0000
0000
,  // measure 15
3200
0000
0000
0000
,  // measure 16
0320
0000
0000
0000
,  // measure 17
0031
0000
0001
1001
,  // measure 18
0001
0001
0001
0000
,  // measure 19
0101
0000
0010
0000
,  // measure 20
0001
1000
0200
0300
,  // measure 21
0010
0000
0010
0110
,  // measure 22
0010
0010
0010
0000
,  // measure 23
0011
0000
1000
0000
,  // measure 24
0010
0100
0002
0003
,  // measure 25
1000
0200
0300
0200
,  // measure 26
0300
1000
0010
0001
,  // measure 27
0000
2000
3000
2000
,  // measure 28
3000
0100
0100
0002
,  // measure 29
0003
0020
0030
0020
,  // measure 30
0030
1000
0010
0001
,  // measure 31
0000
0020
0030
0020
,  // measure 32
0030
0100
0100
2000
,  // measure 33
3000
0000
0001
0100
,  // measure 34
0020
0000
0100
0000
,  // measure 35
1030
0000
0100
1000
,  // measure 36
0002
0000
0100
0000
,  // measure 37
1003
0000
0001
0010
,  // measure 38
0200
0000
0010
0000
,  // measure 39
1300
0000
0010
1000
,  // measure 40
0001
0001
0010
0010
,  // measure 41
0110
0100
0010
0001
,  // measure 42
0010
0100
1000
1000
,  // measure 43
0010
0100
0010
1000
,  // measure 44
0010
0100
0001
0001
,  // measure 45
1000
0100
1000
0100
,  // measure 46
0010
0001
0010
0001
,  // measure 47
0100
0010
1000
0001
,  // measure 48
1000
0000
0000
0000
,  // measure 49
2200
0000
0000
0000
,  // measure 50
0000
3300
0000
0000
,  // measure 51
0022
0000
0000
0000
,  // measure 52
0000
0033
0000
0000
,  // measure 53
1000
0000
1000
0110
,  // measure 54
0000
0001
1000
0000
,  // measure 55
0001
0000
0001
0110
,  // measure 56
0000
1000
0001
0100
,  // measure 57
2020
0000
0000
0000
,  // measure 58
0000
3030
0000
0000
,  // measure 59
0202
0000
0000
0000
,  // measure 60
0000
0303
0000
0000
,  // measure 61
1000
0000
1000
0110
,  // measure 62
0000
0001
1000
0000
,  // measure 63
0001
0000
0001
0110
,  // measure 64
0000
1000
0001
0010
,  // measure 65
1100
0000
0000
0000
;

//---------------dance-single - ----------------
#NOTEDATA:;
#CHARTNAME:;
#STEPSTYPE:dance-single;
#DESCRIPTION:;
#CHARTSTYLE:;
#DIFFICULTY:Beginner;
#METER:2;
#RADARVALUES:0.100027,0.153757,0.085158,0.189240,0.000000,74.000000,65.000000,9.000000,20.000000,0.000000,0.000000,0.000000,0.000000,0.000000,0.100027,0.153757,0.085158,0.189240,0.000000,74.000000,65.000000,9.000000,20.000000,0.000000,0.000000,0.000000,0.000000,0.000000;
#CREDIT:led_light;
#NOTES:
0000
0000
0000
0000
,
0000
0000
0000
0000
,
0000
0000
0000
0000
,
0000
0000
0000
0000
,
0000
0000
0000
0000
,
2002
0000
0000
0000
,
3003
0000
0000
0000
,
2002
0000
0000
0000
,
3003
0000
0000
0000
,
2000
0000
0000
0000
,
0000
0000
3000
0000
,
0002
0000
0000
0000
,
0000
0000
0003
0000
,
0020
0000
0000
0000
,
0000
0000
0030
0000
,
0200
0000
0000
0000
,
0000
0000
0300
0000
,
0110
0000
0000
0000
,
0100
0000
0100
0000
,
0010
0000
0000
0000
,
1000
0000
1000
0000
,
0001
0000
0000
0000
,
0001
0000
0001
0000
,
1000
0000
0000
0000
,
0100
0000
0100
0000
,
0000
0010
0000
0010
,
0000
0000
1000
0000
,
0000
0001
0000
0001
,
0000
0000
0010
0000
,
0000
1000
0000
1000
,
0000
0000
0001
0000
,
0000
0010
0000
0010
,
0000
0000
0100
0000
,
0000
0000
0001
0000
,
2000
0000
0000
0000
,
3000
0000
1000
0000
,
0002
0000
0000
0003
,
0000
0000
0100
0000
,
0020
0000
0000
0000
,
0030
0000
0010
0000
,
0001
0000
0001
0000
,
1001
0000
0000
0000
,
0001
0000
0000
0000
,
0110
0000
0000
0000
,
0100
0000
0000
0000
,
0010
0000
0010
0000
,
0100
0000
0100
0000
,
0020
0000
0000
0000
,
0030
0000
0000
0000
,
2002
0000
0000
0000
,
0000
3003
0000
0000
,
0220
0000
0000
0000
,
0000
0330
0000
0000
,
1000
0000
1000
0000
,
0000
0000
0100
0000
,
0001
0000
0001
0000
,
0000
0000
0100
0000
,
0220
0000
0000
0000
,
0000
0330
0000
0000
,
2002
0000
0000
0000
,
0000
3003
0000
0000
,
0100
0000
0100
0000
,
0000
0000
0001
0000
,
0010
0000
0010
0000
,
0000
0000
0001
0000
,
1000
0000
0000
0000
;

//---------------dance-double - ----------------
#NOTEDATA:;
#CHARTNAME:;
#STEPSTYPE:dance-double;
#DESCRIPTION:;
#CHARTSTYLE:;
#DIFFICULTY:Hard;
#METER:11;
#RADARVALUES:0.425790,0.522775,0.246012,0.179778,0.000000,315.000000,289.000000,26.000000,19.000000,0.000000,0.000000,0.000000,0.000000,0.000000,0.425790,0.522775,0.246012,0.179778,0.000000,315.000000,289.000000,26.000000,19.000000,0.000000,0.000000,0.000000,0.000000,0.000000;
#CREDIT:led_light;
#NOTES:
00000000
00000000
00000000
00000000
,
00000000
00000000
00000000
00000000
,
00000000
00000000
00000000
00000000
,
00000000
00000000
00000000
00000000
,
00000000
00000000
00000000
00000000
,
00002200
00000000
00003300
00010000
00001000
00000000
00011000
00000000
,
00000000
00100000
00001000
00010000
00001000
00000000
01000000
00000000
,
02020000
00000000
03030000
00001000
00010000
00000000
00011000
00000000
,
00000100
00001000
00000010
00000000
00000010
00000100
00000001
00000000
,
00002002
00000000
00003000
00000000
,
00002000
00000000
00000003
00000000
,
00000200
00000000
00003000
00000000
,
00000020
00000000
00000030
00000000
,
00020000
00000000
00000300
00000000
,
00002000
00000000
00030000
00000000
,
00200000
00000000
00003000
00000000
,
02000000
00000000
03000000
00300000
,
10010000
00000000
00000000
00010000
10000000
00000000
00010000
01000000
,
00010000
00000000
01000000
00000000
01010000
01000000
00100000
00000000
,
10100000
00000000
00000000
00010000
10000000
00000000
01000000
10000000
,
01000000
00000000
01000000
00000000
01100000
00100000
00010000
00000000
,
00011000
00000000
00000000
00000100
00000010
00000000
00000100
00001000
,
00000100
00010000
00011000
00000010
,
00001010
00000000
00000000
00000100
00000001
00000000
00000010
00000100
,
00000010
00000010
00002100
00003001
,
00000100
00000000
00000100
00001000
00000100
00000000
00001000
00010000
,
00001000
00010000
00100000
01100000
,
10000000
00000000
00010000
00100000
00010000
00000000
10000000
01000000
,
10000000
00000000
00100000
01000000
00010000
00000000
20000000
00000000
,
31000000
00000000
01000000
00010000
01000000
00000000
00010000
00001000
,
00010000
00001000
00000010
00000110
,
00000001
00000000
00001000
00000010
00001000
00000000
00000001
00000100
,
00000001
00000000
00000010
00000100
00001000
00000000
00000002
00000000
,
00001003
00000000
00001000
00000000
00000001
00000100
00000010
00001000
,
00000002
00000100
00000100
00000100
,
00001003
00000000
00001000
00000000
00000100
00000010
00001000
00010000
,
01000000
00010000
00002000
00000000
00010000
00000000
00013000
00000000
,
01000000
00000000
01000000
00000000
10000000
01000000
00100000
00010000
,
20000000
01000000
01000000
01000000
,
30010000
00000000
00010000
00000000
01000000
00100000
00010000
00001000
,
00010000
00010000
00001000
00010000
,
00011000
00010000
00001000
00000000
00010000
00001000
01000000
00010000
,
00100000
01000000
00100000
00000000
01000000
10000000
01000000
00100000
,
00010000
01000000
00010000
00000000
01000000
00100000
01000000
00001000
,
00010000
00000100
00010000
00000000
00001000
00000000
00011000
00000000
,
00100000
00010000
00100000
00010000
01000000
00100000
00010000
00001000
,
00010000
00000100
00010000
00000100
00001000
00000010
00000100
00000001
,
00000010
00000010
00000010
00000010
00000100
00000100
00000100
00000100
,
00010000
00000000
00000000
00000000
,
00001000
00010000
01000000
00010000
00001000
00000000
00001000
00010000
,
01000000
00010000
00001000
00000000
00010000
00000000
00010000
00000000
,
00000010
00000100
00001000
00000100
00000010
00000000
00000010
00000100
,
00001000
00000100
00000010
00000000
00000100
00000001
00000100
00000001
,
00001001
00000001
00000010
00001010
,
00000000
00010000
00001000
00000000
00001000
00100000
00010000
00000000
,
10010000
10000000
00100000
00110000
,
00000000
01000000
00001000
00000000
00001000
00010000
00001000
00000000
,
00010000
00001000
00000100
00001000
00010000
00000000
00010000
00001000
,
00000100
00001000
00010000
00000000
00001000
00000000
00001000
00000000
,
00100000
01000000
00010000
01000000
00100000
00000000
00100000
01000000
,
00010000
01000000
00100000
00000000
01000000
10000000
01000000
10000000
,
10010000
10000000
00100000
00110000
,
00000000
00001000
00010000
00000000
00010000
00000010
00001000
00000000
,
00001001
00000001
00000010
00001010
,
00001000
00010000
00001000
00000000
00010000
01000000
00010000
00000000
,
00011000
00000000
00000000
00000000
;

//---------------dance-double - ----------------
#NOTEDATA:;
#CHARTNAME:;
#STEPSTYPE:dance-double;
#DESCRIPTION:;
#CHARTSTYLE:;
#DIFFICULTY:Medium;
#METER:8;
#RADARVALUES:0.336577,0.430521,0.236550,0.302784,0.000000,249.000000,224.000000,25.000000,32.000000,0.000000,0.000000,0.000000,0.000000,0.000000,0.336577,0.430521,0.236550,0.302784,0.000000,249.000000,224.000000,25.000000,32.000000,0.000000,0.000000,0.000000,0.000000,0.000000;
#CREDIT:led_light;
#NOTES:
00000000
00000000
00000000
00000000
,
00000000
00000000
00000000
00000000
,
00000000
00000000
00000000
00000000
,
00000000
00000000
00000000
00000000
,
00000000
00000000
00000000
00000000
,
00000201
00000000
00001300
00001010
,
00000000
00000100
00001000
00000000
00010000
00000000
00010000
00000000
,
00201000
00000000
01300000
00110000
,
00010000
01000000
00100000
00000000
00100000
10000000
00010000
00000000
,
20000000
00000000
00000000
00000000
,
02000000
00000000
30000000
00000000
,
00200000
00000000
03000000
00000000
,
00002000
00000000
00300000
00000000
,
00020000
00000000
00003000
00000000
,
00002000
00000000
00030000
00000000
,
00000200
00000000
00003000
00000000
,
00000020
00000000
00000300
00000030
,
00000110
00000000
00001000
00001001
,
00000001
00000000
00000001
00000000
00001000
00000100
00001000
00000000
,
00011000
00000000
00000000
00000000
00000100
00000000
00010000
00001000
,
00010000
00010000
01010000
00100000
,
01100000
00000000
00010000
10010000
,
10000000
10000000
00020000
00130000
,
00011000
00000000
00000000
00000000
00100000
00000000
00001000
00010000
,
00001000
00001000
00001010
00000100
,
00000001
00002000
00003100
00002000
,
00003010
00000100
00001000
00011000
,
00001000
00020000
00130000
00020000
,
00031000
00000000
01000000
00010000
01000000
00000000
00200000
00000000
,
10300000
00020000
00130000
00020000
,
01030000
00100000
00010000
00011000
,
00010000
00002000
00003100
00002000
,
00013000
00000000
00000010
00001000
00000010
00000000
00000200
00000000
,
00000301
00000000
00000001
00000000
00000010
00001000
00010000
00000000
,
02000000
00100000
00000000
00100000
,
03000000
00000000
00100000
00000000
01000000
10000000
01000000
00000000
,
10000000
00200000
00000000
10300000
,
00000000
00000000
10000000
00000000
01000000
00010000
00001000
00000000
,
00000020
00000100
00000000
00000100
,
00000030
00000000
00000100
00000000
00000010
00000001
00000010
00000000
,
00000001
00000001
00001000
00000001
,
00001001
00000000
00000010
00000000
00000001
00000010
00001000
00000000
,
00010000
00000000
01000000
00000000
10000000
01000000
00010000
00000000
,
00001000
00000000
00000100
00000000
00000001
00000100
00001000
00000000
,
00010000
01000000
10000000
10010000
,
01000000
10000000
01000000
00000000
00100000
00010000
00100000
00000000
,
00001000
00010000
00001000
00000000
00000100
00000001
00000100
00000000
,
00000001
00000010
00001000
00000000
00010000
01000000
10000000
00000000
,
00010000
00000000
00000000
00000000
,
21000000
01000000
31000000
02000000
,
00010000
03010000
00001000
00001000
,
00120000
00100000
00130000
00200000
,
00001000
00000000
00301000
00000000
00010000
00001000
00010000
00000000
,
00000100
00001000
00001000
00000101
,
00000000
00000100
00000010
00000000
00001000
00000000
00000000
00000000
,
00000001
00000010
00000010
00001100
,
00000000
00001000
00000001
00000000
00000010
00000100
00000010
00000000
,
00000012
00000010
00000013
00000020
,
00001000
00001030
00010000
00010000
,
00002100
00000100
00003100
00000200
,
00010000
00000000
00010300
00000000
00001000
00010000
00001000
00000000
,
00100000
00010000
00010000
10100000
,
00000000
00100000
01000000
00000000
00010000
00000000
00000000
00000000
,
10000000
01000000
01000000
00110000
,
00000000
00010000
10000000
00000000
01000000
00100000
00010000
00000000
,
10010000
00000000
00000000
00000000
;

//---------------dance-double - ----------------
#NOTEDATA:;
#CHARTNAME:;
#STEPSTYPE:dance-double;
#DESCRIPTION:;
#CHARTSTYLE:;
#DIFFICULTY:Easy;
#METER:4;
#RADARVALUES:0.163557,0.246012,0.123006,0.321708,0.000000,121.000000,108.000000,13.000000,34.000000,0.000000,0.000000,0.000000,0.000000,0.000000,0.163557,0.246012,0.123006,0.321708,0.000000,121.000000,108.000000,13.000000,34.000000,0.000000,0.000000,0.000000,0.000000,0.000000;
#CREDIT:led_light;
#NOTES:
00000000
00000000
00000000
00000000
,
00000000
00000000
00000000
00000000
,
00000000
00000000
00000000
00000000
,
00000000
00000000
00000000
00000000
,
00000000
00000000
00000000
00000000
,
00012000
00000000
00100000
00103000
,
00000000
00001000
00010000
00000000
,
00021000
00000000
00001000
00031000
,
00000000
00100000
00100000
00000000
,
10020000
00000000
00000000
00000000
,
20030000
00000000
00000000
00000000
,
32000000
00000000
00000000
00000000
,
03020000
00000000
00000000
00000000
,
00032000
00000000
00000000
00000000
,
00003200
00000000
00000000
00000000
,
00000302
00000000
00000000
00000000
,
00002003
00000000
00000000
00000000
,
00003010
00000000
00000011
00000000
,
00000100
00000100
00000100
00000000
,
00001010
00000000
00010000
00000000
,
00001000
00000000
00002000
00003000
,
00100000
00000000
00110000
00000000
,
01000000
01000000
01000000
00000000
,
10100000
00000000
00010000
00000000
,
00001000
00000000
00002000
00003000
,
00100000
00020000
00030000
00020000
,
00030000
10000000
00100000
01000000
,
00000000
00002000
00003000
00002000
,
00003000
00010000
00001000
00020000
,
00030000
00000200
00000300
00000200
,
00000300
00001000
00000010
00000100
,
00000000
00000002
00000003
00000002
,
00000003
00000010
00000100
00000020
,
00000030
00000000
00000100
00010000
,
00002000
00000000
00000000
00000000
,
00003000
00000000
00001000
00010000
,
00200000
00000000
00000000
00000000
,
00300000
00000000
01000000
00001000
,
00020000
00000000
00000000
00000000
,
00030000
00000000
00010000
00001000
,
00000010
00000000
00000010
00000000
,
00001001
00000000
00000001
00000000
,
00001000
00000000
00001000
00000000
,
00000010
00000000
00000100
00000000
,
00000010
00000000
00000010
00000000
,
00000100
00001000
00000100
00000000
,
00000010
00001000
00000010
00000000
,
00020000
00000000
01000000
00000000
,
00031000
00000000
00000000
00000000
,
00202000
00000000
00000000
00000000
,
00000000
00303000
00000000
00000000
,
00020020
00000000
00000000
00000000
,
00000000
00030030
00000000
00000000
,
00001000
00000000
00001000
00000000
,
00000000
00000100
00000100
00000000
,
00000001
00000000
00000001
00000000
,
00000000
00000010
00000010
00000000
,
00020200
00000000
00000000
00000000
,
00000000
00030300
00000000
00000000
,
02002000
00000000
00000000
00000000
,
00000000
03003000
00000000
00000000
,
00010000
00000000
00010000
00000000
,
00000000
00100000
00100000
00000000
,
10000000
00000000
10000000
00000000
,
00000000
01000000
01000000
00000000
,
10010000
00000000
00000000
00000000
;
