#TITLE:God sees all;
#SUBTITLE:(dj-Jo Remix);
#ARTIST:Ethyria;
#TITLETRANSLIT:;
#SUBTITLETRANSLIT:;
#ARTISTTRANSLIT:;
#GENRE:にじさんじ;
#CREDIT:;
#BANNER:God sees all (dj-Jo Remix).png;
#BACKGROUND:../bg.png;
#LYRICSPATH:;
#CDTITLE:../cdtitle.png;
#MUSIC:God sees all (dj-Jo Remix).ogg;
#OFFSET:1.551000;
#SAMPLESTART:109.820999;
#SAMPLELENGTH:15.000000;
#LASTBEATHINT:1.405050;
#SELECTABLE:YES;
#BPMS:0.000000=153.000000
;
#STOPS:
;
#BGCHANGES:3.875=God sees all (dj-Jo Remix).avi=1.000=0=0=0=StretchNoLoop====,
99999=-nosongbg-=1.000=0=0=0 // don't automatically add -songbackground-
;
#KEYSOUNDS:;
#ATTACKS:;

//---------------dance-single - ----------------
#NOTES:
     dance-single:
     :
     Beginner:
     3:
     0.104235,0.184891,0.077924,0.099175,0.000000,103.000000,92.000000,11.000000,14.000000,0.000000,0.000000,0.104235,0.184891,0.077924,0.099175,0.000000,103.000000,92.000000,11.000000,14.000000,0.000000,0.000000:
0000
0000
0000
0000
,
0000
0000
0000
0000
,
0000
0000
0000
0000
,
0000
0000
0000
0000
,
0000
0000
0000
0000
,
2002
0000
0000
0000
,
3003
0000
0000
0000
,
2002
0000
0000
0000
,
3003
0000
0000
0000
,
0220
0000
0000
0000
,
0330
0000
0000
0000
,
0220
0000
0000
0000
,
0330
0000
0000
0000
,
0002
0000
0000
0000
,
0000
0000
0000
0000
,
0003
0000
0000
0000
,
0000
0000
0000
0000
,
2000
0000
0000
0000
,
0000
0000
0000
0000
,
3000
0000
0000
0000
,
0000
0000
0000
0000
,
0010
0000
0000
0000
,
0010
0000
0000
0000
,
1000
0000
0000
0000
,
0100
0000
0000
0000
,
0010
0000
0000
0000
,
0010
0000
0000
0000
,
0001
0000
0000
0000
,
0100
0000
0000
0000
,
0000
0001
0000
0001
,
0000
0000
1000
0000
,
0000
0010
0000
0010
,
0000
0000
0100
0000
,
0000
1000
0000
1000
,
0000
0000
0001
0000
,
0000
0100
0000
0100
,
0000
0000
0010
0000
,
0001
0000
1000
0000
,
0002
0000
0003
0000
,
0010
0000
1000
0000
,
0020
0000
0030
0000
,
0001
0000
0100
0000
,
0002
0000
0003
0000
,
0010
0000
0010
0000
,
0100
0000
0100
0000
,
1001
0000
0000
0000
,
0000
0000
0000
0000
,
0000
0000
0000
0000
,
0000
0000
0000
0000
,
0100
0000
0100
0000
,
0100
0000
0100
0000
,
0010
0000
0020
0000
,
0030
0000
0000
0000
,
1001
0000
0000
0000
,
0000
0000
0000
0000
,
0100
0000
0000
0000
,
0100
0000
0000
0000
,
0010
0000
0000
0000
,
0010
0000
0000
0000
,
0001
0000
0000
0000
,
0001
0000
0000
0000
,
1000
0000
0000
0000
,
1000
0000
0000
0000
,
1000
0000
1000
0000
,
0100
0000
0001
0000
,
0000
0100
0100
0100
,
0100
0000
0100
0000
,
1000
0000
1000
0000
,
0010
0000
0001
0000
,
0000
0010
0010
0000
,
0110
0000
0000
0000
,
1001
0000
0000
0000
,
0000
0000
0000
0000
,
0110
0000
0000
0000
,
0000
0000
0000
0000
,
1000
0000
0001
0000
,
0100
0000
0100
0000
,
0001
0000
1000
0000
,
0100
0000
0100
0000
,
0110
0000
0000
0000
,
0000
0000
0000
0000
,
1001
0000
0000
0000
,
0000
0000
0000
0000
,
0001
0000
1000
0000
,
0010
0000
0010
0000
,
1000
0000
0001
0000
,
0010
0000
0010
0000
,
0100
0000
0000
0000
;

//---------------dance-single - ----------------
#NOTES:
     dance-single:
     :
     Easy:
     6:
     0.263118,0.369783,0.247939,0.198351,0.000000,260.000000,225.000000,35.000000,28.000000,0.000000,0.000000,0.263118,0.369783,0.247939,0.198351,0.000000,260.000000,225.000000,35.000000,28.000000,0.000000,0.000000:
0000
0000
0000
0000
,
0000
0000
0000
0000
,
0000
0000
0000
0000
,
0000
0000
0000
0000
,
0000
0000
0000
0000
,
2001
0000
0100
0000
,
3001
0000
0100
0000
,
1002
0000
0100
0000
,
1003
0000
0100
0000
,
0120
0000
1000
0000
,
0130
0000
1000
0000
,
0120
0000
0001
0000
,
0130
0000
0001
0000
,
2001
0000
0000
0000
,
3200
0000
0000
0000
,
0320
0000
0000
0000
,
0032
0000
0000
0000
,
2003
0000
0000
0000
,
3002
0000
0000
0000
,
0203
0000
0000
0000
,
0320
0000
0000
0000
,
0130
0011
1000
0001
,
0010
0010
1000
0010
,
0002
0010
0003
0010
,
0100
0010
0001
0100
,
0010
1100
0001
1000
,
0100
0100
0001
0100
,
2000
0100
3000
0100
,
0010
0100
1000
0001
,
2000
0100
0000
0100
,
3000
1000
0010
0100
,
0002
0010
0000
0010
,
0003
1000
0010
0001
,
2000
0010
0000
0010
,
3000
1000
0100
0010
,
0002
0100
0000
0100
,
0003
1000
0100
0001
,
0010
0100
0010
0100
,
1000
0001
0100
0001
,
1000
0010
1000
0010
,
0100
0001
0010
0001
,
1000
0001
1000
0001
,
0100
0010
0001
0010
,
1010
0000
0011
0000
,
0100
0100
0010
0010
,
1001
0000
0000
0000
,
0000
0000
0000
0000
,
0000
0000
0000
0000
,
0000
0000
0000
0000
,
0100
0100
0100
0100
,
0010
0010
0010
0010
,
2000
3002
2003
3200
,
0300
0000
0000
0000
,
0110
0100
0100
0000
,
0010
0010
0100
0000
,
1001
0000
0010
0010
,
1000
0001
0100
0010
,
0110
0000
0001
0001
,
0010
0100
1000
0001
,
1001
0000
0101
0000
,
0011
0000
1100
0010
,
1010
0000
0110
0000
,
1001
1000
0001
0001
,
1001
0000
0100
0000
0010
0010
0010
0000
,
0001
0001
1000
1000
,
1001
0100
0010
0010
,
0100
0010
0100
0000
0001
0000
0000
0000
,
1001
0000
1010
0000
,
1100
0000
0011
0100
,
0101
0000
0110
0000
,
1001
0000
0000
0000
,
2200
0000
0000
0000
,
0000
0000
3300
0001
,
0202
0000
0000
0000
,
0000
0303
1000
1001
,
0100
0010
0100
0100
,
0010
0001
1000
0001
,
0100
0010
0100
0100
,
0001
0010
0100
1000
,
1001
0000
0000
0020
0000
0000
0100
0000
,
0000
0100
0000
0130
,
0110
0000
0000
0002
0000
0000
1000
0000
,
0000
1000
0000
1003
,
0010
0100
0010
0010
,
0100
0001
1000
0001
,
0010
0100
0010
0010
,
0001
0001
1000
1000
,
1001
0000
0000
0000
;

//---------------dance-single - ----------------
#NOTES:
     dance-single:
     :
     Medium:
     8:
     0.333958,0.462228,0.262106,0.198351,0.010626,330.000000,293.000000,37.000000,28.000000,0.000000,0.000000,0.333958,0.462228,0.262106,0.198351,0.010626,330.000000,293.000000,37.000000,28.000000,0.000000,0.000000:
0000
0000
0000
0000
,
0000
0000
0000
0000
,
0000
0000
0000
0000
,
0000
0000
0000
0000
,
0000
0000
0000
0000
,
1200
0000
0001
0000
,
1300
1000
0000
0000
0110
0000
0000
0000
,
0021
0000
1000
0000
,
0031
0000
0000
0001
0000
0000
0000
0000
0110
0000
0000
0000
0001
0000
0000
0000
,
2100
0000
0010
0000
,
3100
0100
0000
0000
1001
0000
0000
0000
,
0012
0000
0100
0000
,
0013
0000
0010
0000
0100
0010
0100
0000
,
2001
0000
0000
0000
,
3002
0000
0000
0000
,
0203
0000
0000
0000
,
2300
0000
0000
0000
,
3002
0000
0000
0000
,
0023
0000
0000
0000
,
2030
0000
0000
0000
,
0002
0000
0000
3003
,
1001
0000
0100
0000
1000
0100
1000
0000
,
0001
0010
1000
0010
,
0001
0000
0001
0000
0010
0100
0010
0000
,
0001
1000
0100
1000
,
1001
0000
0010
0000
0001
0010
0001
0000
,
1000
0100
0001
0100
,
1000
0000
1000
0000
0100
0010
0100
0000
,
0001
0100
0010
0010
,
1001
0002
0013
0002
,
0103
0010
1000
1001
,
0001
2000
3100
2000
,
3010
0000
1000
0100
0010
0000
0110
0000
,
0001
2000
3010
2000
,
3100
0010
0001
1000
,
1100
0000
0101
0000
,
1000
0000
0001
0000
0100
0010
0100
0000
,
0001
0000
0001
0000
1000
0100
0010
0000
,
0200
0001
0010
1300
,
0001
0000
0001
0000
1000
0100
1000
0000
,
0001
0100
0020
0000
1000
0000
0130
0000
,
1000
0000
1000
0000
0001
0010
0100
0000
,
0020
1000
0100
0031
,
0011
0000
1100
0000
,
0001
0001
1000
0010
,
0110
0000
0000
0000
,
0000
0000
0000
0000
,
0000
0000
0000
0000
,
0000
0000
0000
0000
,
1000
0010
1000
0000
0010
0001
0010
0000
,
0001
0100
0001
0000
0100
1000
0100
0000
,
1000
0001
1000
0001
0100
0010
1000
0001
,
0000
0000
0000
0000
,
0110
0000
0100
0100
0100
0000
0010
0000
,
0100
0100
0100
0000
0010
0000
0000
0000
,
1001
0000
0100
0000
0001
1000
0100
0000
,
1000
0010
0100
0000
0010
0000
0000
0000
,
0110
0000
0100
0000
0001
0100
0010
0000
,
1000
0001
0010
0000
0100
0000
0000
0000
,
1001
0100
1100
0000
,
0011
0000
0100
0000
0001
0100
0001
0000
,
0110
1000
0010
0010
,
0110
1000
0002
1003
,
1001
0000
0100
0100
0100
0000
1000
0000
,
0010
0010
0010
0000
0001
0010
1000
0000
,
1001
0000
0001
0100
0001
0010
0001
0010
,
0100
1000
0001
0000
1000
0000
0000
0000
,
1001
0010
0011
0000
,
1100
0000
0010
0000
1000
0010
1000
0000
,
0110
0001
0100
0100
,
0110
0000
0000
0000
0001
0000
0000
0001
0000
0000
1000
0000
0000
0100
0000
0000
,
0220
0000
0000
0000
,
0000
0000
0330
1000
,
2002
0000
0000
0000
,
0000
0000
3003
0000
0010
0100
0010
0000
,
1000
1000
0001
0100
,
0010
0000
0010
0000
1000
0100
0010
0100
,
1000
1000
0001
1000
,
0100
0000
1000
0000
0010
0100
0010
0100
,
0001
0000
0000
2001
0000
0000
0100
0000
,
0000
0100
0000
3100
,
1000
0000
0000
1002
0000
0000
0100
0000
,
0000
0100
0000
0103
,
0001
0001
1000
0010
,
0100
0000
0100
0000
0001
0010
0100
0010
,
0001
0001
1000
0001
,
0010
0000
0001
0000
0100
0010
0100
0010
,
1000
0000
0000
0000
;

//---------------dance-single - ----------------
#NOTES:
     dance-single:
     :
     Hard:
     13:
     0.527249,0.677935,0.425038,0.233771,0.187725,521.000000,461.000000,60.000000,33.000000,0.000000,0.000000,0.527249,0.677935,0.425038,0.233771,0.187725,521.000000,461.000000,60.000000,33.000000,0.000000,0.000000:
0000
0000
0000
0000
,
0000
0000
0000
0000
,
0000
0000
0000
0000
,
0000
0000
0000
0000
,
0000
0000
0000
0000
,
2001
0000
0100
0000
,
3001
0001
0000
0000
1100
0000
0001
0000
,
0102
0000
1000
0000
,
0103
0000
0000
0100
0000
0000
0000
0000
0011
0000
0001
1000
0000
1000
0001
0000
,
2100
0000
0001
0000
,
3100
0100
0000
0000
0220
0000
0330
0000
,
1002
0000
0100
0000
,
1003
0000
0100
0010
0000
0100
0010
0000
0100
0000
0001
0000
0100
0000
1000
0000
,
2002
0000
0000
0003
,
0200
0000
0000
0300
,
0002
0000
0000
3000
,
0200
0000
0000
0003
,
0020
0000
0000
0300
,
2000
0000
0000
0030
,
0002
0000
0000
3000
,
0200
0000
0003
0300
,
0010
0000
0000
0000
0110
0000
0000
0010
0000
1000
0010
0000
0100
0000
0001
0000
,
1000
0100
1000
0100
0010
0100
1000
0100
,
0001
0000
0000
0000
1001
0000
0000
1000
0000
0010
0001
0000
0010
0000
0100
0000
,
1000
0001
1000
0001
0100
0010
2000
0000
,
3001
0000
0000
0000
0101
0000
0000
0001
0000
0010
0001
0000
1000
0000
0100
0000
,
0010
1000
0010
1000
0001
0100
0010
0001
,
0100
0000
0000
0000
0110
0000
0000
0010
0000
1000
0100
0000
1000
0000
0001
0000
,
0100
0010
0100
0010
1000
1000
0001
0100
,
0010
0000
0110
0001
0010
0000
0110
1000
,
0001
0000
1000
0000
0100
0000
0010
0001
,
0100
0000
0110
1000
0010
0000
0110
0001
,
0010
0000
0100
1000
0010
1000
0010
0100
,
0001
0000
0110
1000
0100
0000
0110
0001
,
1000
0000
0001
0000
0010
0000
0100
1000
,
0001
0000
0000
0010
0000
0000
0011
0000
0001
0000
0000
0100
0000
0000
0101
0000
,
0010
0000
0000
1000
0000
0000
1010
0000
1000
0000
0000
0100
0000
0010
0001
0000
,
1000
0001
1000
0001
0100
0001
0100
0001
,
1000
0010
1000
0010
0100
0001
0010
0100
,
1000
0001
1000
0001
0010
0001
0010
0001
,
1000
0100
1000
0100
0010
0001
0100
0010
,
1000
0001
1000
0001
0100
0001
0100
0001
,
1000
0100
1000
0010
1000
0100
0010
0001
,
1000
0000
0000
1100
0000
0000
1001
0000
0010
0000
0000
1010
0000
0000
0110
0000
,
0001
0000
0000
0011
0000
0000
1001
0000
0100
0000
0000
0001
0000
0100
0010
0000
,
0120
0100
0100
0100
,
0100
0100
0100
0100
,
0100
0100
0100
0100
,
0100
0100
0030
0000
,
0010
0001
0010
0001
1000
0100
1000
0100
,
1000
0010
1000
0010
0100
0001
0100
0001
,
0010
0001
0010
0000
0100
1000
0100
0000
1000
0001
1000
0001
0100
0010
1000
0001
,
0000
0000
0000
0000
,
0110
0000
0100
0100
0100
0100
0200
0300
,
0010
0010
0010
0010
0020
0000
0130
0001
,
1001
0000
1000
0010
0100
0100
0001
0100
,
0010
0010
2000
0000
3100
0100
0010
0001
,
1001
0000
0001
0010
0100
0100
1000
0100
,
0010
0000
0010
0000
0002
0000
0000
0000
1003
0000
0010
0100
0000
0001
1000
0000
,
1001
0000
0000
0000
0100
0000
0000
0011
0000
0000
0010
0000
0000
1010
0000
0000
,
0110
0000
0000
1000
0002
0000
0000
0000
0013
0000
0100
0000
1000
0000
1000
0000
,
1001
0000
0001
1000
0100
0100
0010
0010
,
0002
0000
0000
0000
0013
0000
0000
0101
0000
0000
1100
0000
0000
1010
0000
0000
,
0110
0000
0001
0010
0001
0001
1000
0001
,
0100
0001
0100
0000
0020
0000
0000
0000
1030
0000
0100
0000
0001
0000
0100
0000
,
1001
0000
0000
0001
0100
0001
1000
0100
1000
0100
0010
0001
,
1000
0000
1000
0000
0200
0000
0000
0000
1300
0000
0001
0100
0000
0001
0100
0000
,
0110
0000
0000
0000
0010
0000
0000
1100
0000
0000
0100
0000
0000
0101
0000
0000
,
0110
0000
0000
0001
2000
0000
0000
0000
3100
0000
0100
0000
0010
0000
0001
0000
,
1001
0000
1000
0001
0010
0010
0100
0100
,
2000
0000
0000
0000
3100
0000
0000
1010
0000
0000
0011
0000
0000
0101
0000
0000
,
0220
0000
0000
0000
,
0000
0000
0330
0110
,
2002
0000
0000
0000
,
0000
0000
0000
0000
3003
0000
0000
0000
0001
0000
0001
0100
0010
0000
0110
0000
,
1000
0100
1000
0001
1000
0100
0001
0100
,
1000
0001
1000
0001
0010
0100
1000
1001
,
0001
0010
0100
0010
0001
0010
1000
0010
,
0001
1000
0010
0010
0100
0100
0001
1000
,
1001
0000
0100
0120
0000
0000
0001
0000
,
0000
0000
0000
0000
1000
0000
0000
0000
0030
0000
0100
0000
0000
1000
0000
0000
,
1001
0000
0010
0210
0000
0000
0001
0000
,
0000
0000
0000
0000
1000
0000
0000
0000
0300
0000
0010
0000
0000
0110
0000
0000
,
0001
0010
0001
1000
0001
0010
1000
0010
,
0001
1000
0001
1000
0100
0010
0001
0001
,
1000
0100
0010
0100
1000
0100
0001
0100
,
1000
0001
0100
0100
0010
0010
1000
0001
,
1001
0000
0000
0000
;

//---------------dance-double - ----------------
#NOTES:
     dance-double:
     :
     Easy:
     6:
     0.258059,0.369783,0.247939,0.184183,0.000000,255.000000,220.000000,35.000000,26.000000,0.000000,0.000000,0.258059,0.369783,0.247939,0.184183,0.000000,255.000000,220.000000,35.000000,26.000000,0.000000,0.000000:
00000000
00000000
00000000
00000000
,
00000000
00000000
00000000
00000000
,
00000000
00000000
00000000
00000000
,
00000000
00000000
00000000
00000000
,
00000000
00000000
00000000
00000000
,
00021000
00000000
01000000
00000000
,
00031000
00000000
01000000
00000000
,
00012000
00000000
00000100
00000000
,
00013000
00000000
00000100
00000000
,
00001020
00000000
00000100
00000000
,
00001030
00000000
00010000
00000000
,
00210000
00000000
01000000
00000000
,
00310000
00000000
10000000
00000000
,
20010000
00000000
00000000
00000000
,
32000000
00000000
00000000
00000000
,
03200000
00000000
00000000
00000000
,
00320000
00000000
00000000
00000000
,
00032000
00000000
00000000
00000000
,
00003200
00000000
00000000
00000000
,
00000320
00000000
00000000
00000000
,
00000032
00000000
00000000
00000000
,
00001003
00001001
00000010
00000010
,
00001000
00000001
00000100
00001000
,
00020000
00001000
00030000
00010000
,
00001000
00001000
00200000
00300000
,
00010000
10010000
01000000
01000000
,
00010000
10000000
00100000
00010000
,
00002000
00010000
00003000
00001000
,
00010000
00010000
00000100
00001000
,
00000002
00000100
00000000
00000100
,
00000003
00000001
00000010
00001000
,
00020000
00001000
00000000
00001000
,
00030000
00010000
01000000
10000000
,
20000000
00100000
00000000
00100000
,
30000000
10000000
01000000
00010000
,
00002000
00010000
00000000
00010000
,
00003000
00001000
00000010
00000001
,
00001000
00001000
00001000
00001000
,
00000010
00000010
00000100
00000100
,
00001000
00001000
00001000
00001000
,
00010000
00010000
00100000
10000000
,
00010000
00010000
00010000
00010000
,
00100000
00100000
01000000
01000000
,
01100000
00000000
10010000
00000000
,
10000000
01000000
00010000
00001000
,
00011000
00000000
00000000
00000000
,
00000000
00000000
00000000
00000000
,
00000000
00000000
00000000
00000000
,
00000000
00000000
00000000
00000000
,
00010000
00010000
00001000
00001000
,
00000100
00000100
00000001
00000001
,
00000010
00001000
00010000
00002000
,
00003000
00000000
00000000
00000000
,
00011000
00001000
00001000
00000000
,
00010000
00010000
00001000
00000000
,
00011000
00000000
01000000
01000000
,
00010000
10000000
01000000
00000000
,
01100000
00000000
00010000
00010000
,
00100000
00001000
00010000
00000000
,
00011000
00000000
00001100
00000000
,
00011000
00000000
01010000
00000000
,
00011000
00000000
00001010
00000000
,
00011000
00010000
00001000
00000000
,
00011000
00000000
00000100
00000000
00000010
00000010
00000010
00000000
,
00000010
00000001
00001000
00000010
,
00000110
00000010
00001000
00001000
,
00000001
00000100
00000001
00000000
00001000
00000000
00000100
00000000
,
00011000
00000000
00001010
00000000
,
00011000
00000000
00110000
00000000
,
00011000
00000000
00001100
00000000
,
00011000
00000000
00000000
00000000
,
00022000
00000000
00000000
00000000
,
00000000
00000000
00033000
01000000
,
20020000
00000000
00000000
00000000
,
00000000
30030000
01000000
01100000
,
00010000
10000000
00010000
10000000
,
01000000
00010000
00001000
00000100
,
00000010
00000100
00000010
00001000
,
00000001
00000001
00000100
00000100
,
00000110
00000000
00000000
00000002
00000000
00000000
00000010
00000000
,
00000000
00000010
00000000
00000013
,
00001100
00000000
00000000
00020000
00000000
00000000
00000010
00000000
,
00000000
00000010
00000000
00030010
,
00001000
00000001
00001000
00000001
,
00000100
00001000
00010000
01000000
,
00100000
01000000
00100000
00010000
,
10000000
10000000
00010000
00010000
,
10010000
00000000
00000000
00000000
;

//---------------dance-double - ----------------
#NOTES:
     dance-double:
     :
     Medium:
     8:
     0.325862,0.431413,0.290442,0.198351,0.017710,322.000000,281.000000,41.000000,28.000000,0.000000,0.000000,0.325862,0.431413,0.290442,0.198351,0.017710,322.000000,281.000000,41.000000,28.000000,0.000000,0.000000:
// measure 0
00000000
00000000
00000000
00000000
,  // measure 1
00000000
00000000
00000000
00000000
,  // measure 2
00000000
00000000
00000000
00000000
,  // measure 3
00000000
00000000
00000000
00000000
,  // measure 4
00000000
00000000
00000000
00000000
,  // measure 5
00210000
00000000
01000000
00000000
,  // measure 6
00310000
00010000
00000000
00000000
01010000
00000000
00000000
00000000
,  // measure 7
00012000
00000000
00100000
00000000
,  // measure 8
00013000
00000000
00000000
00010000
00000000
00000000
00000000
00000000
00001100
00000000
00000000
00001000
00000000
00000000
00000010
00000000
,  // measure 9
00001020
00000000
00000100
00000000
,  // measure 10
00001030
00001000
00000000
00000000
00001100
00000000
00000000
00000000
,  // measure 11
00021000
00000000
00000010
00000000
,  // measure 12
00031000
00000000
00000000
00100000
00000000
00000000
00100000
00000000
00010000
00000000
01000000
00000000
00100000
00000000
00000000
00000000
,  // measure 13
20010000
00000000
00000000
00000000
,  // measure 14
30020000
00000000
00000000
00000000
,  // measure 15
00230000
00000000
00000000
00000000
,  // measure 16
00302000
00000000
00000000
00000000
,  // measure 17
00003200
00000000
00000000
00000000
,  // measure 18
00000302
00000000
00000000
00000000
,  // measure 19
00000023
00000000
00000000
00000000
,  // measure 20
00000200
00000000
00000000
00000330
,  // measure 21
00001001
00000000
00000001
00000000
00000100
00000010
00000100
00000000
,  // measure 22
00001000
00000100
00000001
00000010
,  // measure 23
00001000
00000000
00001000
00000000
00010000
00001000
00010000
00000000
,  // measure 24
00001000
00010000
01000000
10000000
,  // measure 25
10010000
00000000
10000000
00000000
00100000
01000000
00100000
00000000
,  // measure 26
00010000
00100000
10000000
01000000
,  // measure 27
00010000
00000000
00010000
00000000
00001000
00010000
00001000
00000000
,  // measure 28
00010000
00001000
00000010
00000001
,  // measure 29
00001001
00000002
00000003
00000200
,  // measure 30
00000300
00000010
00001000
00011000
,  // measure 31
00000000
02000000
03000000
00200000
,  // measure 32
00300000
00000000
01000000
00100000
10000000
00000000
10010000
00000000
,  // measure 33
00010000
20000000
30000000
02000000
,  // measure 34
03000000
00100000
00010000
00001000
,  // measure 35
00011000
00000000
00001100
00000000
,  // measure 36
00000110
00000000
00000001
00000000
00000100
00000010
00001000
00000000
,  // measure 37
00000001
00000000
00000001
00000000
00000010
00000100
00000010
00000000
,  // measure 38
00002000
00000001
00000010
00000010
,  // measure 39
00013000
00000000
00010000
00000000
00001000
00100000
00010000
00000000
,  // measure 40
10000000
00010000
02000000
00000000
00100000
00000000
03100000
00000000
,  // measure 41
10000000
00000000
10000000
00000000
01000000
00100000
01000000
00000000
,  // measure 42
00020000
10000000
01000000
01030000
,  // measure 43
00110000
00000000
10010000
00000000
,  // measure 44
01010000
00000000
00010000
00001000
,  // measure 45
00011000
00000000
00000000
00000000
,  // measure 46
00000000
00000000
00000000
00000000
,  // measure 47
00000000
00000000
00000000
00000000
,  // measure 48
00000000
00000000
00000000
00000000
,  // measure 49
00000010
00000001
00000010
00000000
00000100
00001000
00000100
00000000
,  // measure 50
00010000
00001000
00010000
00000000
00100000
01000000
00100000
00000000
,  // measure 51
10000000
01000000
10000000
01000000
00100000
00010000
00100000
00010000
,  // measure 52
00000000
00000000
00000000
00000000
,  // measure 53
00011000
00000000
00100000
00100000
00100000
00000000
00100000
00000000
,  // measure 54
00000010
00000010
00000010
00000000
00000010
00000000
00000000
00000000
,  // measure 55
00001001
00000000
00000100
00000000
00000010
00000010
00000010
00000000
,  // measure 56
00000001
00001000
00000100
00000000
00000010
00000000
00000000
00000000
,  // measure 57
00001001
00000000
00000010
00000000
00000001
00001000
00000010
00000000
,  // measure 58
00010000
00001000
00010000
00000000
01000000
00000000
00000000
00000000
,  // measure 59
11000000
00100000
10010000
00000000
,  // measure 60
01010000
00000000
00001000
00000000
00010000
00001000
00010000
00000000
,  // measure 61
00011000
00000000
00000100
00000000
00000010
00000100
00000010
00000000
,  // measure 62
00000011
00001000
00000020
00000030
,  // measure 63
00001001
00000000
00000100
00000000
00001000
00000100
00001000
00000000
,  // measure 64
00010000
00010000
00010000
00000000
00001000
00010000
00100000
00000000
,  // measure 65
01100000
00000000
00010000
00000000
00010000
00100000
01000000
00000000
,  // measure 66
10000000
01000000
10000000
00000000
00010000
00000000
00000000
00000000
,  // measure 67
10100000
01000000
10010000
00000000
,  // measure 68
00110000
00000000
00001000
00000000
00010000
00001000
00010000
00000000
,  // measure 69
00011000
00000000
00000010
00000000
00000100
00000010
00000100
00000000
,  // measure 70
00001001
00000000
00000000
00000000
00001000
00000000
00000000
00000100
00000000
00000000
00001000
00000000
00000000
00000010
00000000
00000000
,  // measure 71
00000220
00000000
00000000
00000000
,  // measure 72
00000000
00000000
00000330
00010000
,  // measure 73
00022000
00000000
00000000
00000000
,  // measure 74
00000000
00033000
00001000
00011000
,  // measure 75
00100000
00100000
00010000
00010000
,  // measure 76
10000000
00000000
00100000
00000000
01000000
00001000
00010000
00000000
,  // measure 77
00001000
00001000
00010000
00010000
,  // measure 78
00000100
00000000
00001000
00000000
00000010
00000100
00000001
00000000
,  // measure 79
00001000
00000000
00000000
00000120
00000000
00000000
00000100
00000000
,  // measure 80
00000000
00000100
00000000
00000130
,  // measure 81
00010000
00000000
00000000
00021000
00000000
00000000
00001000
00000000
,  // measure 82
00000000
00001000
00000000
00031000
,  // measure 83
01000000
01000000
00010000
00010000
,  // measure 84
10000000
00000000
01000000
00000000
00100000
00001000
00010000
00000000
,  // measure 85
00001000
00001000
00010000
00010000
,  // measure 86
00000010
00000000
00001000
00000000
00000100
00000010
00000001
00000000
,  // measure 87
00001001
00000000
00000000
00000000
;

//---------------dance-double - ----------------
#NOTES:
     dance-double:
     :
     Hard:
     13:
     0.521177,0.647120,0.389618,0.233771,0.173557,515.000000,460.000000,55.000000,33.000000,0.000000,0.000000,0.521177,0.647120,0.389618,0.233771,0.173557,515.000000,460.000000,55.000000,33.000000,0.000000,0.000000:
00000000
00000000
00000000
00000000
,
00000000
00000000
00000000
00000000
,
00000000
00000000
00000000
00000000
,
00000000
00000000
00000000
00000000
,
00000000
00000000
00000000
00000000
,
00002100
00000000
00010000
00000000
,
00003100
00000100
00000000
00000000
00000011
00000000
00000001
00000000
,
00001020
00000000
00000100
00000000
,
00010030
00000000
00000000
00010000
00000000
00000000
00000000
00000000
00011000
00000000
00001000
00100000
00000000
00100000
00010000
00000000
,
00120000
00000000
00001000
00000000
,
00130000
00100000
00000000
00000000
22000000
00000000
33000000
00000000
,
10020000
00000000
00100000
00000000
,
10030000
00000000
00100000
01000000
00000000
00100000
00010000
00000000
00001000
00000000
00000100
00000000
00000001
00000000
00001000
00000000
,
00002002
00000000
00000000
00000003
,
00000200
00000000
00000000
00000300
,
00000020
00000000
00000000
00003000
,
00020000
00000000
00000000
00000030
,
00002000
00000000
00000000
00030000
,
00200000
00000000
00000000
00003000
,
02000000
00000000
00000000
00300000
,
20000000
00000000
03000000
30000000
,
00010000
00000000
00000000
00000000
01010000
00000000
00000000
00100000
00000000
10000000
00100000
00000000
01000000
00000000
00001000
00000000
,
00010000
00001000
00010000
00000010
00001000
00000100
00000010
00000001
,
00001000
00000000
00000000
00000000
00001001
00000000
00000000
00000001
00000000
00000100
00000001
00000000
00000100
00000000
00000010
00000000
,
00001000
00000001
00001000
00000100
00010000
00001000
00020000
00000000
,
00030010
00000000
00000000
00000000
00001010
00000000
00000000
00000100
00000000
00000001
00000100
00000000
00000010
00000000
00010000
00000000
,
00001000
00010000
00001000
01000000
00010000
00100000
01000000
10000000
,
00010000
00000000
00000000
00000000
10010000
00000000
00000000
10000000
00000000
00100000
10000000
00000000
00100000
00000000
01000000
00000000
,
00010000
10000000
00010000
00100000
00001000
00001000
00010000
00001000
,
00010000
00000000
00010100
00000010
00000001
00000001
00000100
00000010
,
00001000
00000000
00010000
00000000
01000000
00000000
00100000
10000000
,
00010000
00000000
01010000
00001000
00010000
00010000
00001000
00100000
,
00010000
00000000
10000000
01000000
00100000
00100000
00001000
00010000
,
00001000
00000000
01001000
00100000
10000000
10000000
01000000
00100000
,
00010000
00000000
00001000
00000000
00000100
00000000
00000010
00000001
,
00001000
00000000
00000000
00000010
00000000
00000000
00001010
00000000
00010000
00000000
00000000
00001000
00000000
00000000
00011000
00000000
,
00100000
00000000
00000000
00010000
00000000
00000000
00110000
00000000
01000000
00000000
00000000
10000000
00000000
10000000
00010000
00000000
,
10000000
00100000
10000000
00100000
01000000
00010000
01000000
00010000
,
00100000
00001000
00100000
00001000
00010000
00001000
00010000
00001000
,
00000010
00000001
00000010
00000001
00001000
00000010
00001000
00000010
,
00000100
00000010
00000100
00000010
00001000
00000100
00010000
00001000
,
01000000
00010000
01000000
00010000
10000000
01000000
10000000
01000000
,
00100000
00010000
00100000
00010000
00001000
00000100
00000010
00000001
,
00001000
00000000
00000000
00001100
00000000
00000000
00011000
00000000
00000010
00000000
00000000
00001010
00000000
00000000
00011000
00000000
,
00100000
00000000
00000000
00110000
00000000
00000000
00011000
00000000
00001000
00000000
00000000
01000000
00000000
00010000
10000000
00000000
,
12000000
00100000
00100000
00100000
,
00010000
00010000
00010000
00010000
,
00100000
00100000
00100000
00100000
,
10000000
10000000
03000000
00000000
,
10000000
01000000
10000000
01000000
00010000
00001000
00010000
00001000
,
00000010
00000001
00000010
00000001
00000100
00000010
00000100
00000010
,
00010000
00000000
00010000
00000000
00001000
00000000
00001000
00000000
01000000
00010000
00100000
00000000
01000000
10000000
00010000
00000000
,
00000000
00000000
00000000
00000000
,
01100000
00000000
01000000
01000000
01000000
01000000
02000000
03000000
,
00000100
00000100
00000100
00000100
00000200
00000000
00000310
00000100
,
00001001
00000000
00000001
00000100
00000010
00000010
00001000
00000100
,
00010000
00010000
00002000
00000000
01003000
00001000
00010000
00010000
,
00011000
00000000
00001000
00010000
01000000
01000000
10000000
01000000
,
00100000
00000000
00100000
00000000
00020000
00000000
00000000
00000000
10030000
00000000
00100000
01000000
00000000
01000000
00010000
00000000
,
01010000
00000000
00000000
00000000
10000000
00000000
00000000
01100000
00000000
00000000
00010000
00000000
00000000
00011000
00000000
00000000
,
00001100
00000000
00000000
00000010
00000002
00000000
00000000
00000000
00001003
00000000
00000010
00000000
00000100
00000000
00000010
00000000
,
00001001
00000000
00000001
00000010
00000100
00000100
00001000
00000100
,
00000020
00000000
00000000
00000000
00000031
00000000
00000000
00001010
00000000
00000000
00011000
00000000
00000000
00110000
00000000
00000000
,
10010000
00000000
10000000
01000000
00100000
00100000
00010000
01000000
,
00001000
00010000
00001000
00000000
00020000
00000000
00000000
00000000
00030100
00000000
00010000
00000000
00001000
00000000
00001000
00000000
,
00011000
00000000
00000000
00010000
00000100
00010000
00001000
00000100
00001000
00000100
00000001
00000010
,
00000100
00000000
00000100
00000000
00002000
00000000
00000000
00000000
00003001
00000000
00000100
00000010
00000000
00000010
00001000
00000000
,
00001010
00000000
00000000
00000000
00000001
00000000
00000000
00000110
00000000
00000000
00001000
00000000
00000000
00011000
00000000
00000000
,
00110000
00000000
00000000
01000000
20000000
00000000
00000000
00000000
30010000
00000000
01000000
00000000
00100000
00000000
01000000
00000000
,
10010000
00000000
10000000
01000000
00100000
00100000
00010000
00100000
,
02000000
00000000
00000000
00000000
13000000
00000000
00000000
01010000
00000000
00000000
00011000
00000000
00000000
00001100
00000000
00000000
,
00000220
00000000
00000000
00000000
,
00000000
00000000
00000330
00000110
,
00002002
00000000
00000000
00000000
,
00000000
00000000
00000000
00000000
00003003
00000000
00000000
00000000
00000001
00000000
00001000
00000001
00001000
00000000
00000001
00000000
,
00000010
00001000
00000010
00000001
00000100
00001000
00010000
00100000
,
01000000
10000000
01000000
00100000
10000000
01000000
00100000
00010000
,
01000000
00100000
00010000
00100000
01000000
00001000
00010000
00000010
,
00001000
00000100
00010000
00010000
00001000
00001000
00100000
00010000
,
10010000
00000000
01000000
01020000
00000000
00000000
00001000
00000000
,
00000000
00000000
00000000
00000000
01000000
00000000
00000000
00000000
00030000
00000000
00001000
00000000
00000000
00000010
00000000
00000000
,
00000011
00000000
00001000
00001020
00000000
00000000
00000001
00000000
,
00000000
00000000
00000000
00000000
00001000
00000000
00000000
00000000
00000030
00000000
00000100
00000000
00000000
00000110
00000000
00000000
,
00000100
00001000
00000100
00000001
00000010
00001000
00010000
01000000
,
00100000
10000000
00100000
01000000
10000000
00100000
01000000
00010000
,
00100000
01000000
00010000
01000000
00100000
00001000
00010000
00000100
,
00001000
00000010
00010000
00010000
00001000
00001000
01000000
00010000
,
10010000
00000000
00000000
00000000
;
