#TITLE:God Sees All;
#SUBTITLE:(Odyssey Eurobeat Bootleg);
#ARTIST:Ethyria;
#TITLETRANSLIT:;
#SUBTITLETRANSLIT:;
#ARTISTTRANSLIT:;
#GENRE:にじさんじ;
#CREDIT:;
#BANNER:God Sees All (Odyssey Eurobeat Bootleg).png;
#BACKGROUND:God Sees All (Odyssey Eurobeat Bootleg)-bg.png;
#LYRICSPATH:;
#CDTITLE:../cdtitle.png;
#MUSIC:God Sees All (Odyssey Eurobeat Bootleg).ogg;
#OFFSET:1.499000;
#SAMPLESTART:72.000000;
#SAMPLELENGTH:15.000000;
#LASTBEATHINT:1.330667;
#SELECTABLE:YES;
#BPMS:0.000000=160.000000
;
#STOPS:
;
#BGCHANGES:4.000=God Sees All (Odyssey Eurobeat Bootleg).avi=1.000=0=0=0=StretchNoLoop====,
99999=-nosongbg-=1.000=0=0=0 // don't automatically add -songbackground-
;
#KEYSOUNDS:;
#ATTACKS:;

//---------------dance-single - ----------------
#NOTES:
     dance-single:
     :
     Challenge:
     16:
     0.706450,0.830934,0.126582,0.210970,0.434599,586.000000,571.000000,15.000000,25.000000,0.000000,0.000000,0.706450,0.830934,0.126582,0.210970,0.434599,586.000000,571.000000,15.000000,25.000000,0.000000,0.000000:
0000
0000
0000
0000
,
0000
0000
0000
0000
,
0000
0000
0000
0000
,
0000
0000
0000
0000
,
0000
0000
0000
0000
,
1000
0010
0000
0010
0000
0000
0020
0000
0030
0010
1000
0100
0010
0001
0010
0000
,
0001
0100
0000
0010
0000
0000
0200
0000
0300
0100
0010
0100
1000
0100
0010
0100
,
0001
0010
0000
0010
0000
0000
0020
0000
0030
0010
0001
0100
0010
1000
0010
0000
,
1000
0001
0010
0100
1000
0001
0010
0100
1000
0010
0100
0020
0000
0000
0030
0000
,
0100
0001
1000
0001
0100
0010
1000
0001
,
0010
0100
0010
0100
1000
0001
0010
0100
,
1000
0010
1000
0010
0100
0001
1000
0100
,
0010
0100
0001
0100
0010
0100
2000
0000
,
3001
0000
0101
0000
0010
1000
1100
0000
,
0001
0000
0000
0000
0011
0000
0100
0000
1000
0000
0010
0100
0001
0000
1000
0100
,
0010
0001
1000
0000
0100
1000
0020
0000
,
1030
0000
0000
0000
0001
0000
0100
0000
0010
0000
0100
0000
0001
1000
0001
1000
,
0001
0000
0010
0000
0100
0000
0010
0001
0000
0010
0001
0000
1000
0000
0001
0000
,
0100
1000
0100
0001
1000
1000
0001
0100
,
0010
0000
1000
0000
0001
0000
0010
0100
0000
0010
0100
0000
1000
0000
0001
0000
,
1000
0010
0001
0010
0100
1000
0100
0001
,
1000
0000
0100
0000
0010
0000
0100
1000
0000
0100
1000
0000
0001
0000
1000
0000
,
0010
0001
0010
1000
0001
0001
1000
0010
,
0100
0000
0001
0000
1000
0000
0100
0010
0000
0100
0010
0000
0001
0000
1000
0000
,
0001
0000
0100
0000
1000
0000
0100
0000
0010
0100
0010
0100
0001
0010
0100
1000
,
0001
0010
0011
0001
1000
0010
1010
0100
,
0001
0000
1000
0001
0010
0001
0100
0010
,
1000
0100
1100
1000
0001
0100
0101
0010
,
1000
0000
0001
1000
0100
1000
0020
0230
,
0301
0100
0101
0001
1000
0100
1100
0010
,
0001
0000
1000
0001
0100
0001
0010
0100
,
1000
0010
1010
1000
0001
0010
0011
0100
,
1000
0000
0000
0000
0001
0000
1000
0000
0010
0000
1000
0000
0100
0010
0100
0010
,
0001
1000
0001
0100
0001
0010
0100
1000
,
0010
0000
0100
0000
0010
0000
1000
0000
0001
0010
0100
0010
0001
0010
0100
1000
,
0001
1000
0010
1000
0001
0010
1000
0010
,
0001
0000
0001
0000
1000
0000
0010
0000
0100
0000
0001
0000
1000
0100
1000
0100
,
0010
0001
1000
0010
1000
0001
0010
0100
,
1000
0001
0100
0001
2000
3020
0230
0302
,
1003
1000
0100
1000
0001
0010
0100
1000
,
0010
0010
0100
0100
0001
0100
0010
1000
,
1001
0001
0010
0000
0100
1000
0010
1000
,
0100
0010
0001
0000
0010
0100
1000
0010
,
1000
0001
0100
0000
0010
1000
0100
1000
,
0010
0100
0001
0000
0100
0000
0110
0000
,
1000
0100
0010
0001
0010
0100
1000
0001
,
0010
0010
0001
0100
0010
0010
1000
0100
,
0010
0100
0010
0100
0010
0100
0010
0100
1000
0001
1000
0001
1000
0001
1000
0001
,
0100
0000
0000
0000
,
0010
1000
0100
1000
0010
0000
0100
0001
,
0010
0001
0100
0000
0020
0030
0220
0330
,
0001
0100
1000
0100
0001
0000
1000
0010
,
0001
0010
1000
0000
0001
0001
1000
1000
,
0001
0010
0100
1000
0001
1000
0100
0010
,
0001
0100
0001
0100
0010
1000
0001
0010
,
0100
0100
1000
0001
0100
0100
0010
0001
,
1000
0000
0100
0000
0010
0000
0010
0000
1000
0010
1000
0000
0001
0010
0001
0000
,
1000
0010
0001
0010
1000
0000
0001
0100
,
1000
0100
0001
0000
2000
3000
2000
3000
,
0100
1000
0010
1000
0100
0000
0010
0001
,
0100
0001
0010
0000
0200
0000
0000
0000
,
1300
0010
0100
0001
1000
0001
0100
0010
,
1000
0100
1000
0100
0010
0001
1000
0010
,
0100
0100
0001
1000
0100
0100
0010
1000
,
0001
0000
0100
0000
0010
0000
0010
0000
0001
0010
0001
0000
1001
0000
0000
0000
,
0001
0100
0000
0010
0000
0000
0020
0000
0030
0010
0100
0001
0010
0100
1000
0001
,
1000
0010
0000
0100
0000
0000
0020
0000
0030
0010
0100
0010
0001
0010
0100
0010
,
1000
0100
0000
0100
0000
0000
0020
0000
0030
0100
1000
0001
0100
0010
1000
0000
,
0001
0010
0100
1000
0001
1000
0100
0010
0001
0010
0100
1000
0100
0010
0001
0000
,
1000
0010
0000
0010
0000
0000
0020
0000
0030
0010
1000
0100
0010
0001
0010
0000
,
0001
0100
0000
0010
0000
0000
0200
0000
0300
0100
0010
0100
1000
0100
0010
0100
,
0001
0010
0000
0010
0000
0000
0020
0000
0030
0010
0001
0100
0010
1000
0010
0000
,
1000
0001
0010
0100
1000
0001
0010
0100
1000
0010
0100
0020
0000
0000
0000
0030
;

//---------------dance-single - ----------------
#NOTES:
     dance-single:
     :
     Hard:
     13:
     0.549729,0.615506,0.126582,0.227848,0.063291,456.000000,441.000000,15.000000,27.000000,0.000000,0.000000,0.549729,0.615506,0.126582,0.227848,0.063291,456.000000,441.000000,15.000000,27.000000,0.000000,0.000000:
// measure 0
0000
0000
0000
0000
,  // measure 1
0000
0000
0000
0000
,  // measure 2
0000
0000
0000
0000
,  // measure 3
0000
0000
0000
0000
,  // measure 4
0000
0000
0000
0000
,  // measure 5
2100
0000
3010
1000
0001
0100
0001
0100
,  // measure 6
0010
1000
0001
0001
0100
0001
0010
0100
,  // measure 7
1000
1000
0100
1000
0001
0001
0010
0001
,  // measure 8
1000
0000
0100
0000
0010
0000
0001
0000
1000
0010
1000
0002
0000
0000
0003
0000
,  // measure 9
2000
0000
3000
0100
0010
0100
1000
0000
,  // measure 10
0002
0000
0003
0000
0100
0002
2000
0003
,  // measure 11
3020
0000
0030
0100
0001
1000
0002
0000
,  // measure 12
2000
0000
3003
0100
2000
0000
3001
0000
,  // measure 13
1002
0000
0003
0010
0100
0010
0001
0000
,  // measure 14
2000
3000
2010
3002
,  // measure 15
0203
0000
0300
0010
1000
0001
2000
0000
,  // measure 16
0002
0000
0000
0000
3003
0000
0010
0000
0002
0000
0000
0000
1003
0100
1000
0000
,  // measure 17
0010
0000
0000
0000
0110
0000
0000
0010
0000
1000
0010
0000
0100
0000
0001
0000
,  // measure 18
1000
0100
1000
0100
0010
0100
1000
0100
,  // measure 19
0001
0000
0000
0000
1001
0000
0000
1000
0000
0010
0001
0000
0010
0000
0100
0000
,  // measure 20
1000
0001
1000
0001
0100
0010
2000
0000
,  // measure 21
3001
0000
0000
0000
0101
0000
0000
0001
0000
0010
0001
0000
1000
0000
0100
0000
,  // measure 22
0010
1000
0010
1000
0001
0100
0010
0001
,  // measure 23
0100
0000
0000
0000
0110
0000
0000
0010
0000
1000
0100
0000
1000
0000
0001
0000
,  // measure 24
0100
0010
0100
0010
1000
1000
0001
0100
,  // measure 25
0010
0000
1000
0100
0001
0000
0001
0100
,  // measure 26
1000
0001
0010
0110
,  // measure 27
0001
0000
1000
0010
0001
0000
0001
0010
,  // measure 28
1000
0000
0001
0010
0100
0000
2000
0000
,  // measure 29
3001
0000
0001
0010
1000
0000
1000
0010
,  // measure 30
0001
1000
0100
0110
,  // measure 31
1000
0000
0001
0100
1000
0000
1000
0100
,  // measure 32
0001
0000
1000
0100
0010
0000
0002
0000
,  // measure 33
1003
0000
1000
0000
0010
1000
0001
0100
,  // measure 34
0020
0001
0100
0100
,  // measure 35
1030
0000
0001
0000
0100
0010
1000
0100
,  // measure 36
0010
0100
2000
0000
0010
0000
3010
0000
,  // measure 37
0100
0000
0100
0000
0010
1000
0001
0010
,  // measure 38
0200
0001
0010
0010
,  // measure 39
1300
0000
0001
0000
0010
0001
0100
0010
,  // measure 40
1000
1000
0001
1000
,  // measure 41
1100
0010
0001
0000
1000
0100
1000
0010
,  // measure 42
0100
0001
0010
0000
0100
1000
0100
0010
,  // measure 43
0001
0100
0001
0000
1000
0010
1000
0100
,  // measure 44
0010
0001
0100
0000
0010
0000
0110
0000
,  // measure 45
1000
0100
1000
0100
1000
0001
0100
0010
,  // measure 46
1000
0001
1000
0001
1000
0100
0010
0001
,  // measure 47
0100
0100
0100
0100
0100
0100
0100
0100
,  // measure 48
0010
0000
0000
0000
,  // measure 49
1000
0100
0001
0100
1000
0000
1000
0100
,  // measure 50
0001
0100
1000
0000
0010
0000
0010
0000
,  // measure 51
0001
0010
1000
0010
0001
0000
0001
0010
,  // measure 52
1000
0010
0001
0000
0010
0100
0010
0100
,  // measure 53
1000
0100
1000
0001
1000
0100
0001
0100
,  // measure 54
1000
0001
1000
0001
0010
0100
1000
1001
,  // measure 55
0001
0010
0100
0010
0001
0010
1000
0010
,  // measure 56
0001
1000
0010
0010
0100
0100
0001
1000
,  // measure 57
0001
0010
1000
0010
0001
0000
0001
0010
,  // measure 58
1000
0010
0001
0000
0100
0000
0100
0000
,  // measure 59
1000
0100
0001
0100
1000
0000
1000
0100
,  // measure 60
0001
0100
1000
0000
0100
0010
0100
0010
,  // measure 61
0001
0010
0001
1000
0001
0010
1000
0010
,  // measure 62
0001
1000
0001
1000
0100
0010
0001
1001
,  // measure 63
1000
0100
0010
0100
1000
0100
0001
0100
,  // measure 64
1000
0001
0100
0100
0010
0010
1000
0001
,  // measure 65
0102
0000
0013
0001
1000
0100
1000
0100
,  // measure 66
0010
0001
1000
1000
0100
1000
0010
0100
,  // measure 67
0001
0001
0100
0001
1000
1000
0010
1000
,  // measure 68
0001
0000
0100
0000
0010
0000
1000
0000
0001
0010
0001
0000
0001
1000
0010
0000
,  // measure 69
2010
0000
3100
1000
0001
0010
0001
0010
,  // measure 70
0100
1000
0001
0001
0010
0001
0100
0010
,  // measure 71
1000
1000
0010
1000
0001
0001
0100
0001
,  // measure 72
1000
0000
0010
0000
0100
0000
0001
0000
1000
0100
1000
0002
0000
0000
0000
0003
;

//---------------dance-single - ----------------
#NOTES:
     dance-single:
     :
     Medium:
     9:
     0.386980,0.462025,0.168776,0.312236,0.000000,321.000000,301.000000,20.000000,37.000000,0.000000,0.000000,0.386980,0.462025,0.168776,0.312236,0.000000,321.000000,301.000000,20.000000,37.000000,0.000000,0.000000:
0000
0000
0000
0000
,
0000
0000
0000
0000
,
0000
0000
0000
0000
,
0000
0000
0000
0000
,
0000
0000
0000
0000
,
2002
0000
3003
0000
0001
0100
0001
0000
,
1000
0010
1000
0000
0001
0100
0010
1000
,
0001
0100
0001
0000
0010
0100
1000
0001
,
0000
1000
0100
0000
1000
0001
1000
0000
,
0020
0000
0100
0000
,
2030
0000
0100
0000
,
3002
0000
0010
0000
,
2003
0000
3100
1000
,
0002
0000
1000
0000
,
0023
0000
1000
0000
,
0230
0000
0001
0000
,
0320
0000
0031
1000
,
1001
0000
0100
0000
1000
0100
1000
0000
,
0001
0010
1000
0010
,
0001
0000
0001
0000
0010
0100
0010
0000
,
0001
1000
0100
1000
,
1001
0000
0010
0000
0001
0010
0001
0000
,
1000
0100
0001
0100
,
1000
0000
1000
0000
0100
0010
0100
0000
,
0001
0100
0010
0010
,
1000
0102
0013
0201
,
0310
0001
0010
1010
,
0001
1200
0310
2100
,
3010
0000
0100
0010
0100
0000
0002
0000
,
0013
2001
3100
1002
,
0103
0010
1000
0200
,
0310
0012
0103
2010
,
3100
0000
0010
0100
0010
0000
0002
0000
,
1003
0000
1000
0000
0001
0100
0010
0000
,
2000
0100
0000
0100
,
3000
0000
0100
0000
1000
0001
0100
0000
,
0010
2000
0000
3001
,
0000
0000
0001
0000
1000
0010
0100
0000
,
0002
0010
0000
0010
,
0003
0000
0010
0000
0001
1000
0010
0000
,
0100
0100
0010
0100
,
1001
0000
0010
0000
1000
0100
0001
0000
,
0100
0000
0010
0000
0001
0100
1000
0000
,
0100
0000
0010
0000
0001
0010
1000
0000
,
0100
0010
0001
1001
,
0001
0100
0001
0000
0001
0100
0010
0000
,
1000
0100
1000
0000
1000
0100
0010
0000
,
0001
1000
0100
0010
0001
0100
0010
1000
,
0001
0000
0000
0000
,
2100
0100
3100
0200
,
0010
0310
0100
0100
,
0012
0010
0013
0020
,
0100
0000
0130
0000
0010
0100
0010
0000
,
0001
0001
1000
0010
,
0100
0000
0100
0000
0001
0010
0100
0010
,
0001
0001
1000
0001
,
0010
0000
0001
0000
0100
0010
0100
0010
,
2010
0010
3010
0020
,
0100
0130
0010
0010
,
0102
0100
0103
0200
,
0010
0000
0310
0000
0100
0010
0100
0000
,
1000
1000
0001
0100
,
0010
0000
0010
0000
1000
0100
0010
0100
,
1000
1000
0001
1000
,
0100
0000
1000
0000
0010
0100
0010
0100
,
2002
0000
3003
0000
1000
0010
1000
0000
,
0001
0100
0001
0000
1000
0010
0100
0001
,
1000
0010
1000
0000
0100
0010
0001
1000
,
0000
0001
0010
0000
0001
1000
0001
0000
,
2002
0000
3003
0000
0001
0100
0001
0000
,
1000
0010
1000
0000
0001
0100
0010
1000
,
0001
0100
0001
0000
0010
0100
1000
0001
,
0000
1000
0100
0000
1000
0001
2000
0000
,
3000
0000
0000
0000
;

//---------------dance-single - ----------------
#NOTES:
     dance-single:
     :
     Easy:
     6:
     0.241109,0.308017,0.059072,0.286920,0.000000,200.000000,193.000000,7.000000,34.000000,0.000000,0.000000,0.241109,0.308017,0.059072,0.286920,0.000000,200.000000,193.000000,7.000000,34.000000,0.000000,0.000000:
0000
0000
0000
0000
,
0000
0000
0000
0000
,
0000
0000
0000
0000
,
0000
0000
0000
0000
,
0000
0000
0000
0000
,
1000
0000
0001
0001
,
1000
0100
0010
0000
,
0001
0000
1000
1000
,
0001
0010
0100
1000
,
0002
0000
1003
0000
,
0020
0000
2030
0000
,
3200
0000
0310
0000
,
0020
0000
0130
0000
,
2000
0000
3001
0000
,
0020
0000
0032
0000
,
0203
0000
0310
0000
,
0020
0000
0130
0010
,
0100
0011
1000
0001
,
0010
0010
1000
0010
,
0002
0010
0003
0010
,
0100
0010
0001
0100
,
0010
1100
0001
1000
,
0100
0100
0001
0100
,
2000
0100
3000
0100
,
0010
0100
1000
0001
,
1000
0200
0300
0200
,
0300
1000
0010
0001
,
0000
2000
3000
2000
,
3000
0100
0100
0002
,
0003
0020
0030
0020
,
0030
1000
0010
0001
,
0000
0020
0030
0020
,
0030
0100
0100
2000
,
3000
0000
0001
0100
,
0020
0000
0100
0000
,
1030
0000
0100
1000
,
0002
0000
0100
0000
,
1003
0000
0001
0010
,
0200
0000
0010
0000
,
1300
0000
0010
1000
,
0001
0001
0010
0010
,
0110
0100
0010
0001
,
0010
0100
1000
1000
,
0010
0100
0010
1000
,
0010
0100
0001
0001
,
1000
0100
1000
0100
,
0010
0001
0010
0001
,
0100
0010
1000
0001
,
1000
0000
0000
0000
,
2200
0000
0000
0000
,
0000
3300
0000
0000
,
0022
0000
0000
0000
,
0000
0033
0000
0000
,
0100
0010
0100
0100
,
0010
0001
1000
0001
,
0100
0010
0100
0100
,
0001
0010
0100
1000
,
2020
0000
0000
0000
,
0000
3030
0000
0000
,
0202
0000
0000
0000
,
0000
0303
0000
0000
,
0010
0100
0010
0010
,
0100
0001
1000
0001
,
0010
0100
0010
0010
,
0001
0001
1000
1000
,
0001
0000
1000
1000
,
0001
0100
0010
0000
,
1000
0000
0001
0001
,
1000
0010
0100
0001
,
1000
0000
0001
0001
,
1000
0100
0010
0000
,
0001
0000
1000
1000
,
0001
0010
0100
2000
,
3000
0000
0000
0000
;

//---------------dance-single - ----------------
#NOTES:
     dance-single:
     :
     Beginner:
     2:
     0.092827,0.179747,0.075949,0.101266,0.000000,77.000000,68.000000,9.000000,12.000000,0.000000,0.000000,0.092827,0.179747,0.075949,0.101266,0.000000,77.000000,68.000000,9.000000,12.000000,0.000000,0.000000:
0000
0000
0000
0000
,
0000
0000
0000
0000
,
0000
0000
0000
0000
,
0000
0000
0000
0000
,
0000
0000
0000
0000
,
1001
0000
0000
0000
,
0000
0000
0000
0000
,
0001
0000
0000
0000
,
0000
0000
0000
0000
,
1000
0000
0000
0000
,
0000
0000
0000
0000
,
1000
0000
0000
0000
,
0000
0000
0000
0000
,
0001
0000
0000
0000
,
0000
0000
0000
0000
,
0001
0000
0000
0000
,
0000
0000
0000
0000
,
0010
0000
0000
0000
,
0010
0000
0000
0000
,
1000
0000
0000
0000
,
0100
0000
0000
0000
,
0010
0000
0000
0000
,
0010
0000
0000
0000
,
0001
0000
0000
0000
,
0100
0000
0000
0000
,
0000
0010
0000
0010
,
0000
0000
1000
0000
,
0000
0001
0000
0001
,
0000
0000
0010
0000
,
0000
1000
0000
1000
,
0000
0000
0001
0000
,
0000
0010
0000
0010
,
0000
0000
0100
0000
,
0000
0000
0001
0000
,
2000
0000
0000
0000
,
3000
0000
1000
0000
,
0002
0000
0000
0003
,
0000
0000
0100
0000
,
0020
0000
0000
0000
,
0030
0000
0010
0000
,
0001
0000
0001
0000
,
1001
0000
0000
0000
,
0001
0000
0000
0000
,
0110
0000
0000
0000
,
0100
0000
0000
0000
,
0010
0000
0010
0000
,
0100
0000
0100
0000
,
0020
0000
0000
0000
,
0030
0000
0000
0000
,
2002
0000
0000
0000
,
0000
3003
0000
0000
,
0220
0000
0000
0000
,
0000
0330
0000
0000
,
1000
0000
0001
0000
,
0100
0000
0100
0000
,
0001
0000
1000
0000
,
0100
0000
0100
0000
,
0220
0000
0000
0000
,
0000
0330
0000
0000
,
2002
0000
0000
0000
,
0000
3003
0000
0000
,
0001
0000
1000
0000
,
0010
0000
0010
0000
,
1000
0000
0001
0000
,
0010
0000
0010
0000
,
1001
0000
0000
0000
,
0000
0000
0000
0000
,
1000
0000
0000
0000
,
0000
0000
0000
0000
,
1001
0000
0000
0000
,
0000
0000
0000
0000
,
0001
0000
0000
0000
;

//---------------dance-double - ----------------
#NOTES:
     dance-double:
     :
     Challenge:
     16:
     0.690778,0.769383,0.126582,0.210970,0.383966,573.000000,558.000000,15.000000,25.000000,0.000000,0.000000,0.690778,0.769383,0.126582,0.210970,0.383966,573.000000,558.000000,15.000000,25.000000,0.000000,0.000000:
00000000
00000000
00000000
00000000
,
00000000
00000000
00000000
00000000
,
00000000
00000000
00000000
00000000
,
00000000
00000000
00000000
00000000
,
00000000
00000000
00000000
00000000
,
00100000
00001000
00000000
00001000
00000000
00000000
00020000
00000000
00030000
00010000
00000100
00001000
00000010
00010000
00001000
00000000
,
01000000
00010000
00000000
00100000
00000000
00000000
02000000
00000000
03000000
10000000
01000000
10000000
01000000
00100000
00010000
00000000
,
01000000
00001000
00000000
00001000
00000000
00000000
00020000
00000000
00030000
00010000
00000010
00001000
00000100
00010000
00001000
00000000
,
00100000
00010000
01000000
00000000
00100000
10000000
00010000
00000000
00100000
01000000
00100000
00020000
00000000
00000000
00030000
00000000
,
10000000
00010000
00100000
00010000
01000000
00100000
10000000
01000000
,
00010000
00001000
00010000
00001000
00000010
00000001
00000010
00000100
,
00001000
00000010
00000100
00000010
00001000
00000001
00001000
00000100
,
00001000
00010000
00100000
00010000
01000000
00100000
20000000
00000000
,
30010000
00000000
01010000
00000000
00001000
00100000
00110000
00000000
,
00001000
00000000
00000000
00000000
00011000
00000000
00000010
00000000
00001000
00000000
00000001
00000010
00000100
00000000
00001000
00000100
,
00000010
00000001
00001000
00000000
00000010
00000100
00000002
00000000
,
00001003
00000000
00000000
00000000
00000100
00000000
00010000
00000000
00001000
00000000
01000000
00000000
00100000
01000000
00100000
01000000
,
00100000
00000000
10000000
00000000
01000000
00000000
00100000
00010000
00000000
00010000
10000000
00000000
00100000
00000000
00010000
00000000
,
00001000
00010000
00100000
01000000
00001000
00010000
00000010
00001000
,
00000100
00000000
00010000
00000000
00001000
00000000
00000010
00000001
00000000
00000001
00001000
00000000
00000100
00000000
00010000
00000000
,
00000010
00001000
00000001
00000010
00000100
00010000
00001000
00000000
,
00000100
00000000
00000001
00000000
00000010
00000000
00000100
00001000
00000000
00001000
00000001
00000000
00000100
00000000
00001000
00000000
,
00010000
00001000
00000100
00000010
00010000
00001000
01000000
00010000
,
00100000
00000000
00001000
00000000
00010000
00000000
01000000
10000000
00000000
10000000
00010000
00000000
00100000
00000000
00001000
00000000
,
01000000
00000000
00010000
00000000
10000000
00000000
01000000
00000000
00100000
01000000
00100000
00000000
00010000
01000000
00010000
01000000
,
00100000
10000000
10100000
00100000
00010000
00001000
00011000
00010000
,
00001000
00000000
00000100
00000001
00000010
00000001
00000100
00000010
,
00000100
00000001
00000101
00000100
00001000
00010000
00011000
00001000
,
00010000
00000000
00100000
10000000
01000000
10000000
00020000
00230000
,
01300000
10000000
11000000
01000000
00010000
00001000
00011000
00010000
,
00001000
00000000
00000010
00000001
00000100
00000001
00000010
00000100
,
00000010
00000001
00000011
00000010
00001000
00010000
00011000
00001000
,
00010000
00000000
00000000
00000000
01000000
00000000
10000000
00000000
00100000
00000000
10000000
00000000
01000000
00100000
01000000
00100000
,
00010000
00100000
00010000
10000000
00010000
01000000
00010000
00001000
,
00000010
00000000
00000001
00000000
00000010
00000000
00000100
00000000
00000001
00001000
00000001
00001000
00000100
00000010
00000100
00000010
,
00000001
00000010
00000100
00001000
00000001
00001000
00000010
00000100
,
00001000
00000000
00001000
00000000
00000100
00000000
00000001
00000000
00001000
00000000
00000100
00000000
00000010
00000001
00000010
00000100
,
00001000
00000100
00001000
00000001
00001000
00000010
00001000
00010000
,
01000000
10000000
01000000
00100000
20000000
30020000
00230000
02300000
,
13000000
01000000
00100000
00010000
10000000
00010000
01000000
00100000
,
00010000
00010000
00100000
00100000
01000000
00001000
00010000
00001000
,
00011000
00010000
00000100
00000000
00001000
00000010
00000100
00000001
,
00001000
00000100
00010000
00000000
00000100
00001000
00000010
00000010
,
00010000
00001000
00100000
00000000
00010000
01000000
00100000
10000000
,
00010000
00100000
00001000
00000000
00010000
00000000
00011000
00000000
,
00100000
00010000
00100000
00010000
10000000
00100000
10000000
00100000
,
01000000
01000000
00001000
00001000
00010000
00010000
00000010
00000010
,
00001000
00000100
00001000
00000100
00001000
00000100
00001000
00000100
00010000
00001000
00010000
00001000
00010000
00001000
00010000
00001000
,
00010000
00000000
00000000
00000000
,
00010000
01000000
10000000
01000000
00010000
00000000
00001000
00000100
,
00000001
00000100
00001000
00000000
00020000
00030000
00022000
00033000
,
00001000
00000010
00000001
00000010
00001000
00000000
00010000
00100000
,
10000000
00100000
00010000
00000000
00001000
00001000
00010000
00010000
,
00001000
00010000
01000000
10000000
00100000
10000000
01000000
00100000
,
00010000
01000000
10000000
01000000
00100000
10000000
00010000
00100000
,
01000000
01000000
10000000
00010000
01000000
01000000
00100000
00010000
,
00001000
00000000
00010000
00000000
00001000
00000000
00000100
00000000
00000010
00001000
00000010
00000000
00010000
00001000
00010000
00000000
,
00001000
00000010
00000001
00000010
00001000
00000000
00010000
00100000
,
10000000
00100000
00010000
00000000
00002000
00003000
00002000
00003000
,
00010000
01000000
10000000
01000000
00010000
00000000
00001000
00000100
,
00000001
00000100
00001000
00000000
00020000
00000000
00000000
00000000
,
00031000
00010000
00100000
10000000
01000000
10000000
00100000
01000000
,
00010000
00100000
10000000
00100000
01000000
10000000
00010000
01000000
,
00100000
00100000
10000000
00010000
00100000
00100000
01000000
00010000
,
00001000
00000000
00010000
00000000
00001000
00000000
00000010
00000000
00000100
00001000
00000100
00000000
00011000
00000000
00000000
00000000
,
01000000
00001000
00000000
00001000
00000000
00000000
00020000
00000000
00030000
00010000
00000010
00001000
00000100
00010000
00001000
00000000
,
00100000
00010000
00000000
01000000
00000000
00000000
00200000
00000000
00300000
10000000
00100000
10000000
00100000
01000000
00010000
00000000
,
00100000
00001000
00000000
00001000
00000000
00000000
00020000
00000000
00030000
00010000
00000100
00001000
00000010
00010000
00001000
00000000
,
01000000
00010000
00100000
00000000
01000000
00100000
00010000
00000000
10000000
00100000
01000000
00100000
10000000
00000000
01000000
00000000
,
00100000
00001000
00000000
00001000
00000000
00000000
00020000
00000000
00030000
00010000
00000100
00001000
00000010
00010000
00001000
00000000
,
01000000
00010000
00000000
00100000
00000000
00000000
02000000
00000000
03000000
10000000
01000000
10000000
01000000
00100000
00010000
00000000
,
01000000
00001000
00000000
00001000
00000000
00000000
00020000
00000000
00030000
00010000
00000010
00001000
00000100
00010000
00001000
00000000
,
00100000
00010000
01000000
00000000
00100000
10000000
00010000
00000000
00100000
01000000
00100000
00020000
00000000
00000000
00000000
00030000
;

//---------------dance-double - ----------------
#NOTES:
     dance-double:
     :
     Hard:
     13:
     0.546112,0.584731,0.109705,0.227848,0.059072,453.000000,440.000000,13.000000,27.000000,0.000000,0.000000,0.546112,0.584731,0.109705,0.227848,0.059072,453.000000,440.000000,13.000000,27.000000,0.000000,0.000000:
00000000
00000000
00000000
00000000
,
00000000
00000000
00000000
00000000
,
00000000
00000000
00000000
00000000
,
00000000
00000000
00000000
00000000
,
00000000
00000000
00000000
00000000
,
00000012
00000000
00001003
00000001
00000100
00000010
00000100
00000010
,
00001000
00000100
00010000
00001000
01000000
00001000
00010000
00010000
,
00001000
00010000
00000100
00010000
00000010
00010000
00001000
00001000
,
00100000
00000000
00010000
00000000
10000000
00000000
01000000
00000000
10000000
00010000
10000000
00200000
00000000
00000000
00300000
00000000
,
00200000
00000000
00300000
10000000
01000000
00100000
00010000
00000000
,
20000000
00000000
30000000
00000000
01000000
20000000
00020000
30000000
,
00230000
00000000
00300000
00001000
00010000
00000100
00020000
00000000
,
00002000
00000000
00033000
00010000
00000020
00000000
00000130
00000000
,
00002010
00000000
00003000
00000001
00000010
00000100
00001000
00000000
,
00000002
00000003
00002100
00003020
,
00020030
00000000
00030000
00001000
00100000
00001000
00020000
00000000
,
00002000
00000000
00000000
00000000
00033000
00000000
00100000
00000000
02000000
00000000
00000000
00000000
13000000
00010000
10000000
00000000
,
00010000
00000000
00000000
00000000
01010000
00000000
00000000
00100000
00000000
10000000
00100000
00000000
01000000
00000000
00001000
00000000
,
00010000
00001000
00010000
00000010
00001000
00000100
00000010
00000001
,
00001000
00000000
00000000
00000000
00001001
00000000
00000000
00000001
00000000
00000100
00000001
00000000
00000100
00000000
00000010
00000000
,
00001000
00000001
00001000
00000100
00010000
00001000
00020000
00000000
,
00030010
00000000
00000000
00000000
00001010
00000000
00000000
00000100
00000000
00000001
00000100
00000000
00000010
00000000
00010000
00000000
,
00001000
00010000
00001000
01000000
00010000
00100000
01000000
10000000
,
00010000
00000000
00000000
00000000
10010000
00000000
00000000
10000000
00000000
00100000
10000000
00000000
00100000
00000000
01000000
00000000
,
00010000
10000000
00010000
00100000
00001000
00001000
00010000
00001000
,
00000100
00000000
00000100
00001000
00000100
00000000
00001000
00010000
,
00001000
00010000
00100000
01100000
,
10000000
00000000
00010000
00100000
00010000
00000000
10000000
01000000
,
10000000
00000000
00100000
01000000
00010000
00000000
20000000
00000000
,
31000000
00000000
01000000
00010000
01000000
00000000
00010000
00001000
,
00010000
00001000
00000010
00000110
,
00000001
00000000
00001000
00000010
00001000
00000000
00000001
00000100
,
00000001
00000000
00000010
00000100
00001000
00000000
00000002
00000000
,
00001003
00000000
00001000
00000000
00000001
00000100
00000010
00001000
,
00000002
00000100
00000100
00000100
,
00001003
00000000
00001000
00000000
00000100
00000010
00001000
00010000
,
01000000
00010000
00002000
00000000
00010000
00000000
00013000
00000000
,
01000000
00000000
01000000
00000000
10000000
01000000
00100000
00010000
,
20000000
01000000
01000000
01000000
,
30010000
00000000
00010000
00000000
01000000
00100000
00010000
00001000
,
00010000
00010000
00001000
00010000
,
00011000
00010000
00001000
00000000
00010000
00001000
01000000
00010000
,
00100000
01000000
00100000
00000000
01000000
10000000
01000000
00100000
,
00010000
01000000
00010000
00000000
01000000
00100000
01000000
00001000
,
00010000
00000100
00010000
00000000
00001000
00000000
00011000
00000000
,
00100000
00010000
00100000
00010000
01000000
00100000
00010000
00001000
,
00010000
00000100
00010000
00000100
00001000
00000010
00000100
00000001
,
00000010
00000010
00000010
00000010
00000100
00000100
00000100
00000100
,
00010000
00000000
00000000
00000000
,
00001000
00010000
01000000
00010000
00001000
00000000
00001000
00010000
,
01000000
00010000
00001000
00000000
00010000
00000000
00010000
00000000
,
00000010
00000100
00001000
00000100
00000010
00000000
00000010
00000100
,
00001000
00000100
00000010
00000000
00000100
00000001
00000100
00000001
,
00000010
00001000
00000010
00000001
00000100
00001000
00010000
00100000
,
01000000
10000000
01000000
00100000
10000000
01000000
00100000
00010000
,
01000000
00100000
00010000
00100000
01000000
00001000
00010000
00000010
,
00001000
00000100
00010000
00010000
00001000
00001000
00100000
00010000
,
00010000
00001000
00000100
00001000
00010000
00000000
00010000
00001000
,
00000100
00001000
00010000
00000000
00001000
00000000
00001000
00000000
,
00100000
01000000
00010000
01000000
00100000
00000000
00100000
01000000
,
00010000
01000000
00100000
00000000
01000000
10000000
01000000
10000000
,
00100000
00010000
00100000
10000000
01000000
00010000
00001000
00000010
,
00000100
00000001
00000100
00000010
00000001
00000100
00000010
00001000
,
00000100
00000010
00001000
00000010
00000100
00010000
00001000
00100000
,
00010000
01000000
00001000
00001000
00010000
00010000
00000010
00001000
,
00000102
00000000
00001003
00000001
00000010
00000100
00000010
00000100
,
00001000
00000010
00010000
00001000
00100000
00001000
00010000
00010000
,
00001000
00010000
00000010
00010000
00000100
00010000
00001000
00001000
,
01000000
00000000
00010000
00000000
10000000
00000000
00100000
00000000
10000000
00010000
10000000
00000000
01000000
00000000
00100000
00000000
,
21000000
00000000
30010000
10000000
00100000
01000000
00100000
01000000
,
00010000
00100000
00001000
00010000
00000010
00010000
00001000
00001000
,
00010000
00001000
00100000
00001000
01000000
00001000
00010000
00010000
,
00000100
00000000
00001000
00000000
00000001
00000000
00000010
00000000
00000001
00001000
00000001
00000200
00000000
00000000
00000000
00000300
;

//---------------dance-double - ----------------
#NOTES:
     dance-double:
     :
     Medium:
     9:
     0.365280,0.431224,0.109705,0.303797,0.000000,303.000000,290.000000,13.000000,36.000000,0.000000,0.000000,0.365280,0.431224,0.109705,0.303797,0.000000,303.000000,290.000000,13.000000,36.000000,0.000000,0.000000:
00000000
00000000
00000000
00000000
,
00000000
00000000
00000000
00000000
,
00000000
00000000
00000000
00000000
,
00000000
00000000
00000000
00000000
,
00000000
00000000
00000000
00000000
,
00000022
00000000
00000033
00000000
00001000
00000010
00001000
00000000
,
00000100
00000000
00000100
00000000
00000010
00000001
00000100
00000000
,
00001000
00001000
00001000
00000000
00010000
00010000
00010000
00001000
,
00000000
01000000
00010000
00000000
00100000
01000000
10000000
00000000
,
00020000
00000000
00100000
00000000
,
20030000
00000000
01000000
00000000
,
30200000
00000000
01000000
00000000
,
00320000
00000000
00031000
00001000
,
00020000
00000000
00000100
00000000
,
00030020
00000000
00001000
00000000
,
00000230
00000000
00000001
00000000
,
00000320
00000000
00001030
00000001
,
00001001
00000000
00000001
00000000
00000100
00000010
00000100
00000000
,
00001000
00000100
00000001
00000010
,
00001000
00000000
00001000
00000000
00010000
00001000
00010000
00000000
,
00001000
00010000
01000000
10000000
,
10010000
00000000
10000000
00000000
00100000
01000000
00100000
00000000
,
00010000
00100000
10000000
01000000
,
00010000
00000000
00010000
00000000
00001000
00010000
00001000
00000000
,
00010000
00001000
00000010
00000001
,
00000001
00002000
00003100
00002000
,
00003010
00000100
00001000
00011000
,
00001000
00020000
00130000
00020000
,
00031000
00000000
01000000
00010000
01000000
00000000
00200000
00000000
,
10300000
00020000
00130000
00020000
,
01030000
00100000
00010000
00011000
,
00010000
00002000
00003100
00002000
,
00013000
00000000
00000010
00001000
00000010
00000000
00000200
00000000
,
00000301
00000000
00000001
00000000
00000010
00001000
00010000
00000000
,
02000000
00100000
00000000
00100000
,
03000000
00000000
00100000
00000000
01000000
10000000
01000000
00000000
,
10000000
00200000
00000000
10300000
,
00000000
00000000
10000000
00000000
01000000
00010000
00001000
00000000
,
00000020
00000100
00000000
00000100
,
00000030
00000000
00000100
00000000
00000010
00000001
00000010
00000000
,
00000001
00000001
00001000
00000001
,
00001001
00000000
00000010
00000000
00000001
00000010
00001000
00000000
,
00010000
00000000
01000000
00000000
10000000
01000000
00010000
00000000
,
00001000
00000000
00000100
00000000
00000001
00000100
00001000
00000000
,
00010000
01000000
10000000
10010000
,
01000000
10000000
01000000
00000000
00100000
00010000
00100000
00000000
,
00001000
00010000
00001000
00000000
00000100
00000001
00000100
00000000
,
00000001
00000010
00001000
00000000
00010000
01000000
10000000
00000000
,
00010000
00000000
00000000
00000000
,
21000000
01000000
31000000
02000000
,
00010000
03010000
00001000
00001000
,
00120000
00100000
00130000
00200000
,
00001000
00000000
00301000
00000000
00010000
00001000
00010000
00001000
,
00100000
00100000
00010000
00010000
,
10000000
00000000
00100000
00000000
01000000
00001000
00010000
00000000
,
00001000
00001000
00010000
00010000
,
00000100
00000000
00001000
00000000
00000010
00000100
00000001
00000000
,
00000012
00000010
00000013
00000020
,
00001000
00001030
00010000
00010000
,
00002100
00000100
00003100
00000200
,
00010000
00000000
00010300
00000000
00001000
00010000
00001000
00000000
,
01000000
01000000
00010000
00010000
,
10000000
00000000
01000000
00000000
00100000
00001000
00010000
00000000
,
00001000
00001000
00010000
00010000
,
00000010
00000000
00001000
00000000
00000100
00000010
00000001
00000000
,
00000022
00000000
00000033
00000000
00001000
00000010
00001000
00000000
,
00000100
00000000
00000100
00000000
00000010
00000001
00000100
00000000
,
00001000
00001000
00001000
00000000
00010000
00010000
00010000
00001000
,
00000000
01000000
00010000
00000000
00100000
01000000
10000000
00000000
,
22000000
00000000
33000000
00000000
00010000
01000000
00010000
00000000
,
00100000
00000000
00100000
00000000
01000000
10000000
00100000
00000000
,
00010000
00010000
00010000
00000000
00001000
00001000
00001000
00010000
,
00000000
00000010
00001000
00000000
00000100
00000010
00000002
00000000
,
00000003
00000000
00000000
00000000
;

//---------------dance-double - ----------------
#NOTES:
     dance-double:
     :
     Easy:
     5:
     0.215793,0.308017,0.059072,0.286920,0.000000,179.000000,172.000000,7.000000,34.000000,0.000000,0.000000,0.215793,0.308017,0.059072,0.286920,0.000000,179.000000,172.000000,7.000000,34.000000,0.000000,0.000000:
00000000
00000000
00000000
00000000
,
00000000
00000000
00000000
00000000
,
00000000
00000000
00000000
00000000
,
00000000
00000000
00000000
00000000
,
00000000
00000000
00000000
00000000
,
00010000
00000000
00001000
00001000
,
00100000
00010000
01000000
00000000
,
00100000
00000000
10000000
10000000
,
00010000
10000000
01000000
00010000
,
00002000
00000000
00013000
00000000
,
00020000
00000000
00030100
00000000
,
00002000
00000000
00003010
00000000
,
00000020
00000000
00010030
00000000
,
00020000
00000000
00031000
00000000
,
00002000
00000000
01003000
00000000
,
00020000
00000000
00130000
00000000
,
00200000
00000000
01300000
00100000
,
00010000
10010000
01000000
01000000
,
00010000
10000000
00100000
00010000
,
00002000
00010000
00003000
00001000
,
00010000
00010000
00000200
00000300
,
00001000
00001001
00000010
00000010
,
00001000
00000001
00000100
00001000
,
00020000
00001000
00030000
00010000
,
00001000
00001000
00100000
00010000
,
00100000
00020000
00030000
00020000
,
00030000
10000000
00100000
01000000
,
00000000
00002000
00003000
00002000
,
00003000
00010000
00001000
00020000
,
00030000
00000200
00000300
00000200
,
00000300
00001000
00000010
00000100
,
00000000
00000002
00000003
00000002
,
00000003
00000010
00000100
00000020
,
00000030
00000000
00000100
00010000
,
00002000
00000000
00000000
00000000
,
00003000
00000000
00001000
00010000
,
00200000
00000000
00000000
00000000
,
00300000
00000000
01000000
00001000
,
00020000
00000000
00000000
00000000
,
00030000
00000000
00010000
00001000
,
00000010
00000000
00000010
00000000
,
00001001
00000000
00000001
00000000
,
00001000
00000000
00001000
00000000
,
00000010
00000000
00000100
00000000
,
00000010
00000000
00000010
00000000
,
00000100
00001000
00000100
00000000
,
00000010
00001000
00000010
00000000
,
00020000
00000000
01000000
00000000
,
00031000
00000000
00000000
00000000
,
00202000
00000000
00000000
00000000
,
00000000
00303000
00000000
00000000
,
00020020
00000000
00000000
00000000
,
00000000
00030030
00000000
00000000
,
00010000
10000000
00010000
10000000
,
01000000
00010000
00001000
00000100
,
00000010
00000100
00000010
00001000
,
00000001
00000001
00000100
00000100
,
00020200
00000000
00000000
00000000
,
00000000
00030300
00000000
00000000
,
02002000
00000000
00000000
00000000
,
00000000
03003000
00000000
00000000
,
00001000
00000001
00001000
00000001
,
00000100
00001000
00010000
01000000
,
00100000
01000000
00100000
00010000
,
10000000
10000000
01000000
01000000
,
00010000
00000000
00001000
00001000
,
00100000
00010000
01000000
00000000
,
00100000
00000000
10000000
10000000
,
00010000
10000000
01000000
00010000
,
00001000
00000000
00010000
00010000
,
00000100
00001000
00000010
00000000
,
00000100
00000000
00000001
00000001
,
00001000
00000001
00000010
00002000
,
00003000
00000000
00000000
00000000
;
