#TITLE:고백;
#SUBTITLE:;
#ARTIST:Dynamic Duo (ft. 정인);
#TITLETRANSLIT:Go Back;
#SUBTITLETRANSLIT:;
#ARTISTTRANSLIT:Dynamic Duo (ft. Jungin);
#GENRE:K-Pop;
#CREDIT:;
#BANNER:Go Back.png;
#BACKGROUND:Go Back-bg.png;
#LYRICSPATH:;
#CDTITLE:../cdtitle.png;
#MUSIC:Go Back.ogg;
#OFFSET:2.100000;
#SAMPLESTART:25.753000;
#SAMPLELENGTH:15.000000;
#LASTBEATHINT:2.053333;
#SELECTABLE:YES;
#BPMS:0.000000=112.000000
;
#STOPS:
;
#BGCHANGES:3.750=Go Back.avi=1.000=0=0=0=StretchNoLoop====,
99999=-nosongbg-=1.000=0=0=0 // don't automatically add -songbackground-
;
#KEYSOUNDS:;
#ATTACKS:;

//---------------dance-single - ----------------
#NOTES:
     dance-single:
     :
     Beginner:
     1:
     0.062664,0.093997,0.010444,0.000000,0.000000,42.000000,41.000000,1.000000,0.000000,0.000000,0.000000,0.062664,0.093997,0.010444,0.000000,0.000000,42.000000,41.000000,1.000000,0.000000,0.000000,0.000000:
0000
0000
0000
0000
,
0000
0000
0000
0000
,
0000
0000
0000
0000
,
0000
0000
0000
0000
,
0000
0000
0000
0000
,
1000
0000
0000
0000
,
1000
0000
0000
0000
,
0001
0000
0000
0000
,
0001
0000
0000
0000
,
1000
0000
0000
0000
,
1000
0000
0000
0000
,
0001
0000
0000
0000
,
0001
0000
0000
0000
,
0010
0000
0000
0000
,
0100
0000
0000
0000
,
0010
0000
0000
0000
,
0100
0000
0000
0000
,
1000
0000
0000
0000
,
0001
0000
0000
0000
,
1000
0000
0000
0000
,
0001
0000
0000
0000
,
0001
0000
0000
0000
,
0010
0000
0000
0000
,
1000
0000
0000
0000
,
0100
0000
0000
0000
,
0001
0000
0000
0000
,
1000
0000
0000
0000
,
1000
0000
0000
0000
,
0001
0000
0000
0000
,
0010
0000
0000
0000
,
0100
0000
0000
0000
,
0100
0000
0000
0000
,
0010
0000
0000
0000
,
0001
0000
0000
0000
,
1000
0000
0000
0000
,
0001
0000
0000
0000
,
1000
0000
0000
0000
,
0010
0000
0000
0000
,
0100
0000
0000
0000
,
0001
0000
0000
0000
,
1000
0000
0000
0000
,
0100
0000
0000
0000
,
0010
0000
0000
0000
,
0001
0000
0000
0000
,
1000
0000
0000
0000
,
1001
0000
0000
0000
;

//---------------dance-single - ----------------
#NOTES:
     dance-single:
     :
     Easy:
     3:
     0.132789,0.164494,0.010444,0.073109,0.000000,89.000000,88.000000,1.000000,7.000000,0.000000,0.000000,0.132789,0.164494,0.010444,0.073109,0.000000,89.000000,88.000000,1.000000,7.000000,0.000000,0.000000:
0000
0000
0000
0000
,
0000
0000
0000
0000
,
0000
0000
0000
0000
,
0000
0000
0000
0000
,
0000
0000
0000
0000
,
1000
0000
1000
0000
,
0001
0000
0001
0000
,
1000
0000
1000
0000
,
0001
0000
0001
0000
,
0010
0010
0010
0000
,
0100
0100
0100
0000
,
1000
1000
1000
0000
,
0001
0001
0001
0000
,
1000
0000
0001
0000
,
2000
0000
3000
0000
,
0001
0001
0100
0000
,
1000
1000
0100
0000
,
0001
0000
1000
0000
,
0002
0000
0003
0000
,
1000
1000
0010
0000
,
0001
0001
0010
0000
,
1000
1000
1000
0000
,
0001
0001
0001
0000
,
0010
0010
0010
0000
,
0100
0100
0100
0000
,
0100
0000
0010
0000
,
0002
0000
0003
0000
,
0010
0000
0100
0000
,
2000
0000
3000
0000
,
0001
0000
0100
0000
,
0020
0000
0030
0000
,
1000
0000
0010
0000
,
0200
0000
0300
0000
,
0001
0000
1000
0000
,
0002
0000
0003
0000
,
1000
1000
0100
0000
,
0001
0001
0100
0000
,
1000
0000
1000
0000
,
0001
0000
0001
0000
,
1000
0000
0010
0000
,
0100
0000
0001
0000
,
1000
0000
1000
0000
,
0001
0000
0001
0000
,
1000
0000
0100
0000
,
0010
0000
0001
0000
,
0011
0000
0000
0000
;

//---------------dance-single - ----------------
#NOTES:
     dance-single:
     :
     Challenge:
     12:
     0.480428,0.563980,0.229770,0.637089,0.229770,322.000000,300.000000,22.000000,61.000000,0.000000,0.000000,0.480428,0.563980,0.229770,0.637089,0.229770,322.000000,300.000000,22.000000,61.000000,0.000000,0.000000:
0000
0000
0000
0000
,
0000
0000
0000
0000
,
0000
0000
0000
0000
,
0000
0000
0000
0000
,
0000
0000
0000
0000
,
2001
0000
3001
0100
0000
0001
1000
0000
,
1002
0000
1003
0100
0000
1000
0001
0000
,
2001
0000
0001
0000
3100
0000
0100
0000
0000
0000
0001
0000
1000
0100
0000
0000
,
1002
0000
1000
0000
0103
0000
0100
0000
0000
0000
1000
0000
0001
0100
0000
0000
,
2001
0000
0100
0000
3001
0000
0100
0000
0001
0000
0001
0000
1000
0100
0000
0000
,
1002
0000
0100
0000
1003
0000
0100
0000
1000
0000
1000
0000
0001
0100
0000
0000
,
0001
1000
0100
1000
0001
0000
0001
1000
0200
0000
1300
0001
0000
0000
0000
0000
,
1000
0001
0100
0001
1000
0000
1000
0001
0200
0000
0301
1000
0000
0000
0000
0000
,
0002
1003
0200
1300
0002
1003
0200
1300
,
0002
0003
1000
0100
0000
0000
0000
2000
,
3002
0000
1003
0100
2000
0000
3001
1000
0100
0001
0200
0000
2300
0000
3002
0000
,
2003
0000
3001
0100
0002
0000
1003
0001
0100
1000
0200
0000
0302
0000
0003
0000
,
2000
3001
0200
0301
2000
3001
0200
0301
,
2000
3000
0001
0100
0000
0000
0000
0002
,
2003
0000
3001
0100
0002
0000
1003
0001
0100
1000
0200
0000
0302
0000
2003
0000
,
3002
0000
1003
0100
2000
0000
3001
1000
0100
0001
0200
0000
2300
0000
3000
0000
,
0001
0000
1000
0000
0001
1000
0000
0001
1000
0000
0101
0000
0000
0000
0000
0000
,
1000
0000
0001
0000
1000
0001
0000
1000
0001
0000
0200
0000
0000
0000
0300
0000
,
0001
0000
1000
0000
0100
1000
0000
0001
0100
0000
0101
0000
0000
0000
0000
0000
,
0200
2300
3200
0302
2003
3200
0302
0003
,
0100
0000
1000
0001
0000
0000
1000
0000
,
0100
0000
1000
0001
0000
0000
0101
0000
,
0100
0000
0001
1000
0000
0000
0001
0000
,
0100
0000
0001
1000
0000
0000
1100
0000
,
0100
0100
1000
0001
0100
0100
0101
0000
,
0100
0100
0001
1000
0100
0100
1100
0000
,
1000
0001
1000
0001
0100
0001
0101
0000
,
0001
1000
0001
1000
0100
1000
0100
0000
,
2000
3100
0002
0103
2000
3100
0002
0103
,
2000
3000
0001
0100
0000
0000
0000
0002
,
0203
0000
1300
0100
2000
0000
3100
0001
0100
1000
0200
0000
0302
0000
2003
0000
,
3200
0000
0301
0100
0002
0000
0103
1000
0100
0001
0200
0000
2300
0000
3000
0000
,
1001
0000
1000
0001
1000
1000
0001
1000
,
1100
0000
0001
1000
0001
0001
1000
0100
,
0101
0000
1000
0001
0100
0100
0001
1000
,
1100
0000
0001
1000
0100
0100
1000
0100
,
0101
0000
1000
0000
1000
0000
0001
0000
1000
0100
1000
0000
0001
0000
1000
0000
,
1100
0000
0001
0100
0001
0000
1000
0000
0001
0100
0001
1000
0100
0000
1000
0000
,
0101
0000
1000
0000
1000
0000
0001
0000
0100
0001
0100
0000
0001
0000
1000
0000
,
1100
0000
0001
0100
0001
0000
1000
0000
0100
1000
0100
1000
0100
0000
1000
0000
,
0101
0000
0000
0000
;

//---------------dance-double - ----------------
#NOTES:
     dance-double:
     :
     Challenge:
     13:
     0.480428,0.563980,0.229770,0.637089,0.229770,322.000000,300.000000,22.000000,61.000000,0.000000,0.000000,0.480428,0.563980,0.229770,0.637089,0.229770,322.000000,300.000000,22.000000,61.000000,0.000000,0.000000:
// measure 0
00000000
00000000
00000000
00000000
,  // measure 1
00000000
00000000
00000000
00000000
,  // measure 2
00000000
00000000
00000000
00000000
,  // measure 3
00000000
00000000
00000000
00000000
,  // measure 4
00000000
00000000
00000000
00000000
,  // measure 5
00102000
00000000
00103000
00010000
00000000
00000010
00001000
00000000
,  // measure 6
00020010
00000000
00030010
00001000
00000000
00100000
00010000
00000000
,  // measure 7
00102000
00000000
00100000
00000000
00013000
00000000
00010000
00000000
00000000
00000000
00100000
00000000
00000010
00001000
00000000
00000000
,  // measure 8
00020010
00000000
00000010
00000000
00031000
00000000
00001000
00000000
00000000
00000000
00000010
00000000
00100000
00010000
00000000
00000000
,  // measure 9
00102000
00000000
00010000
00000000
00103000
00000000
00010000
00000000
00000010
00000000
00100000
00000000
00000010
00001000
00000000
00000000
,  // measure 10
00020010
00000000
00001000
00000000
00030010
00000000
00001000
00000000
00100000
00000000
00000010
00000000
00100000
00010000
00000000
00000000
,  // measure 11
00100000
00000010
00001000
00000010
00010000
00000000
00010000
00001000
00200000
00000000
00301000
00010000
00000000
00000000
00000000
00000000
,  // measure 12
00000010
00100000
00010000
00100000
00001000
00000000
00001000
00010000
00000020
00000000
00010030
00001000
00000000
00000000
00000000
00000000
,  // measure 13
00020000
00031000
00200000
00300010
00020000
00031000
00200000
00300010
,  // measure 14
00020000
00030000
00000010
00100000
00000000
00000000
00000000
00002000
,  // measure 15
00023000
00000000
00030010
00001000
00000020
00000000
00010030
00001000
00010000
00100000
00020000
00000000
00030020
00000000
00020030
00000000
,  // measure 16
00032000
00000000
00103000
00010000
00200000
00000000
00301000
00010000
00001000
00000010
00002000
00000000
00203000
00000000
00300000
00000000
,  // measure 17
00002000
00013000
00000020
00100030
00002000
00013000
00000020
00100030
,  // measure 18
00002000
00003000
00100000
00000010
00000000
00000000
00000000
00020000
,  // measure 19
00032000
00000000
00103000
00010000
00200000
00000000
00301000
00010000
00001000
00000010
00002000
00000000
00203000
00000000
00302000
00000000
,  // measure 20
00023000
00000000
00030010
00001000
00000020
00000000
00010030
00001000
00010000
00100000
00020000
00000000
00030020
00000000
00000030
00000000
,  // measure 21
00010000
00000000
00001000
00000000
00010000
00000010
00000000
00100000
00001000
00000000
00011000
00000000
00000000
00000000
00000000
00000000
,  // measure 22
00010000
00000000
00001000
00000000
00010000
00000010
00000000
00100000
00001000
00000000
00020000
00000000
00000000
00000000
00030000
00000000
,  // measure 23
00001000
00000000
00010000
00000000
00001000
00100000
00000000
00000010
00010000
00000000
00011000
00000000
00000000
00000000
00000000
00000000
,  // measure 24
00002000
00003020
00020030
00030020
00002030
00023000
00230000
00300000
,  // measure 25
00010000
00000000
00001000
00100000
00000000
00000000
00000010
00000000
,  // measure 26
00010000
00000000
00001000
00100000
00000000
00000000
00010010
00000000
,  // measure 27
00001000
00000000
00010000
00000010
00000000
00000000
00100000
00000000
,  // measure 28
00001000
00000000
00010000
00000010
00000000
00000000
00101000
00000000
,  // measure 29
00010000
00010000
00000010
00100000
00001000
00001000
00010010
00000000
,  // measure 30
00001000
00001000
00100000
00000010
00010000
00010000
00101000
00000000
,  // measure 31
00000010
00010000
00001000
00100000
00000010
00010000
00101000
00000000
,  // measure 32
00100000
00001000
00010000
00000010
00100000
00001000
00010000
00000000
,  // measure 33
00002000
00003010
00020000
00130000
00002000
00003010
00020000
00130000
,  // measure 34
00002000
00003000
00100000
00000010
00000000
00000000
00000000
00020000
,  // measure 35
00030020
00000000
00001030
00100000
00020000
00000000
00031000
00100000
00010000
00100000
00000020
00000000
00020030
00000000
00032000
00000000
,  // measure 36
00203000
00000000
00310000
00000010
00002000
00000000
00013000
00000010
00001000
00000010
00200000
00000000
00302000
00000000
00003000
00000000
,  // measure 37
00011000
00000000
00010000
00010000
00001000
00001000
00010000
00001000
,  // measure 38
00101000
00000000
00010000
00010000
00001000
00001000
00010000
00001000
,  // measure 39
00001010
00000000
00010000
00001000
00010000
00010000
00001000
00010000
,  // measure 40
00010010
00000000
00010000
00001000
00010000
00010000
00001000
00010000
,  // measure 41
00110000
00000000
00001000
00000000
00001000
00000000
00010000
00000000
00000010
00001000
00000010
00000000
00010000
00000000
00001000
00000000
,  // measure 42
00101000
00000000
00100000
00010000
00100000
00000000
00001000
00000000
00100000
00010000
00100000
00001000
00010000
00000000
00001000
00000000
,  // measure 43
00001010
00000000
00000010
00000000
00000010
00000000
00010000
00000000
00001000
00010000
00001000
00000000
00010000
00000000
00001000
00000000
,  // measure 44
00101000
00000000
00100000
00010000
00100000
00000000
00001000
00000000
00010000
00001000
00010000
00001000
00010000
00000000
00001000
00000000
,  // measure 45
00001010
00000000
00000000
00000000
;

//---------------dance-single - ----------------
#NOTES:
     dance-single:
     :
     Hard:
     9:
     0.386431,0.422985,0.261102,0.240214,0.000000,259.000000,234.000000,25.000000,23.000000,0.000000,0.000000,0.386431,0.422985,0.261102,0.240214,0.000000,259.000000,234.000000,25.000000,23.000000,0.000000,0.000000:
0000
0000
0000
0000
,
0000
0000
0000
0000
,
0000
0000
0000
0000
,
0000
0000
0000
0000
,
0000
0000
0000
0000
,
0010
0010
0010
0100
1000
0001
1001
0000
,
1000
1000
0010
0010
0001
0010
0110
0000
,
0010
0010
0010
0100
0001
1000
1001
0000
,
0001
0001
0010
0010
1000
0010
0110
0000
,
1000
0100
0001
0100
0010
0010
0011
0000
,
0001
0100
1000
0100
0010
0010
1010
0000
,
1000
0001
0010
0100
1000
0100
0110
0000
,
0001
1000
0010
0100
0001
0100
0010
0000
,
2000
3200
0302
0023
,
2030
0000
3100
0020
0000
0030
0002
0000
,
1003
0010
0010
0010
0001
0010
1001
0000
,
1000
0100
0100
0100
0001
0100
1001
0000
,
0002
0203
2300
3020
,
0032
0000
0103
0020
0000
0030
2000
0000
,
3001
0010
0010
0010
1000
0010
1001
0000
,
0001
0100
0100
0100
1000
0100
1001
0000
,
0010
0010
0010
1000
0100
0101
0000
0000
,
0010
0010
0010
0001
0100
1100
0000
0000
,
0100
0100
0100
0001
0010
1010
0000
0000
,
0100
0100
0100
0100
0100
0100
0200
0000
,
0310
0000
0001
1000
0000
0000
0001
0000
,
1000
0000
0010
0001
0000
0000
1010
0000
,
0100
0000
0001
1000
0000
0000
0001
0000
,
1000
0000
0100
0001
0000
0000
1100
0000
,
0010
0000
1000
0010
0000
0001
1000
0000
,
0010
0000
0001
0010
0000
1000
0001
0000
,
1000
0000
0100
0010
0000
0001
1000
0000
,
0001
0000
0100
0020
0000
0000
0000
0000
,
2030
3200
0302
0023
,
2030
0000
3100
0020
0000
0030
0002
0000
,
1003
0010
0001
0010
1000
0100
0011
0000
,
0001
0010
1000
0010
0001
0100
1010
0000
,
1100
0000
0001
0100
0010
0100
0001
0000
,
0011
0000
0100
1000
0010
1000
0100
0000
,
0101
0000
1000
0010
0100
0010
1000
0100
,
0010
0100
0001
0100
0010
0001
1000
0000
,
0011
0000
1000
0010
0100
0010
1000
0000
,
1100
0000
0010
0001
0100
0001
0010
0000
,
1010
0000
0001
0100
0010
0100
0001
0010
,
0100
0010
1000
0010
0100
1000
0001
0000
,
1100
0000
0000
0000
;

//---------------dance-single - ----------------
#NOTES:
     dance-single:
     :
     Medium:
     6:
     0.250658,0.281990,0.177549,0.167105,0.000000,168.000000,151.000000,17.000000,16.000000,0.000000,0.000000,0.250658,0.281990,0.177549,0.167105,0.000000,168.000000,151.000000,17.000000,16.000000,0.000000,0.000000:
0000
0000
0000
0000
,
0000
0000
0000
0000
,
0000
0000
0000
0000
,
0000
0000
0000
0000
,
0000
0000
0000
0000
,
1000
0100
0001
1100
,
0001
0010
1000
0011
,
0001
0100
1000
0101
,
1000
0010
0001
1010
,
1000
1000
0001
0101
,
0010
0010
1000
1100
,
0001
0001
1000
1010
,
0100
0100
0001
0010
,
0200
1300
2000
3010
,
0020
0130
0002
0003
,
1000
0010
0100
1010
,
0001
0010
0100
0011
,
0020
0031
0002
0103
,
0200
0310
2000
3000
,
0001
0100
0010
0101
,
1000
0100
0010
1100
,
0001
1000
1010
0000
,
1000
0001
0011
0000
,
0001
1000
1100
0000
,
0001
1000
0001
2000
,
3001
0100
0001
1000
,
0100
0010
0002
0003
,
1000
0100
1000
0001
,
0100
0010
2000
3000
,
0001
0010
0001
0010
,
0100
1000
0001
0000
,
1000
0010
1000
0010
,
0100
0001
2000
3000
,
0020
1030
2000
3100
,
0200
0310
0002
0003
,
1000
0100
0010
1100
,
0001
0100
0010
0101
,
1000
0100
0001
0100
,
1000
0010
0001
0010
,
1000
0100
0001
0010
,
1000
0010
0001
0100
,
1000
0010
0001
0010
,
1000
0100
0001
0100
,
1000
0010
0001
0100
,
1000
0100
0001
0010
,
1010
0000
0000
0000
;

//---------------dance-double - ----------------
#NOTES:
     dance-double:
     :
     Easy:
     4:
     0.153677,0.187993,0.010444,0.041776,0.000000,103.000000,102.000000,1.000000,4.000000,0.000000,0.000000,0.153677,0.187993,0.010444,0.041776,0.000000,103.000000,102.000000,1.000000,4.000000,0.000000,0.000000:
00000000
00000000
00000000
00000000
,
00000000
00000000
00000000
00000000
,
00000000
00000000
00000000
00000000
,
00000000
00000000
00000000
00000000
,
00000000
00000000
00000000
00000000
,
10000000
00000000
10000000
00000000
,
00010000
00000000
00010000
00000000
,
00001000
00000000
00001000
00000000
,
00000001
00000000
00000001
00000000
,
00000010
00000010
00000010
00000000
,
00001000
00001000
00001000
00000000
,
00010000
00010000
00010000
00000000
,
00100000
00100000
00100000
00000000
,
10000000
00000000
00010000
00000000
,
00200000
00000000
00300000
00000000
,
01000000
00010000
00001000
00000000
,
00000100
00001000
00010000
00000000
,
00000001
00000000
00001000
00000000
,
00000200
00000000
00000300
00000000
,
00000010
00001000
00010000
00000000
,
00100000
00010000
00001000
00000000
,
10000000
00100000
00010000
00000000
,
00001000
00000010
00000001
00000000
,
00000001
00000100
00001000
00000000
,
00010000
01000000
10000000
00000000
,
10000000
00000000
00010000
00000000
,
10000000
00100000
01000000
00000000
,
00010000
00000000
00100000
00000000
,
00001000
00010000
00001000
00000000
,
00010000
00000000
00000100
00000000
,
00010000
00001000
00000010
00000000
,
00000001
00000000
00001000
00000000
,
00000002
00000000
00000003
00000000
,
00000001
00000000
00001000
00000000
,
00000020
00000000
00000030
00000000
,
00000100
00001000
00010000
00000000
,
01000000
00010000
00001000
00000000
,
10000000
00000000
01000000
00100000
,
00100000
00000000
00010000
00001000
,
00001000
00000000
00000010
00000100
,
00000100
00000000
00000001
00000001
,
00000001
00000000
00000010
00000100
,
00000100
00000000
00001000
00010000
,
00010000
00000000
01000000
00100000
,
00100000
00000000
10000000
10000000
,
10010000
00000000
00000000
00000000
;

//---------------dance-double - ----------------
#NOTES:
     dance-double:
     :
     Medium:
     6:
     0.250658,0.281990,0.177549,0.167105,0.000000,168.000000,151.000000,17.000000,16.000000,0.000000,0.000000,0.250658,0.281990,0.177549,0.167105,0.000000,168.000000,151.000000,17.000000,16.000000,0.000000,0.000000:
00000000
00000000
00000000
00000000
,
00000000
00000000
00000000
00000000
,
00000000
00000000
00000000
00000000
,
00000000
00000000
00000000
00000000
,
00000000
00000000
00000000
00000000
,
00010000
00001000
00000100
00000110
,
00001000
00010000
01000000
01100000
,
00010000
00001000
00000010
00000110
,
00001000
00010000
00100000
01100000
,
00001000
00000010
00000001
00000101
,
00000010
00010000
00000100
00011000
,
00010000
01000000
10000000
10100000
,
01000000
00001000
00100000
00001000
,
00020000
00130000
00002000
00003010
,
00020000
00130000
00002000
00003000
,
00010000
01000000
10000000
11000000
,
01000000
00010000
00001000
00011000
,
00002000
00003100
00020000
01030000
,
00002000
00003100
00020000
00030000
,
00001000
00000010
00000001
00000011
,
00000010
00001000
00010000
00011000
,
00001000
00010000
01100000
00000000
,
00010000
00001000
00000110
00000000
,
00001000
00010000
01100000
00000000
,
00010000
00001000
00000100
00000002
,
00001003
00000010
00000100
00000001
,
00000100
00000010
00020000
00030000
,
00001000
00100000
01000000
10000000
,
01000000
00100000
00020000
00030000
,
10000000
00100000
10000000
00100000
,
01000000
00001000
00010000
00000000
,
00000100
00001000
00000100
00001000
,
00000001
00000010
00002000
00003000
,
00020000
01030000
00002000
00003100
,
00020000
01030000
00002000
00003000
,
00010000
00100000
10000000
10100000
,
00100000
00010000
00001000
00011000
,
00010000
01000000
10000000
00100000
,
00010000
00100000
10000000
01000000
,
00010000
00001000
00000100
00000001
,
00000010
00000010
00001000
00010000
,
00001000
00000100
00000001
00000010
,
00001000
00000010
00000001
00000100
,
00001000
00010000
01000000
10000000
,
00100000
00100000
00010000
00001000
,
00011000
00000000
00000000
00000000
;

//---------------dance-double - ----------------
#NOTES:
     dance-double:
     :
     Hard:
     9:
     0.377479,0.422985,0.261102,0.240214,0.000000,253.000000,228.000000,25.000000,23.000000,0.000000,0.000000,0.377479,0.422985,0.261102,0.240214,0.000000,253.000000,228.000000,25.000000,23.000000,0.000000,0.000000:
00000000
00000000
00000000
00000000
,
00000000
00000000
00000000
00000000
,
00000000
00000000
00000000
00000000
,
00000000
00000000
00000000
00000000
,
00000000
00000000
00000000
00000000
,
01000000
00100000
00010000
00001000
00000010
00000100
00000110
00000000
,
00000100
00000010
00001000
00010000
00100000
01000000
01100000
00000000
,
00010000
10000000
00100000
00010000
00001000
00000010
00000011
00000000
,
00001000
00000001
00000010
00001000
00010000
00100000
10100000
00000000
,
00010000
00100000
01000000
10000000
01000000
00100000
00101000
00000000
,
00001000
00010000
00000010
00001000
00000100
00000010
00000011
00000000
,
00001000
00000010
00000100
00000001
00000100
00000010
00010010
00000000
,
00010000
00001000
00100000
00010000
01000000
00100000
10000000
00000000
,
00200000
00320000
00032000
00003020
,
00000032
00000000
00000103
00002000
00000000
00003000
00020000
00000000
,
00031000
00100000
01000000
00100000
00001000
00010000
00011000
00000000
,
00010000
00000010
00000100
00000010
00001000
00000001
00001001
00000000
,
00000200
00002300
00023000
02030000
,
23000000
00000000
30100000
00020000
00000000
00030000
00002000
00000000
,
00013000
00000100
00000010
00000100
00010000
00001000
00011000
00000000
,
00001000
01000000
00100000
01000000
00010000
10000000
10010000
00000000
,
00100000
00100000
00100000
00000000
00011000
00000000
00000000
00000000
,
00000010
00000010
00000010
00000000
00011000
00000000
00000000
00000000
,
01000000
01000000
01000000
00000000
00011000
00000000
00000000
00000000
,
00000100
00000100
00000100
00000100
00000100
00000100
00000200
00000000
,
00000310
00000000
00000010
00000001
00000000
00000000
00001000
00000000
,
00000010
00000000
00000100
00001000
00000000
00000000
00011000
00000000
,
01000000
00000000
01000000
10000000
00000000
00000000
00010000
00000000
,
01000000
00000000
00100000
00010000
00000000
00000000
00011000
00000000
,
00100000
00000000
01000000
10000000
00000000
10000000
01000000
00000000
,
00100000
00000000
00001000
00010000
00000000
00001000
00010000
00000000
,
00000010
00000000
00000100
00000001
00000000
00000001
00000100
00000000
,
00000010
00000000
00010000
00002000
00000000
00000000
00000000
00000000
,
00003020
00002030
00023000
00230000
,
20300000
00000000
31000000
00020000
00000000
00030000
00002000
00000000
,
00103000
00001000
00010000
00000010
00001000
00000100
00000110
00000000
,
00000100
00010000
00001000
01000000
00010000
00100000
01100000
00000000
,
10010000
00000000
00100000
10000000
01000000
00100000
00010000
00000000
,
00011000
00000000
00000010
00001000
00000100
00000010
00000001
00000000
,
00000101
00000000
00000010
00010000
00001000
01000000
00010000
00100000
,
01000000
00100000
00001000
00010000
00001000
01000000
00100000
00000000
,
10010000
00000000
01000000
10000000
00100000
01000000
00010000
00000000
,
00011000
00000000
00000100
00001000
00000010
00000100
00000001
00000000
,
00000011
00000000
00000100
00010000
00001000
00100000
00010000
01000000
,
00100000
01000000
00001000
00010000
00001000
00100000
01000000
00000000
,
10010000
00000000
00000000
00000000
;
