#TITLE:GingaMingaYo;
#SUBTITLE:(the strange world);
#ARTIST:Billlie;
#TITLETRANSLIT:;
#SUBTITLETRANSLIT:;
#ARTISTTRANSLIT:;
#GENRE:K-Pop;
#CREDIT:;
#BANNER:GingaMingaYo (the strange world).png;
#BACKGROUND:GingaMingaYo (the strange world)-bg.png;
#LYRICSPATH:;
#CDTITLE:../cdtitle.png;
#MUSIC:GingaMingaYo (the strange world).ogg;
#OFFSET:1.888000;
#SAMPLESTART:55.160000;
#SAMPLELENGTH:15.000000;
#LASTBEATHINT:1.805600;
#SELECTABLE:YES;
#DISPLAYBPM:122.000000;
#BPMS:0.000000=122.000000
,220.000000=91.500000
,220.750000=81.333000
,221.250000=61.000000
,221.500000=40.667000
,221.750000=30.500000
,221.875000=122.000000
;
#STOPS:221.875000=2.152000
;
#BGCHANGES:1.875=GingaMingaYo (the strange world).avi=1.000=0=0=0=StretchNoLoop====,
99999=-nosongbg-=1.000=0=0=0 // don't automatically add -songbackground-
;
#KEYSOUNDS:;
#ATTACKS:;

//---------------dance-single - ----------------
#NOTES:
     dance-single:
     :
     Hard:
     11:
     0.446167,0.508454,0.217721,0.277782,0.146399,416.000000,387.000000,29.000000,37.000000,0.000000,0.000000,0.446167,0.508454,0.217721,0.277782,0.146399,416.000000,387.000000,29.000000,37.000000,0.000000,0.000000:
0000
0000
0000
0000
,
0000
0000
0000
0000
,
0000
0000
0000
0000
,
0000
0000
0000
0000
,
0000
0000
0000
0000
,
0010
0000
0000
0000
0011
0000
0001
0000
0100
0000
0000
0001
0000
0000
1100
0000
,
0000
1000
0001
0001
0010
0100
1000
0001
,
1000
0000
0000
0000
1010
0000
0010
0000
0001
0000
0000
0010
0000
0000
0101
0000
,
0000
0000
0100
0000
0010
0000
0010
0000
1000
0000
0001
0100
0000
0000
0100
0000
,
0010
0000
0000
0000
0101
0000
0001
0000
1000
0000
0000
0100
0000
0000
1001
0000
,
1000
0000
0001
0000
0010
0000
0100
0000
1000
0000
0000
0001
0000
0000
0100
0000
,
0100
0000
0000
0000
1010
0000
1000
0000
0001
0000
0000
0010
0000
0000
0001
0000
,
0200
0300
0010
1001
,
1000
0000
0100
0000
1000
0000
0100
0000
0010
0000
0001
0200
0000
0000
0301
0000
,
0010
0000
0100
0000
0010
0000
0100
0000
1000
0000
0001
0200
0000
0000
0310
0000
,
1000
0001
1000
0010
0100
0100
0001
1000
,
0002
0023
2030
3200
,
0301
0000
0010
0000
0001
0000
0010
0000
0100
0000
1000
0020
0000
0000
1030
0000
,
0100
0000
0010
0000
0100
0000
0010
0000
0001
0000
1000
0020
0000
0000
0130
0000
,
0001
1000
0001
0100
0010
0010
1000
0001
,
2000
3200
0302
0023
,
2030
0100
0001
0100
,
0010
0000
0000
0000
0010
0000
0000
0000
3002
0000
0000
0100
0000
0100
0003
0000
,
0020
1000
0100
1000
,
0001
0000
0000
0000
0001
0000
0000
0000
0230
0000
0000
1000
0000
1000
0300
0000
,
0001
0001
0100
0001
1000
1000
0100
1000
,
0001
0001
0010
0100
1000
1000
0010
0100
,
0001
0100
1000
0100
0001
0010
1000
0010
,
0002
0000
0000
0000
1003
0001
0100
0000
,
1100
0000
0000
0000
0101
0000
1000
0000
0100
0000
1000
0001
0000
0000
0100
0000
,
1000
0000
0100
0000
0001
0000
0100
0000
1000
0000
0100
0001
1000
0000
0000
0000
,
1100
0000
0000
0000
0101
0000
1000
0000
0001
0000
0010
0100
0000
0000
1000
0000
,
0001
0001
0100
0100
0010
1000
0001
0010
,
0110
0000
0000
0000
1100
0000
1000
0000
0010
0000
1000
0001
0100
0000
0010
0000
,
0001
0000
0010
0000
1000
0000
0010
0000
0001
0000
0010
1000
0001
0000
0010
0000
,
1010
0000
0000
0000
0011
0000
1000
0000
0001
0000
0100
0010
1000
0000
0001
0000
,
1000
1000
0100
0100
0010
0010
0001
0100
,
0010
0010
0100
0100
0010
0010
0100
0001
,
2000
0000
3000
0100
1000
0000
1001
0000
,
0001
0001
2000
0000
3002
0000
0203
0000
,
0320
0000
0030
0001
0010
0000
0110
0000
,
0100
0100
0020
0000
0230
0000
0302
0000
,
1003
0000
0100
0000
1000
0000
0001
0000
1000
0000
0000
0110
0000
0000
0001
0000
,
0000
0000
0100
0000
0001
0000
1000
0000
0001
0000
0000
0110
0000
0000
1000
0000
,
0002
0000
0000
0000
0013
0000
0001
0000
0200
0000
0000
0320
0000
0000
2030
0000
,
0000
0000
0000
0000
0000
0000
0100
0000
0000
0000
0001
0000
0000
0001
0000
0000
,
3002
0000
0000
0000
0003
0000
0000
0000
0000
0000
0100
0001
0000
0000
1000
0000
,
0100
2000
0000
3002
0000
0203
0000
0310
,
2000
0000
0000
0000
3000
0000
0000
0000
0000
0000
0100
1000
0000
0000
0001
0000
,
0100
0000
0100
0000
0010
0000
0010
0000
1000
0000
0000
1000
0000
0000
0100
0000
,
0010
0001
0000
0010
0001
0000
1000
0000
0100
0000
0100
0000
0100
0000
0000
0000
,
1000
0001
0000
1000
0001
0000
0100
0000
0010
0000
0010
0000
0010
0000
0000
0000
,
0100
0001
0000
0100
0001
0000
0010
0000
0100
0000
0100
0000
0100
0000
0000
0000
,
1000
0100
0001
0100
1000
0010
0110
0000
,
2000
0000
0000
0000
,
3002
0000
0000
0000
0000
0000
0000
0000
0000
0000
0000
0000
0000
0000
0000
0003
1100
0000
0000
0000
0000
0000
0000
0000
0101
0000
0000
0000
1000
0000
0000
0000
,
0100
0000
1000
0001
0000
0000
0100
0000
1000
0000
0100
0000
0001
0000
0100
0000
,
1000
0000
0100
0001
1000
0000
0100
0000
1100
0000
0000
0000
0101
0000
1000
0000
,
0001
0000
0010
0100
0000
0000
1000
0000
0001
0000
0001
0000
0100
0000
0100
0000
,
0010
1000
0001
0010
0110
0000
1100
1000
,
0010
0000
1000
0001
0100
0000
0010
0000
0001
0000
0010
0000
1000
0000
0010
0000
,
0001
0000
0010
1000
0001
0000
0010
0000
1010
0000
0000
0000
0011
0000
1000
0000
,
0001
0000
0100
0010
1000
0000
0001
0000
1000
0000
1000
0000
0100
0000
0100
0000
,
0010
0010
0001
0100
0010
0010
0100
0100
,
0010
0010
0100
0001
1000
0000
0000
0000
;

//---------------dance-single - ----------------
#NOTES:
     dance-single:
     :
     Challenge:
     13:
     0.507301,0.605302,0.187691,0.270274,0.266521,473.000000,448.000000,25.000000,36.000000,16.000000,0.000000,0.507301,0.605302,0.187691,0.270274,0.266521,473.000000,448.000000,25.000000,36.000000,16.000000,0.000000:
// measure 0
0000
0000
0000
0000
,  // measure 1
0000
0000
0000
0000
,  // measure 2
0000
0000
0000
0000
,  // measure 3
0000
0000
0000
0000
,  // measure 4
0000
0000
0000
0000
,  // measure 5
0010
0000
0000
0000
1001
0000
0100
0000
1000
0000
0000
1000
0001
0000
0010
0000
,  // measure 6
0001
0000
0100
0000
0010
0100
0010
0000
0100
0000
0010
1000
0000
1000
0001
0000
,  // measure 7
0100
0000
0000
0000
1001
0000
0010
0000
0001
0000
0000
0001
1000
0000
0010
0000
,  // measure 8
1000
0000
0100
0000
0010
0000
0100
0000
0010
0000
0010
0002
0000
0000
1003
0000
,  // measure 9
0001
0000
0101
1000
0100
0100
0001
0100
,  // measure 10
1000
0000
0001
0000
1000
0100
1000
0000
0001
0000
0100
0010
0000
0010
0100
0000
,  // measure 11
0010
0000
1010
0001
0010
0010
1000
0010
,  // measure 12
0200
0000
0000
0000
0310
0000
0001
0000
1000
0000
1000
0002
0000
0000
0103
0000
,  // measure 13
0001
0000
0010
0000
0001
0000
0010
0000
1000
0000
0010
0001
0000
1000
0100
0000
,  // measure 14
1000
0000
0010
0000
1000
0000
0010
0000
0001
0000
0010
1000
0000
0001
0100
0000
,  // measure 15
0001
0010
1000
0010
0001
1000
0100
0010
,  // measure 16
0001
0100
0020
0000
1030
0001
0020
0000
,  // measure 17
1030
0000
0010
0000
1000
0000
0010
0000
0001
0000
1000
0100
0000
0010
0001
0000
,  // measure 18
1000
0000
0010
0000
1000
0000
0010
0000
0001
0000
1000
0100
0000
0010
0001
0000
,  // measure 19
0010
0100
0010
0100
0001
1000
0100
1000
,  // measure 20
0010
0100
0002
0000
0013
0100
2000
0000
,  // measure 21
3002
0103
2000
3100
,  // measure 22
0002
0000
0000
0000
0013
0000
0000
0000
0200
0000
0000
0010
0000
0010
0300
0000
,  // measure 23
2001
3100
0012
0103
,  // measure 24
2010
0000
0000
0000
3100
0000
0000
0000
0201
0000
0000
1000
0000
1000
0300
0000
,  // measure 25
0001
0100
0001
0100
1000
0100
1000
0010
,  // measure 26
1000
0100
1000
0100
0001
0100
0001
0010
,  // measure 27
0100
0010
0100
0010
0001
0100
0001
0100
0001
1000
0001
1000
0010
1000
0100
0010
,  // measure 28
0002
0000
0000
0000
0000
0000
0000
0000
1003
0001
0100
0000
0110
0000
0000
0000
,  // measure 29
1001
0000
0000
0000
1100
0000
1000
0000
0001
0000
1000
0010
0100
0000
0001
0000
,  // measure 30
1000
0000
0100
0000
0001
0000
0100
0000
1000
0000
0100
0010
0001
0000
0000
0000
,  // measure 31
0010
0000
0000
0000
0110
0000
0100
0000
1000
0000
0100
0010
0001
0000
0100
0000
,  // measure 32
0001
1000
0100
1000
0010
1000
0100
1000
,  // measure 33
1001
0000
0000
0000
1010
0000
1000
0000
0001
0000
1000
0100
0010
0000
0001
0000
,  // measure 34
1000
0000
0010
0000
0001
0000
0010
0000
1000
0000
0001
0010
0100
0000
1000
0000
,  // measure 35
0010
0000
0000
0000
0110
0000
0100
0000
0010
0000
0010
1000
0100
0000
0010
0000
,  // measure 36
0001
0001
1000
1000
0100
0100
0010
0001
,  // measure 37
0100
0100
0100
0100
0100
0100
0010
1000
,  // measure 38
0002
0000
0003
0100
0001
1000
0100
0010
,  // measure 39
0100
1000
0002
0000
0023
0000
0230
0000
,  // measure 40
2300
0000
3000
1000
0001
0001
0010
1000
,  // measure 41
0010
0001
0200
0000
0320
0000
2030
0000
,  // measure 42
3001
0000
0100
0000
0001
0000
0100
0000
0010
0000
0010
1000
0000
0000
0001
0000
,  // measure 43
1000
0000
0100
0000
1000
0000
0100
0000
0010
0000
0010
0001
0000
0000
0001
0000
,  // measure 44
2000
0000
0000
0000
3020
0000
2030
0000
3200
0000
0000
0320
0000
0000
0032
0000
,  // measure 45
0000
0000
0000
0000
0000
0000
1000
0000
0000
0000
1000
0000
0000
1000
0000
0000
,  // measure 46
0203
0000
0000
0010
0000
0000
0310
0000
0000
0000
1000
0002
0000
0000
0103
0000
,  // measure 47
0010
0000
1000
0100
0000
0010
0100
0000
0000
0000
0100
0010
0000
0000
0001
0000
,  // measure 48
2000
0000
0000
0001
0000
0000
3001
0000
0000
0000
0010
0200
0000
0000
1300
0000
,  // measure 49
0001
0000
0001
0000
0010
0000
1000
0000
0001
0000
0000
0101
0000
0000
1100
0000
,  // measure 50
1000
0010
0000
0010
1000
0000
1000
0100
0010
0000
0001
0000
0011
0000
MMMM
0000
,  // measure 51
0001
0010
0000
0010
0001
0000
0001
1000
0100
0000
0010
0000
0110
0000
MMMM
0000
,  // measure 52
0010
0100
0000
0100
0010
0000
0010
0001
1000
0000
0100
0000
0010
0000
MMMM
0000
,  // measure 53
1000
0000
1000
0000
0001
0000
0001
0100
0010
0000
0010
0000
1000
0000
MMMM
0000
,  // measure 54
0020
0000
0000
0000
,  // measure 55
0200
0000
0000
0000
0000
0000
0000
0000
0000
0000
0000
0000
0000
0000
0000
0330
1001
0000
0000
0000
0000
0000
0000
0000
0011
0000
0000
0000
0001
0000
0000
0000
,  // measure 56
1000
0000
0001
0100
0010
0000
1000
0000
0001
0000
0010
0000
1000
0000
0010
0000
,  // measure 57
0001
1000
0001
0010
0100
1000
0100
0010
0001
0000
0000
0000
0110
0000
0010
0000
,  // measure 58
0001
0000
0010
0100
1000
0000
0010
0000
1000
0000
0001
0000
0010
0000
0001
0000
,  // measure 59
0100
0001
0010
0001
1001
0000
0101
0001
,  // measure 60
1000
0000
0001
0010
0100
0000
1000
0000
0001
0000
0100
0000
1000
0000
0100
0000
,  // measure 61
0001
1000
0001
0100
0010
1000
0010
0100
0001
0000
0100
0000
0110
0000
0010
0000
,  // measure 62
0100
0000
0100
0001
0010
0000
0100
0000
1000
0000
1000
0000
0001
0000
0001
0000
,  // measure 63
0010
0010
0100
1000
0010
0010
0010
0010
,  // measure 64
0010
0010
0100
0001
1000
0000
0000
0000
;

//---------------dance-single - ----------------
#NOTES:
     dance-single:
     :
     Medium:
     8:
     0.330335,0.387393,0.187691,0.285290,0.003754,308.000000,283.000000,25.000000,38.000000,0.000000,0.000000,0.330335,0.387393,0.187691,0.285290,0.003754,308.000000,283.000000,25.000000,38.000000,0.000000,0.000000:
0000
0000
0000
0000
,
0000
0000
0000
0000
,
0000
0000
0000
0000
,
0000
0000
0000
0000
,
0000
0000
0000
0000
,
0010
1001
0100
0001
,
1000
0001
0100
0000
0100
0000
0011
0000
,
1000
0110
0001
0010
,
0100
0010
0001
0000
0001
0000
1010
0000
,
0100
1000
0100
0000
0001
0000
0100
0000
,
1000
0100
0001
0000
0100
0000
0110
0000
,
0010
1000
0010
0000
0001
0000
0010
0000
,
0200
0300
0010
1001
,
1000
0100
1000
0000
0001
0000
1000
0000
,
0001
0100
0001
0000
1000
0000
0001
0000
,
1000
0100
1000
0000
0100
0000
0010
0000
,
0002
0203
0320
2030
,
3001
0010
0001
0000
1000
0000
0001
0000
,
1000
0010
1000
0000
0001
0000
1000
0000
,
0001
0010
0001
0000
0010
0000
0100
0000
,
2000
3020
0230
0302
,
2003
3100
0200
0310
,
0020
0031
0002
1003
,
0002
0103
0200
0310
,
0020
1030
2000
3001
,
1000
0100
1000
0000
0100
0001
0100
0000
,
0001
0010
0001
0000
0010
1000
0010
0000
,
1000
0100
0001
0000
1000
0010
0001
0000
,
2000
0000
3001
0110
,
1001
0000
0110
0000
1000
0001
0100
0000
,
0001
0010
1000
0010
0001
0000
1001
0000
,
1000
0000
0100
1000
0010
0000
0110
0000
,
1000
0100
0001
0100
2000
0000
3001
0000
,
1001
0000
0110
0000
1000
0001
0010
0000
,
0001
0100
1000
0100
0001
0000
1001
0000
,
1000
0000
0010
1000
0100
0000
0110
0000
,
1000
0010
0001
0010
2000
0000
3001
0000
,
0010
0100
0010
0000
0100
0010
0100
0000
,
2000
3000
0001
1000
,
0001
0100
0001
0000
2000
0000
3200
0000
,
0320
0030
0100
0010
,
0100
1000
0100
0000
2000
0000
3020
0000
,
2030
0000
0001
0000
3001
0010
0100
0010
,
0002
0000
1000
0000
1003
0010
0100
0010
,
2000
0000
0000
0000
3100
0000
0000
0000
0010
0000
0000
0001
0000
0000
2000
0000
,
0000
0000
0000
0000
0000
0000
0000
3000
,
0002
0000
0003
0000
0000
0100
0000
0100
,
0002
0000
0003
0000
0000
0010
0000
0100
,
2000
0000
3000
0000
0000
0001
0000
0001
,
1000
0100
1000
0000
0020
0000
0030
0000
,
1000
0010
1000
0000
0100
0010
0100
0000
,
0001
0100
0001
0000
0010
0100
0010
0000
,
1000
0010
1000
0000
0100
0001
0100
0000
,
0010
0001
0010
0000
0100
0000
0110
0000
,
2000
0000
0000
0000
,
3002
0000
0000
0000
0000
0000
0000
0000
0000
0000
0000
0000
0000
0000
0000
0003
1001
0000
0000
0000
0000
0000
0000
0000
0110
0000
0000
0000
0000
0000
0000
0000
,
0001
1000
0010
0000
1000
0100
0001
0100
,
1000
0000
1001
0000
0001
0000
0010
0001
,
0100
0000
0110
0000
0001
0010
1000
0010
,
0002
1003
1001
0110
,
0001
1000
0100
0000
1000
0010
0001
0010
,
1000
0000
1001
0000
0001
0000
0100
0001
,
0010
0000
0110
0000
0001
0100
1000
0100
,
0002
0000
1003
0000
0100
0010
0100
0000
,
0010
0100
0010
0000
1001
0000
0000
0000
;

//---------------dance-single - ----------------
#NOTES:
     dance-single:
     :
     Easy:
     5:
     0.228446,0.290545,0.202706,0.285290,0.000000,213.000000,186.000000,27.000000,38.000000,0.000000,0.000000,0.228446,0.290545,0.202706,0.285290,0.000000,213.000000,186.000000,27.000000,38.000000,0.000000,0.000000:
0000
0000
0000
0000
,
0000
0000
0000
0000
,
0000
0000
0000
0000
,
0000
0000
0000
0000
,
0000
0000
0000
0000
,
1000
0011
0100
0001
,
1000
0000
0001
1001
,
0100
1010
0001
0010
,
0100
0000
0010
0110
,
1000
0001
0000
0001
,
0010
0000
0001
1001
,
0001
1000
0000
1000
,
0100
0000
1000
1001
,
0001
0001
2000
3000
,
1000
1000
0002
0003
,
0100
0010
1000
0001
,
0200
0300
0020
0030
,
1000
1000
0002
0003
,
0001
0001
2000
3000
,
0100
0010
0001
1000
,
0200
0300
0020
0030
,
0002
0003
0200
0300
,
0002
0003
0020
0030
,
0200
0300
2000
3000
,
0020
0030
2000
3000
,
0001
0010
0001
0010
,
1000
0010
1000
0010
,
0001
0010
1000
0010
,
0002
0000
0003
1001
,
0001
0011
0100
1100
,
0001
0100
0002
0103
,
0010
1010
0001
0101
,
1000
0100
2000
3000
,
0100
0101
1000
1010
,
0100
1000
0200
1300
,
0001
0011
0100
1100
,
0010
1000
0020
0031
,
0010
0010
0100
0010
,
0002
0000
1000
0000
,
2003
0000
0100
0000
,
3020
0000
0100
0000
,
0230
0000
0302
0000
,
1003
0100
0001
0000
,
0100
0001
0010
0000
,
0002
0000
0023
0000
,
2030
0000
0000
0000
,
3002
0003
0000
0001
,
2000
3000
0000
1000
,
0200
0300
0000
0100
,
0010
0010
0100
0000
,
1000
1000
0001
0101
,
0010
0010
0100
0101
,
0001
0001
1000
1100
,
0010
0010
0100
0010
,
0002
0000
0000
0000
,
2003
0000
0000
0000
0000
0000
0000
3000
0000
0000
0000
0000
0101
0000
0000
0000
,
0010
1010
0001
0010
,
0002
0013
0100
1100
,
0001
0011
1000
0010
,
2000
3000
0010
0011
,
1000
1100
0010
1000
,
0020
1030
0001
0101
,
0010
1010
0100
1000
,
0200
0301
0100
0100
,
0010
0100
1001
0000
;

//---------------dance-single - ----------------
#NOTES:
     dance-single:
     :
     Beginner:
     3:
     0.123339,0.193697,0.067569,0.037538,0.000000,115.000000,106.000000,9.000000,5.000000,0.000000,0.000000,0.123339,0.193697,0.067569,0.037538,0.000000,115.000000,106.000000,9.000000,5.000000,0.000000,0.000000:
0000
0000
0000
0000
,
0000
0000
0000
0000
,
0000
0000
0000
0000
,
0000
0000
0000
0000
,
0000
0000
0000
0000
,
0001
0000
0000
0000
,
1000
0000
0000
0000
,
0100
0000
0000
0000
,
0010
0000
0000
0000
,
0001
0000
0000
0000
,
1000
0000
0000
0000
,
0010
0000
0000
0000
,
0100
0000
0000
0000
,
0001
0001
0001
0000
,
0010
0010
0010
0000
,
0001
0001
0001
0000
,
1000
0000
0100
0000
,
1000
1000
1000
0000
,
0010
0010
0010
0000
,
1000
1000
1000
0000
,
0001
0000
0100
0000
,
0001
0000
0000
0000
,
0001
0000
0000
0000
,
1000
0000
0000
0000
,
1000
0000
0000
0000
,
0010
0000
0010
0000
,
0100
0000
0100
0000
,
0010
0000
0100
0000
,
0020
0000
0030
0000
,
0001
0000
1001
0000
,
0100
0100
0100
0000
,
1000
0000
1001
0000
,
0010
0010
0010
0000
,
0100
0000
0110
0000
,
1000
1000
1000
0000
,
0010
0000
0110
0000
,
0001
0001
0001
0000
,
1000
0000
0001
0000
,
2000
0000
0000
0000
,
3000
0000
0000
0000
,
0002
0000
0000
0000
,
0003
0000
0000
0000
,
1000
0000
0000
0000
,
1000
0000
0000
0000
,
0001
0000
1000
0000
,
0002
0000
0000
0000
,
0003
0000
0000
0000
,
1000
0000
0000
0000
,
0001
0000
0000
0000
,
0010
0010
0010
0000
,
0001
0000
0001
0000
,
1000
0000
1000
0000
,
0010
0000
0010
0000
,
0100
0000
0100
0000
,
0002
0000
0000
0000
,
0000
0000
0000
0000
0000
0000
0000
0003
0000
0000
0000
0000
0000
0000
0000
0000
,
1001
0000
0100
0100
,
0100
0000
1000
0000
,
1001
0000
0010
0010
,
0010
0000
0100
0000
,
0110
0000
1000
1000
,
1000
0000
0010
0000
,
0110
0000
0001
0001
,
0001
0000
1000
0000
,
0001
0000
1001
0000
;

//---------------dance-double - ----------------
#NOTES:
     dance-double:
     :
     Challenge:
     13:
     0.494430,0.556878,0.165168,0.300305,0.251505,461.000000,439.000000,22.000000,40.000000,32.000000,0.000000,0.494430,0.556878,0.165168,0.300305,0.251505,461.000000,439.000000,22.000000,40.000000,32.000000,0.000000:
00000000
00000000
00000000
00000000
,
00000000
00000000
00000000
00000000
,
00000000
00000000
00000000
00000000
,
00000000
00000000
00000000
00000000
,
00000000
00000000
00000000
00000000
,
00000100
00000000
00000000
00000000
00000011
00000000
00000001
00000000
00000100
00000000
00000000
00000100
00000010
00000000
00010000
00000000
,
00001000
00000000
00000010
00000000
00000100
00001000
00000100
00000000
00010000
00000000
00000010
00001000
00000000
00000001
00000100
00000000
,
00000010
00000000
00000000
00000000
00001010
00000000
00000001
00000000
00000010
00000000
00000000
00000010
00001000
00000000
00010000
00000000
,
00001000
00000000
00010000
00000000
00100000
00000000
01000000
00000000
00100000
00000000
00100000
20000000
00000000
00000000
31000000
00000000
,
00100000
00000000
11000000
10000000
00100000
00100000
00010000
00100000
,
10000000
00000000
00010000
00000000
00100000
00010000
00100000
00000000
01000000
00000000
00100000
00001000
00000000
00010000
00000100
00000000
,
00001000
00000000
00000110
00001000
00000010
00000010
00010000
00001000
,
00000200
00000000
00000000
00000000
00001300
00000000
00010000
00000000
00000100
00000000
00000010
00000200
00000000
00000000
00001300
00000000
,
00000010
00000000
00001000
00000000
00000010
00000000
00001000
00000000
00000001
00000000
00000010
00000100
00000000
00001000
00000100
00000000
,
00010000
00000000
00001000
00000000
00010000
00000000
00001000
00000000
00100000
00000000
00010000
01000000
00000000
00100000
10000000
00000000
,
00010000
00100000
01000000
00100000
00010000
00100000
10000000
00100000
,
00002000
00003200
00020300
02030000
,
03001000
00000000
00010000
00000000
00001000
00000000
00010000
00000000
01000000
00000000
10000000
01000000
00000000
00100000
00010000
00000000
,
01000000
00000000
00001000
00000000
01000000
00000000
00001000
00000000
00010000
00000000
00000100
00010000
00000000
00000010
00001000
00000000
,
00000001
00000010
00000100
00000010
00000001
00000010
00001000
00010000
,
00002000
02003000
03200000
00320000
,
00032000
00013000
00020000
00030100
,
00000200
00000000
00000000
00000000
00000310
00000000
00000000
00000000
00000020
00000000
00000000
00000001
00000000
00000001
00000030
00000000
,
00001002
00000103
00001020
00000130
,
00002100
00000000
00000000
00000000
00013000
00000000
00000000
00000000
00201000
00000000
00000000
01000000
00000000
01000000
00300000
00000000
,
10000000
01000000
10000000
00010000
01000000
00100000
10000000
00010000
,
00100000
00010000
00100000
00001000
00010000
00000010
00001000
00000010
,
00010000
00001000
00010000
00000000
00000100
00000010
00000001
00000000
00000100
00000001
00000100
00000010
00001000
00000100
00010000
00001000
,
00200000
00000000
00000000
00000000
00000000
00000000
00000000
00000000
00301000
00010000
00001000
00000000
00011000
00000000
00000000
00000000
,
00110000
00000000
00000000
00000000
11000000
00000000
10000000
00000000
00100000
00000000
10000000
00010000
01000000
00000000
00100000
00000000
,
10000000
00000000
01000000
00000000
00100000
00000000
01000000
00000000
10000000
00000000
01000000
00010000
00001000
00000000
00000000
00000000
,
00010000
00000000
00000000
00000000
00011000
00000000
00001000
00000000
00010000
00000000
00000100
00010000
00001000
00000000
00010000
00000000
,
00001000
00000100
00000001
00000100
00001000
00000100
00000010
00010000
,
00011000
00000000
00000000
00000000
00001100
00000000
00010000
00000000
00001000
00000000
00010000
00000010
00001000
00000000
00000010
00000000
,
00010000
00000000
00001000
00000000
00100000
00000000
00001000
00000000
00010000
00000000
00001000
01000000
00100000
00000000
10000000
00000000
,
01000000
00000000
00000000
00000000
10010000
00000000
00010000
00000000
00100000
00000000
00010000
01000000
00100000
00000000
10000000
00000000
,
01000000
10000000
00100000
10000000
01000000
00100000
00010000
01000000
,
00001000
00001000
00010000
00010000
00001000
00001000
00010000
00000100
,
00000020
00000000
00000030
00000100
00001000
00000001
00000010
00000001
,
00001000
00000010
00000200
00000000
00002300
00000000
00023000
00000000
,
02030000
00000000
03000000
00100000
00010000
10000000
01000000
10000000
,
00010000
01000000
00200000
00000000
00320000
00000000
00032000
00000000
,
00003010
00000000
00000100
00000000
00000010
00000000
00000100
00000000
00001000
00000000
00000100
00010000
00000000
00000000
00010000
00000000
,
00001000
00000000
01000000
00000000
00001000
00000000
01000000
00000000
00010000
00000000
00100000
01000000
00000000
00000000
01000000
00000000
,
00020000
00000000
00000000
00000000
02030000
00000000
23000000
00000000
30200000
00000000
00000000
00320000
00000000
00000000
00032000
00000000
,
00000000
00000000
00000000
00000000
00000000
00000000
00010000
00000000
00000000
00000000
00100000
00000000
00000000
00010000
00000000
00000000
,
00023000
00000000
00000000
00000100
00000000
00000000
00030100
00000000
00000000
00000000
00010000
00002000
00000000
00000000
00013000
00000000
,
00000100
00000000
00001000
00000010
00000000
00001000
00000010
00000000
00000000
00000000
00000010
00000100
00000000
00000000
00000001
00000000
,
00002000
00000000
00000000
00000100
00000000
00000000
00003100
00000000
00000000
00000000
00001000
00000002
00000000
00000000
00000103
00000000
,
00000010
00000000
00001000
00000000
00000001
00000000
00001000
00000000
00000010
00000000
00000000
00000010
00000000
00000000
00000011
00000000
,
00000001
00000100
00000000
00000001
00000100
00000000
00000010
00001000
00000100
00000000
00010000
00000000
00001000
00000000
MMMMMMMM
00000000
,
00010000
00100000
00000000
00010000
00100000
00000000
00010000
10000000
00100000
00000000
01000000
00000000
00010000
00000000
MMMMMMMM
00000000
,
00001000
00010000
00000000
00010000
00001000
00000000
00100000
00010000
10000000
00000000
01000000
00000000
00100000
00000000
MMMMMMMM
00000000
,
10000000
00000000
10000000
00000000
00010000
00000000
00010000
00100000
00010000
00000000
01000000
00000000
00100000
00000000
MMMMMMMM
00000000
,
00002000
00000000
00000000
00000000
,
00020000
00000000
00000000
00000000
00000000
00000000
00000000
00000000
00000000
00000000
00000000
00000000
00000000
00000000
00000000
00033000
00110000
00000000
00000000
00000000
00000000
00000000
00000000
00000000
11000000
00000000
00000000
00000000
10000000
00000000
00000000
00000000
,
00100000
00000000
10000000
00010000
01000000
00000000
00100000
00000000
10000000
00000000
01000000
00000000
00100000
00000000
01000000
00000000
,
10000000
00000000
00010000
00100000
01000000
00100000
00010000
00100000
00001000
00000000
00000000
00000000
00011000
00000000
00001000
00000000
,
00010000
00000000
00000100
00010000
00001000
00000000
00010000
00000000
00001000
00000000
00000100
00000000
00000001
00000000
00000100
00000000
,
00001000
00000100
00000010
00010000
00011000
00000000
00001100
00010000
,
00001000
00000000
00010000
00000010
00001000
00000000
00000010
00000000
00010000
00000000
00001000
00000000
00100000
00000000
00001000
00000000
,
00010000
00000000
00001000
01000000
00010000
01000000
00100000
10000000
01000000
00000000
00000000
00000000
10010000
00000000
00010000
00000000
,
00100000
00000000
00010000
01000000
00100000
00000000
10000000
00000000
01000000
00000000
10000000
00000000
00100000
00000000
10000000
00000000
,
01000000
00100000
00010000
01000000
00001000
00001000
00010000
00010000
,
00001000
00001000
00010000
00000100
00000010
00000000
00000000
00000000
;

//---------------dance-double - ----------------
#NOTES:
     dance-double:
     :
     Hard:
     11:
     0.423644,0.484242,0.127630,0.262767,0.135137,395.000000,378.000000,17.000000,35.000000,0.000000,0.000000,0.423644,0.484242,0.127630,0.262767,0.135137,395.000000,378.000000,17.000000,35.000000,0.000000,0.000000:
00000000
00000000
00000000
00000000
,
00000000
00000000
00000000
00000000
,
00000000
00000000
00000000
00000000
,
00000000
00000000
00000000
00000000
,
00000000
00000000
00000000
00000000
,
00000100
00000000
00000000
00000000
00011000
00000000
00010000
00000000
00000010
00000000
00000000
00001000
00000000
00000000
00000101
00000000
,
00000000
00001000
00000100
00001000
00000010
00010000
00001000
00100000
,
00010000
00000000
00000000
00000000
10010000
00000000
00010000
00000000
01000000
00000000
00000000
00100000
00000000
00000000
10100000
00000000
,
00000000
00000000
01000000
00000000
00010000
00000000
00100000
00000000
01000000
00000000
00000000
00100000
00000000
00000000
00010000
00000000
,
10000000
00000000
00000000
00000000
00110000
00000000
00010000
00000000
01000000
00000000
00000000
00001000
00000000
00000000
00011000
00000000
,
00000000
00000000
00010000
00000000
00001000
00000000
00000010
00000000
00000100
00000000
00000000
00000100
00000000
00000000
00001000
00000000
,
00000001
00000000
00000000
00000000
00000011
00000000
00000001
00000000
00000100
00000000
00000000
00000010
00000000
00000000
00001000
00000000
,
00000200
00000300
00000010
00001001
,
00001000
00000000
00000100
00000000
00001000
00000000
00000100
00000000
00000010
00000000
00000100
00020000
00000000
00000000
00031000
00000000
,
01000000
00000000
00100000
00000000
01000000
00000000
00100000
00000000
10000000
00000000
00100000
02000000
00000000
00000000
03010000
00000000
,
00100000
00010000
00100000
00010000
10000000
00100000
01000000
00010000
,
00200000
00302000
00003020
00000032
,
00001003
00000000
00000010
00000000
00001000
00000000
00000010
00000000
00000100
00000000
00000010
00020000
00000000
00000000
00031000
00000000
,
00100000
00000000
01000000
00000000
00100000
00000000
01000000
00000000
10000000
00000000
01000000
00200000
00000000
00000000
00310000
00000000
,
01000000
00010000
01000000
00010000
10000000
01000000
00100000
00010000
,
20000000
30200000
00320000
00032000
,
00023000
00001000
00000100
00000100
,
00001000
00001000
00030020
00000130
,
00002000
00010000
01000000
01000000
,
00010000
00010000
00203000
01300000
,
10000000
01000000
10000000
00010000
01000000
00010000
01000000
00100000
,
00010000
00001000
00010000
00000100
00010000
00001000
00000010
00000001
,
00001000
00000010
00000100
00000001
00001000
00000100
00000010
00000001
,
00002000
00000000
00000000
00000000
00003100
00010000
00001000
00000000
,
00010000
00000000
00000000
00000000
00001010
00000000
00001000
00000000
00000001
00000000
00000100
00000010
00000000
00000000
00001000
00000000
,
00000100
00000000
00000010
00000000
00000100
00000000
00010000
00000000
00001000
00000000
00100000
00001000
00000000
00000000
00000000
00000000
,
00010000
00000000
00000000
00000000
00011000
00000000
00010000
00000000
00001000
00000000
01000000
00010000
00000000
00000000
00010000
00000000
,
10000000
01000000
10000000
00010000
00100000
01000000
10000000
00010000
,
01000000
00000000
00000000
00000000
01100000
00000000
10000000
00000000
00010000
00000000
00100000
00010000
00100000
00000000
00001000
00000000
,
00010000
00000000
00000010
00000000
00000100
00000000
00000010
00000000
00001000
00000000
00000001
00000010
00000100
00000000
00000000
00000000
,
00001000
00000000
00000000
00000000
00000101
00000000
00000010
00000000
00010000
00000000
00001000
00010000
00000000
00000000
00001000
00000000
,
00100000
00010000
01000000
00001000
00100000
01000000
00100000
00010000
,
10000000
10000000
00010000
00010000
01000000
01000000
00100000
00010000
,
00002000
00000000
00003000
01000000
00001000
00000000
00001000
00000000
,
00010000
00000100
00020000
00000000
00032000
00000000
00003200
00000000
,
00000302
00000000
00000003
00001000
00000100
00000000
00000100
00000000
,
00001000
00000010
00002000
00000000
00023000
00000000
02030000
00000000
,
03100000
00000000
01000000
00000000
00100000
00000000
01000000
00000000
00010000
00000000
00000000
10000000
00000000
00000000
11000000
00000000
,
00000000
00000000
00100000
00000000
01000000
00000000
00100000
00000000
01000000
00000000
00000000
10000000
00000000
00000000
00010000
00000000
,
02000000
00000000
00000000
00000000
03100000
00000000
10000000
00000000
00020000
00000000
00000000
00230000
00000000
00000000
00302000
00000000
,
00000000
00000000
00000000
00000000
00000000
00000000
00000010
00000000
00000000
00000000
00000010
00000000
00000000
00000010
00000000
00000000
,
00023000
00000000
00000000
00000000
00030000
00000000
00000000
00000000
00000000
00000000
00000010
00001000
00000000
00000000
00000100
00000000
,
00020000
00000000
00000000
00000000
00030000
00000000
00000000
00000000
00000000
00000000
00000100
00001000
00000000
00000000
00000001
00000000
,
00000200
00000000
00000000
00000000
00000300
00000000
00000000
00000000
00000000
00000000
00000010
00000100
00000000
00000000
00000001
00000000
,
00001000
00000000
00000100
00000000
00000001
00000000
00000100
00000000
00001000
00000000
00000000
00001000
00000000
00000000
00000100
00000000
,
00010000
00001000
00000000
00010000
00001000
00000000
00100000
00000000
00010000
00000000
01000000
00000000
00010000
00000000
00000000
00000000
,
10000000
00100000
00000000
10000000
00100000
00000000
01000000
00000000
00010000
00000000
00100000
00000000
00010000
00000000
00000000
00000000
,
00001000
00000100
00000000
00001000
00000100
00000000
00000010
00000000
00000001
00000000
00000100
00000000
00000001
00000000
00000000
00000000
,
00001000
00000010
00000001
00000010
00000100
00000010
00001000
00000000
,
00000002
00000000
00000000
00000000
,
00002003
00000000
00000000
00000000
00000000
00000000
00000000
00000000
00000000
00000000
00000000
00000000
00000000
00000000
00000000
00003000
00010000
00000000
00000000
00000000
00000000
00000000
00000000
00000000
00001010
00000000
00000000
00000000
00001000
00000000
00000000
00000000
,
00000001
00000000
00000100
00000010
00000000
00000000
00001000
00000000
00000100
00000000
00000010
00000000
00000100
00000000
00010000
00000000
,
00001000
00000000
00100000
00010000
00100000
00000000
00001000
00000000
00010000
00000000
00000000
00000000
00011000
00000000
00010000
00000000
,
00001000
00000000
01000000
00010000
00000000
00000000
00010000
00000000
10000000
00000000
01000000
00000000
10000000
00000000
00010000
00000000
,
00100000
01000000
10000000
00010000
01000000
00000000
01100000
10000000
,
00010000
00000000
00100000
00010000
00100000
00000000
00001000
00000000
00010000
00000000
00000010
00000000
00000100
00000000
00000010
00000000
,
00001000
00000000
00000001
00000010
00000100
00000000
00001000
00000000
00000100
00000000
00000000
00000000
00000101
00000000
00000010
00000000
,
00010000
00000000
00001000
00010000
00000000
00000000
00001000
00000000
00100000
00000000
00010000
00000000
01000000
00000000
00001000
00000000
,
00100000
01000000
00100000
00010000
10000000
10000000
00010000
00010000
,
01000000
01000000
00100000
00010000
00001000
00000000
00000000
00000000
;

//---------------dance-double - ----------------
#NOTES:
     dance-double:
     :
     Medium:
     8:
     0.311030,0.363181,0.105107,0.315320,0.003754,290.000000,276.000000,14.000000,42.000000,0.000000,0.000000,0.311030,0.363181,0.105107,0.315320,0.003754,290.000000,276.000000,14.000000,42.000000,0.000000,0.000000:
00000000
00000000
00000000
00000000
,
00000000
00000000
00000000
00000000
,
00000000
00000000
00000000
00000000
,
00000000
00000000
00000000
00000000
,
00000000
00000000
00000000
00000000
,
00010000
01100000
10000000
00010000
,
00000000
10000000
00100000
00000000
01000000
00000000
00001000
00000000
,
00010000
00011000
00000100
00000010
,
00000000
00000001
00001000
00000000
00000001
00000000
00001010
00000000
,
00001000
00000001
00000100
00000000
00000000
00000000
00000010
00000000
,
00010000
00001000
00100000
00000000
00000000
00000000
00010000
00000000
,
10000000
00010000
01000000
00000000
00000000
00100000
10000000
00000000
,
02000000
03000000
10000000
10010000
,
00010000
00100000
00010000
00000000
10000000
00000000
10000000
00000000
,
00010000
01000000
00010000
00000000
10000000
00000000
10000000
00000000
,
00100000
00000000
00100000
00000000
01000000
00010000
00100000
00000000
,
00200000
00302000
00023000
00030020
,
00001030
00000010
00001000
00000000
00000001
00000000
00000001
00000000
,
00001000
00000100
00001000
00000000
00000001
00000000
00000001
00000000
,
00000010
00000000
00000010
00000000
00000100
00001000
00000010
00000000
,
00020000
00032000
00203000
02300000
,
23000000
30010000
00020000
01030000
,
02000000
03100000
00200000
00310000
,
00002000
00013000
00020000
00030100
,
00000200
00001300
00002000
00003001
,
00001000
00000010
00001000
00000000
00000100
00010000
00000100
00000000
,
00010000
00001000
00010000
00000000
00001000
01000000
00001000
00000000
,
00100000
00010000
00100000
00010000
10000000
00100000
01000000
00010000
,
20000000
00000000
31000000
00110000
,
10000000
00000000
01010000
00000000
10000000
00010000
01000000
00000000
,
00100000
10000000
01000000
00100000
00020000
00000000
00030000
00000000
,
00100000
00000000
00011000
00000000
00100000
00001000
00010000
00000000
,
00000100
00001000
00000010
00010000
00000200
00000000
00000310
00000000
,
00000001
00000000
00001010
00000000
00000001
00001000
00000010
00000000
,
00000100
00000001
00000010
00000100
00002000
00000000
00003000
00000000
,
00000100
00000000
00011000
00000000
00000100
00010000
00001000
00000000
,
00100000
00010000
01000000
00001000
00200000
00000000
01300000
00000000
,
10000000
01000000
10000000
00000000
00010000
01000000
00010000
00000000
,
20000000
00000000
00010000
00000000
,
31000000
10000000
00010000
00000000
02000000
00000000
03200000
00000000
,
00320000
00000000
00000010
00000000
,
00031000
00010000
00000010
00000000
00000200
00000000
00000302
00000000
,
00002003
00000000
00000100
00000000
00003100
00000010
00000001
00000000
,
00002000
00000000
00000010
00000000
00003010
00010000
00001000
00000000
,
00020000
00000000
00000000
00000000
00031000
00000000
00000000
00000000
00100000
00000000
00000000
00010000
00000000
00000000
20000000
00000000
,
00000000
00000000
00000000
00000000
00000000
00000000
00000000
30000000
,
00020000
00000000
00030000
00000000
00000000
01000000
00000000
00010000
,
20000000
00000000
30000000
00000000
00000000
01000000
00000000
00010000
,
00002000
00000000
00003000
00000000
00000000
00010000
00000000
00010000
,
00001000
00010000
00001000
00000000
00020000
00000000
00030000
00000000
,
00000100
00010000
00000100
00000000
00001000
00000010
00001000
00000000
,
00000001
00000100
00000001
00000000
00000010
00000100
00000010
00000000
,
00001000
00010000
00001000
00000000
00100000
00010000
00100000
00000000
,
01000000
10000000
00010000
00000000
01000000
00100000
10000000
00000000
,
00020000
00000000
00000000
00000000
,
20030000
00000000
00000000
00000000
00000000
00000000
00000000
00000000
00000000
00000000
00000000
00000000
00000000
00000000
00000000
30000000
10000000
00000000
00000000
00000000
00000000
00000000
00000000
00000000
01010000
00000000
00000000
00000000
00000000
00000000
00000000
00000000
,
10000000
00010000
01000000
00000000
00100000
10000000
01000000
00100000
,
00020000
00130000
00001000
00011000
,
00100000
00001000
00010000
00000000
00000100
00001000
00000010
00010000
,
00000200
00000310
00000001
00001010
,
00000001
00001000
00000010
00000000
00000100
00000001
00000010
00000100
,
00002000
00003100
00010000
00011000
,
00000100
00010000
00001000
00000000
00100000
00010000
01000000
00001000
,
00200000
00000000
01300000
00000000
10000000
01000000
10000000
00000000
,
00010000
01000000
00010000
00000000
10010000
00000000
00000000
00000000
;

//---------------dance-double - ----------------
#NOTES:
     dance-double:
     :
     Easy:
     5:
     0.213431,0.290545,0.120122,0.292797,0.000000,199.000000,183.000000,16.000000,39.000000,0.000000,0.000000,0.213431,0.290545,0.120122,0.292797,0.000000,199.000000,183.000000,16.000000,39.000000,0.000000,0.000000:
00000000
00000000
00000000
00000000
,
00000000
00000000
00000000
00000000
,
00000000
00000000
00000000
00000000
,
00000000
00000000
00000000
00000000
,
00000000
00000000
00000000
00000000
,
00010000
00011000
00000100
00010000
,
00000000
00001000
00010000
00010000
,
00000010
00001010
00000001
00001000
,
00000000
00000100
00000010
00000100
,
00000100
00001000
00000000
00000010
,
00000010
00010000
00000000
00001000
,
00001000
00100000
00000000
00010000
,
02000000
03000000
00010000
10010000
,
00010000
00100000
00020000
00030000
,
10000000
01000000
20000000
30000000
,
00100000
10000000
00010000
01000000
,
00200000
00320000
00032000
00003000
,
00010000
00001000
00020000
00030000
,
00000100
00000010
00000200
00000300
,
00001000
00000001
00000100
00000010
,
00002000
00003002
00000023
00000030
,
00000200
00000300
00020000
00030000
,
00002000
00003000
00020000
00030000
,
00200000
00300000
20000000
30000000
,
02000000
03000000
20000000
30000000
,
00010000
00100000
00010000
00100000
,
00001000
00010000
00001000
00010000
,
00000010
00000010
00001000
00001000
,
00000002
00000000
00000003
00001001
,
00000001
00000010
00000001
00000110
,
00001000
00001000
00002000
00003000
,
00000010
00001000
00000010
00011000
,
00100000
00100000
00020000
00030000
,
10000000
01000000
10000000
01100000
,
00010000
00010000
00020000
00030000
,
01000000
00010000
01000000
00011000
,
00000100
00010000
00000010
00001000
,
00000001
00000001
00001000
00000001
,
00002000
00000000
00003100
00000000
,
00020000
00000000
00031000
00000000
,
00000020
00000000
00001030
00000000
,
00020000
00000000
00030100
00000000
,
00000100
00010000
00001000
00000000
,
00010000
00001000
01000000
00000000
,
00200000
00000000
20300000
00000000
,
30020000
00000000
00000000
00030000
,
22000000
33000000
00000000
00010000
,
20000000
30000000
00000000
00100000
,
02000000
03000000
00000000
00001000
,
00010000
00010000
00001000
00000000
,
00000010
00000010
00000001
00000110
,
00001000
00001000
00000010
00011000
,
00100000
00100000
00010000
11000000
,
00000000
00010000
01000000
00100000
,
20000000
00000000
00000000
00000000
,
30020000
00000000
00000000
00000000
00000000
00000000
00000000
00030000
00000000
00000000
00000000
00000000
00100000
00000000
00000000
00000000
,
10000000
01100000
00010000
00010000
,
00020000
00030000
00100000
00010000
,
00100000
00011000
00000010
00000010
,
00002000
00003000
00000001
00000100
,
00000001
00000110
00001000
00001000
,
00002000
00003000
00000100
00001000
,
00000100
00011000
01000000
00001000
,
00100000
00010000
10000000
10000000
,
00010000
10000000
01000000
00000000
;
