#TITLE:Ghen;
#SUBTITLE:;
#ARTIST:KHAC HUNG x MIN x ERIK;
#TITLETRANSLIT:;
#SUBTITLETRANSLIT:;
#ARTISTTRANSLIT:;
#GENRE:World Music;
#CREDIT:;
#BANNER:Ghen.png;
#BACKGROUND:Ghen-bg.png;
#LYRICSPATH:;
#CDTITLE:../cdtitle.png;
#MUSIC:Ghen.ogg;
#OFFSET:2.345000;
#SAMPLESTART:47.450001;
#SAMPLELENGTH:15.000000;
#LASTBEATHINT:2.241667;
#SELECTABLE:YES;
#BPMS:0.000000=100.000000
;
#STOPS:
;
#BGCHANGES:3.500=Ghen.avi=1.000=0=0=0=StretchNoLoop====,
99999=-nosongbg-=1.000=0=0=0 // don't automatically add -songbackground-
;
#KEYSOUNDS:;
#ATTACKS:;

//---------------dance-single - ----------------
#NOTES:
     dance-single:
     :
     Hard:
     12:
     0.500040,0.598150,0.815256,0.336736,0.225968,395.000000,303.000000,92.000000,38.000000,0.000000,0.000000,0.500040,0.598150,0.815256,0.336736,0.225968,395.000000,303.000000,92.000000,38.000000,0.000000,0.000000:
// measure 0
0000
0000
0000
0000
,  // measure 1
0000
0000
0000
0000
,  // measure 2
0000
0000
0000
0000
,  // measure 3
0000
0000
0000
0000
,  // measure 4
0000
0000
0000
0000
,  // measure 5
0010
0000
1000
0100
0001
0000
0001
0100
,  // measure 6
1000
0010
0001
0020
0000
0030
0010
0000
,  // measure 7
2000
0000
3001
0100
0010
1000
0001
0020
,  // measure 8
0000
0200
0000
0000
0000
0000
0330
0000
,  // measure 9
0010
0000
0100
1000
0001
0000
0100
0001
,  // measure 10
1000
0010
0100
0020
0000
0030
0010
0000
,  // measure 11
2000
0100
3100
0010
1000
0010
0100
2000
,  // measure 12
0002
0000
0000
0000
3003
0001
0100
0010
,  // measure 13
2000
0000
0000
0000
3100
0000
0010
0100
0010
0000
0001
0100
0002
0000
0000
0000
,  // measure 14
1003
0010
0010
0010
0001
0010
1000
0100
,  // measure 15
0110
0000
0001
1000
0010
0010
0100
0002
,  // measure 16
2000
0000
0000
0000
3003
1000
0100
0010
,  // measure 17
0002
0000
0000
0000
0103
0000
0010
0100
0010
0000
1000
0100
2000
0000
0000
0000
,  // measure 18
3001
0010
0010
0010
1000
0010
0001
0100
,  // measure 19
0110
0000
0001
1000
0010
0100
0001
0022
,  // measure 20
0033
0000
2020
0000
0000
0000
0000
0000
3030
0000
0000
0000
1000
0100
0010
0000
,  // measure 21
1001
0000
1010
0000
0110
0000
0101
0000
1001
0000
0000
0000
0001
0010
0100
0000
,  // measure 22
1001
0000
0110
0000
1100
0000
0101
0000
1001
0000
0000
0000
0001
1000
0100
0000
,  // measure 23
0110
0000
1001
0000
1100
0000
1010
0000
1001
0000
0000
0000
0001
0010
0100
1000
,  // measure 24
0020
0000
0030
2000
0200
0000
3300
0000
0110
0000
0000
0002
0200
0000
0303
0000
,  // measure 25
0110
0000
1001
0000
0011
0000
1100
0000
1001
0000
0000
0000
0001
0100
0010
0000
,  // measure 26
1001
0000
0110
0000
1100
0000
0011
0000
1001
0000
0000
0000
0001
1000
0010
0000
,  // measure 27
1001
0000
0101
0000
0110
0000
1010
0000
1001
0000
0000
0000
1000
0010
0100
0001
,  // measure 28
0020
0000
0030
0002
0200
0000
0303
0000
0110
0000
0000
2000
0200
0000
3300
0000
,  // measure 29
1001
0000
0100
0000
1001
0000
0110
0000
1001
0000
0100
0010
0000
0001
0100
0001
,  // measure 30
0000
1001
0000
0000
1100
0000
0010
0000
1100
0000
0001
0100
0000
0010
1000
0000
,  // measure 31
0110
0000
0001
0000
0110
0000
1001
0000
0110
0000
0001
1000
0010
0000
0010
0100
,  // measure 32
0010
0000
0000
1000
0200
0000
0310
0000
0110
0000
0000
0001
0200
0000
0310
0000
,  // measure 33
1001
0000
0100
0000
1001
0000
0110
0000
1001
0000
0100
0010
0000
1000
0100
1000
,  // measure 34
0000
1001
0000
0000
0101
0000
0010
0000
0101
0000
1000
0100
0000
0010
0001
0000
,  // measure 35
0110
0000
1000
0000
0110
0000
1001
0000
0110
0000
1000
0001
0010
0100
1000
0100
,  // measure 36
0010
0000
0000
0001
0200
0000
0310
0000
0110
0000
0000
1000
0100
0010
0100
0000
,  // measure 37
1001
0000
0101
0000
0110
0000
1010
0000
1001
0000
0100
0000
1000
0100
0010
0000
,  // measure 38
1001
0000
0110
0000
0011
0000
1010
0000
1001
0000
0100
0000
1000
0001
0010
0000
,  // measure 39
0110
0000
1001
0000
0011
0000
0101
0000
1001
0000
0100
0000
1000
0100
0010
0001
,  // measure 40
0200
0000
0300
0001
0020
0000
0130
0000
0110
0000
0000
1000
0020
0000
0130
0000
,  // measure 41
0110
0000
1001
0000
1100
0000
0011
0000
1001
0000
0010
0000
1000
0010
0100
0000
,  // measure 42
1001
0000
0110
0000
0011
0000
1100
0000
1001
0000
0010
0000
1000
0001
0100
0000
,  // measure 43
1001
0000
1010
0000
0110
0000
0101
0000
1001
0000
0010
0000
0001
0100
0010
1000
,  // measure 44
0200
0000
0300
1000
0020
0000
0130
0000
0110
0000
0000
0002
0020
0000
0000
0000
,  // measure 45
0033
0000
0000
0000
;

//---------------dance-single - ----------------
#NOTES:
     dance-single:
     :
     Medium:
     9:
     0.332938,0.358890,0.283567,0.150645,0.000000,263.000000,231.000000,32.000000,17.000000,0.000000,0.000000,0.332938,0.358890,0.283567,0.150645,0.000000,263.000000,231.000000,32.000000,17.000000,0.000000,0.000000:
0000
0000
0000
0000
,
0000
0000
0000
0000
,
0000
0000
0000
0000
,
0000
0000
0000
0000
,
0000
0000
0000
0000
,
0001
0000
1000
0100
0010
0000
0100
1000
,
0010
0100
0010
2000
0000
3000
0001
0000
,
0020
0000
0130
0010
0001
0100
0010
2000
,
0000
0002
0000
0000
0000
0000
3003
0000
,
1000
0000
0001
0010
0100
0000
0010
0001
,
0100
0010
0100
0002
0000
0003
1000
0000
,
0200
0010
0310
0100
1000
0010
0100
0002
,
2000
0000
0000
0000
3003
1000
0100
0010
,
0002
0000
0013
0100
0100
0010
0020
0000
,
0031
1000
0100
1000
0001
0100
0010
1000
,
0100
0000
1000
0100
0010
0100
1000
0020
,
0000
0030
0100
0000
0000
0001
0010
0100
,
2000
0000
3100
0010
0010
0100
0200
0000
,
1300
0001
0010
0001
1000
0010
0100
0001
,
0010
0000
0001
0010
0100
0010
0001
0200
,
0000
0020
0000
0000
0330
0000
0100
0001
,
1000
0100
1000
0100
0110
0000
0001
1000
,
0010
0100
0010
0100
1010
0000
1000
0100
,
0010
0001
0010
0001
1001
0000
0001
0100
,
0010
0101
1000
0101
,
0001
0010
0001
0010
0110
0000
1000
0001
,
0100
0010
0100
0010
0101
0000
0001
0010
,
0100
1000
0100
1000
1001
0000
1000
0010
,
0100
1010
0001
1010
,
0110
0000
1001
0100
0010
0000
1001
0000
,
0100
0000
0100
1000
0001
0000
0100
0000
,
0010
0000
1010
0001
0010
0000
0010
0000
,
0100
1100
0100
0101
,
0110
0000
1001
0010
0100
0000
1001
0000
,
0010
0000
0010
1000
0001
0000
0010
0000
,
0100
0000
1100
0001
0100
0000
0100
0010
,
0010
0000
1010
0000
0010
0000
0011
0001
,
1000
0010
1000
0010
0110
0000
0001
1000
,
0100
0010
0100
0010
1100
0000
1000
0010
,
0100
0001
0100
0001
1001
0000
0001
0010
,
0100
0011
1000
0011
,
0001
0100
0001
0100
0110
0000
1000
0001
,
0010
0100
0010
0100
0011
0000
0001
0100
,
0010
1000
0010
1000
1001
0000
1000
0100
,
0010
1100
0001
2200
,
3300
0000
0000
0000
;

//---------------dance-single - ----------------
#NOTES:
     dance-single:
     :
     Challenge:
     10:
     0.335470,0.358890,0.319013,0.141784,0.035446,265.000000,229.000000,36.000000,16.000000,40.000000,0.000000,0.335470,0.358890,0.319013,0.141784,0.035446,265.000000,229.000000,36.000000,16.000000,40.000000,0.000000:
0000
0000
0000
0000
,
0000
0000
0000
0000
,
0000
0000
0000
0000
,
0000
0000
0000
0000
,
0000
0000
0000
0000
,
MMMM
0000
1000
0100
0001
0000
1000
0100
,
0001
0100
1000
0002
0000
0003
0010
0000
,
MMMM
0000
1000
0010
0001
0010
1000
0200
,
0000
0020
0000
0000
0000
0000
0330
0000
,
MMMM
0000
1000
0100
0010
0000
1000
0100
,
0010
0100
1000
0020
0000
0030
0100
0000
,
MMMM
1000
0001
0001
0010
0100
1000
0002
,
2000
0000
0000
3003
MMMM
1000
0100
0010
,
0002
0000
1003
0010
0010
0100
0200
0300
,
MMMM
1000
0100
0100
0001
0100
1000
0001
,
0011
0000
0100
1000
0001
1000
0010
0200
,
0020
0000
0330
0000
MMMM
0001
0010
0100
,
2000
0000
3001
0100
0100
0010
0020
0030
,
MMMM
0001
0010
0010
1000
0010
0001
1000
,
1100
0000
0010
0001
0100
1000
0100
0002
,
0000
0020
0000
0000
0033
0000
0001
1000
,
0010
0010
0010
0010
0110
0000
0100
0001
,
0010
0010
0010
0010
1010
0000
0001
0100
,
1000
1000
1000
1000
1001
0000
0100
0001
,
0010
1100
0001
1010
,
0100
0100
0100
0100
0110
0000
0010
1000
,
0100
0100
0100
0100
0101
0000
1000
0010
,
0001
0001
0001
0001
1001
0000
0010
1000
,
MMMM
0101
MMMM
0011
,
0110
0000
0000
0000
1001
0000
0100
0000
0010
0000
0000
0010
0000
0000
0011
0000
,
0000
0001
0000
0000
0100
0000
0010
0000
1000
0000
0000
0100
0000
0000
1000
0000
,
1010
0000
0000
0000
0110
0000
0001
0000
1000
0000
0000
1000
0000
0000
0001
0000
,
0010
1010
0001
1100
,
0110
0000
0000
0000
1001
0000
0010
0000
0100
0000
0000
0100
0000
0000
1100
0000
,
0000
1000
0000
0000
0010
0000
0100
0000
0001
0000
0000
0010
0000
0000
0001
0000
,
0101
0000
0000
0000
0110
0000
1000
0000
0001
0000
0000
1000
0001
0000
1000
0000
,
0100
0000
0101
0000
1000
0000
0011
0100
,
0010
0010
0010
0010
0110
0000
0100
1000
,
0010
0010
0010
0010
0011
0000
1000
0100
,
0001
0001
0001
0001
1001
0000
0100
1000
,
0010
0101
1000
0011
,
0100
0100
0100
0100
0110
0000
0010
0001
,
0100
0100
0100
0100
1100
0000
0001
0010
,
1000
1000
1000
1000
1001
0000
0010
0001
,
0100
1100
0001
2020
,
3030
0000
0000
0000
;

//---------------dance-single - ----------------
#NOTES:
     dance-single:
     :
     Easy:
     6:
     0.239260,0.319013,0.177230,0.124061,0.000000,189.000000,169.000000,20.000000,14.000000,0.000000,0.000000,0.239260,0.319013,0.177230,0.124061,0.000000,189.000000,169.000000,20.000000,14.000000,0.000000,0.000000:
0000
0000
0000
0000
,
0000
0000
0000
0000
,
0000
0000
0000
0000
,
0000
0000
0000
0000
,
0000
0000
0000
0000
,
0000
0000
0001
0100
0001
0000
1000
0000
,
0100
0010
0100
0000
0020
0000
0030
0000
,
0100
0000
1000
0000
0001
0010
0001
0000
,
0200
0020
0000
0330
,
0000
0000
1000
0100
1000
0000
0001
0000
,
0100
0010
0100
0000
0020
0000
0030
0000
,
0100
0001
1000
0000
0010
1000
0100
0000
,
0020
0000
0030
0100
,
2000
0000
0010
0020
,
3030
0000
1000
0000
0010
0100
0001
0000
,
0010
0000
0000
0000
0010
0100
1000
0000
,
0002
0000
0003
1000
,
0002
0000
0010
0020
,
0033
0000
0001
0000
0010
0100
1000
0000
,
0010
0000
0100
0000
0001
1000
0001
0000
,
0020
0200
0330
0100
,
0010
0010
0010
0000
0010
0000
0100
0000
,
1000
1000
1000
0000
1000
0000
0010
0000
,
0001
0001
0001
0000
0001
0000
0100
0000
,
1000
1100
0001
0101
,
0010
0010
0010
0000
0010
0000
0100
0000
,
0001
0001
0001
0000
0001
0000
0010
0000
,
1000
1000
1000
0000
1000
0000
0100
0000
,
0000
0001
0000
1000
,
1100
0101
1100
1100
,
0001
0100
0001
0000
0010
0000
0110
0000
,
1000
0000
0001
0010
0100
0000
0100
0000
,
1000
0110
0001
0110
,
1010
0011
1010
1010
,
0001
0010
0001
0000
0100
0000
0110
0000
,
1000
0000
0001
0100
0010
0000
0010
0000
,
1000
0110
0001
0110
,
0100
0100
0100
0000
0100
0000
0010
0000
,
0001
0001
0001
0000
0001
0000
0100
0000
,
1000
1000
1000
0000
1000
0000
0010
0000
,
0001
0011
1000
1010
,
0100
0100
0100
0000
0100
0000
0010
0000
,
1000
1000
1000
0000
1000
0000
0100
0000
,
0001
0001
0001
0000
0001
0000
0010
0000
,
1000
1010
0001
0022
,
0033
0000
0000
0000
;

//---------------dance-single - ----------------
#NOTES:
     dance-single:
     :
     Beginner:
     3:
     0.116465,0.139568,0.017723,0.062030,0.000000,92.000000,90.000000,2.000000,7.000000,0.000000,0.000000,0.116465,0.139568,0.017723,0.062030,0.000000,92.000000,90.000000,2.000000,7.000000,0.000000,0.000000:
0000
0000
0000
0000
,
0000
0000
0000
0000
,
0000
0000
0000
0000
,
0000
0000
0000
0000
,
0000
0000
0000
0000
,
0010
0000
0100
0000
,
0010
0010
0010
0000
,
0100
0000
1000
0000
,
0002
0000
0000
0003
,
0100
0000
0010
0000
,
0100
0100
0100
0000
,
0010
0000
1000
0000
,
0002
0000
0000
0003
,
1000
0000
2000
3000
,
0000
0010
0010
0000
,
1000
0000
0100
0000
,
0020
0000
0030
0000
,
0001
0000
0002
0003
,
0000
0100
0100
0000
,
0001
0000
0010
0000
,
0200
0000
0300
0000
,
1000
1000
1000
0000
,
1000
1000
1000
0000
,
0010
0010
0010
0000
,
0001
0000
0001
0000
,
0100
0100
0100
0000
,
0100
0100
0100
0000
,
1000
1000
1000
0000
,
0001
0000
0001
0000
,
1001
0000
0001
0000
,
1000
0000
0100
0000
,
1000
0000
1000
0000
,
0010
0000
0001
0000
,
1001
0000
1000
0000
,
0001
0000
0010
0000
,
0001
0000
0001
0000
,
0100
0000
1000
0000
,
0001
0001
0001
0000
,
0001
0001
0001
0000
,
0010
0010
0010
0000
,
1000
0000
1000
0000
,
0100
0100
0100
0000
,
0100
0100
0100
0000
,
0001
0001
0001
0000
,
1000
0000
2000
0000
,
3000
0000
0000
0000
;

//---------------dance-double - ----------------
#NOTES:
     dance-double:
     :
     Hard:
     12:
     0.434212,0.518396,0.354459,0.248121,0.225968,343.000000,303.000000,40.000000,28.000000,0.000000,0.000000,0.434212,0.518396,0.354459,0.248121,0.225968,343.000000,303.000000,40.000000,28.000000,0.000000,0.000000:
00000000
00000000
00000000
00000000
,
00000000
00000000
00000000
00000000
,
00000000
00000000
00000000
00000000
,
00000000
00000000
00000000
00000000
,
00000000
00000000
00000000
00000000
,
00010000
00000000
10000000
01000000
10000000
00000000
00100000
01000000
,
00100000
00010000
00001000
00020000
00000000
00030000
00001000
00000000
,
00010000
00000000
01000000
00010000
00001000
00000100
00000001
00000020
,
00000000
00000200
00000000
00000000
00000000
00000000
00000330
00000000
,
00001000
00000000
00000001
00000010
00000001
00000000
00000100
00000010
,
00000100
00001000
00010000
02000000
00000000
03000000
00010000
00000000
,
00001000
00000010
00000010
00001000
00010000
00100000
10000000
02000000
,
00200000
00000000
00000000
00000000
03300000
00010000
10000000
01000000
,
00200000
00000000
00000000
00000000
01300000
00000000
00010000
00001000
00010000
00000000
00000010
00000100
00000020
00000000
00000000
00000000
,
00001030
00000001
00000001
00000001
00000010
00001000
00010000
01000000
,
01100000
00000000
10000000
00100000
00010000
00001000
00000100
00000020
,
00002000
00000000
00000000
00000000
00003030
00001000
00000001
00000100
,
00000020
00000000
00000000
00000000
00000130
00000000
00001000
00010000
00001000
00000000
00100000
01000000
00200000
00000000
00000000
00000000
,
00310000
10000000
10000000
10000000
00100000
00010000
00001000
00000100
,
00000110
00000000
00000001
00000010
00001000
00010000
01000000
22000000
,
33000000
00000000
00220000
00000000
00000000
00000000
00000000
00000000
00330000
00000000
00000000
00000000
01000000
10000000
00010000
00000000
,
00100000
00000000
00100000
00000000
00100000
00000000
00100000
00000000
00011000
00000000
00000000
00000000
00000010
00000100
00000001
00000000
,
00001000
00000000
00001000
00000000
00001000
00000000
00001000
00000000
00000110
00000000
00000000
00000000
00000001
00000010
00001000
00000000
,
00010000
00000000
00010000
00000000
00010000
00000000
00010000
00000000
01100000
00000000
00000000
00000000
00010000
01000000
00100000
10000000
,
00010000
00000000
00000000
00100000
00002000
00000000
00003000
00000000
00011000
00000000
00000000
00000010
00002000
00000000
00003000
00000000
,
00000100
00000000
00000100
00000000
00000100
00000000
00000100
00000000
00011000
00000000
00000000
00000000
01000000
00100000
10000000
00000000
,
00010000
00000000
00010000
00000000
00010000
00000000
00010000
00000000
01100000
00000000
00000000
00000000
10000000
01000000
00010000
00000000
,
00001000
00000000
00001000
00000000
00001000
00000000
00001000
00000000
00000110
00000000
00000000
00000000
00001000
00000010
00000100
00000001
,
00001000
00000000
00000000
00000100
00020000
00000000
00030000
00000000
00011000
00000000
00000000
01000000
00020000
00000000
00030000
00000000
,
10010000
00000000
01000000
00000000
01100000
00000000
00110000
00000000
00011000
00000000
00000100
00001000
00000000
00000100
00000010
00000100
,
00000000
00000001
00000000
00000000
00001100
00000000
00000001
00000000
00000010
00000000
00000100
00010000
00000000
00000100
00000010
00000000
,
00000110
00000000
00000001
00000000
00001010
00000000
00011000
00000000
01010000
00000000
00100000
10000000
00100000
00000000
01000000
00010000
,
00100000
00000000
00000000
01000000
00020000
00000000
00031000
00000000
00011000
00000000
00000000
00001000
00000200
00000000
00000310
00000000
,
00001001
00000000
00000010
00000000
00000110
00000000
00001100
00000000
00011000
00000000
00100000
00010000
00000000
00100000
01000000
00100000
,
00000000
10000000
00000000
00000000
00110000
00000000
10000000
00000000
01000000
00000000
00100000
00001000
00000000
00100000
01000000
00000000
,
01100000
00000000
10000000
00000000
01010000
00000000
00011000
00000000
00001010
00000000
00000100
00000001
00000100
00000010
00001000
00000100
,
00000010
00000000
00000000
00001000
00020000
00000000
00031000
00000000
00011000
00000000
00000000
01000000
00010000
10000000
00100000
00000000
,
01000000
00000000
01000000
00000000
01000000
00000000
01000000
00000000
00011000
00000000
00010000
00000000
00000100
00000010
00000001
00000000
,
00001000
00000000
00001000
00000000
00001000
00000000
00001000
00000000
00000110
00000000
00001000
00000000
00000001
00000100
00001000
00000000
,
00010000
00000000
00010000
00000000
00010000
00000000
00010000
00000000
01100000
00000000
10000000
00000000
00010000
00100000
01000000
10000000
,
00010000
00000000
00000000
01000000
00002000
00000000
00013000
00000000
00011000
00000000
00000000
00010000
00000200
00000000
00001300
00000000
,
00000010
00000000
00000010
00000000
00000010
00000000
00000010
00000000
00011000
00000000
00001000
00000000
00100000
01000000
10000000
00000000
,
00010000
00000000
00010000
00000000
00010000
00000000
00010000
00000000
01100000
00000000
00010000
00000000
10000000
00100000
00010000
00000000
,
00001000
00000000
00001000
00000000
00001000
00000000
00001000
00000000
00000110
00000000
00000001
00000000
00001000
00000100
00000010
00000001
,
00001000
00000000
00000000
00000010
00020000
00000000
00031000
00000000
00011000
00000000
00000000
00200000
00020000
00000000
00000000
00000000
,
00330000
00000000
00000000
00000000
;

//---------------dance-double - ----------------
#NOTES:
     dance-double:
     :
     Challenge:
     10:
     0.331672,0.358890,0.301290,0.132922,0.035446,262.000000,228.000000,34.000000,15.000000,80.000000,0.000000,0.331672,0.358890,0.301290,0.132922,0.035446,262.000000,228.000000,34.000000,15.000000,80.000000,0.000000:
00000000
00000000
00000000
00000000
,
00000000
00000000
00000000
00000000
,
00000000
00000000
00000000
00000000
,
00000000
00000000
00000000
00000000
,
00000000
00000000
00000000
00000000
,
MMMMMMMM
00000000
00010000
01000000
10000000
00000000
01000000
00010000
,
00001000
00000100
00000010
00000002
00000000
00000003
00000010
00000000
,
MMMMMMMM
00000000
00000100
00010000
00001000
01000000
00100000
20000000
,
00000000
02000000
00000000
00000000
00000000
00000000
33000000
00000000
,
MMMMMMMM
00000000
00010000
01000000
10000000
00000000
01000000
00001000
,
00010000
00000100
00000010
00000002
00000000
00000003
00000010
00000000
,
MMMMMMMM
00010000
00001000
00001000
00000100
00001000
00010000
02000000
,
00200000
00000000
00000000
03300000
MMMMMMMM
10000000
00100000
00010000
,
00002000
00000000
00013000
00001000
00001000
00010000
00020000
00030000
,
MMMMMMMM
00001000
00000010
00000010
00000100
00000001
00000010
00000100
,
00011000
00000000
00001000
00100000
00010000
10000000
01000000
00200000
,
00000000
00000000
00300000
00000000
MMMMMMMM
10000000
01000000
00010000
,
00002000
00000000
00003100
00000010
00000010
00000100
00000200
00000300
,
MMMMMMMM
00001000
00000001
00000001
00000010
00001000
00010000
01000000
,
01100000
00000000
00010000
10000000
00100000
01000000
00001000
00020000
,
00000000
00002000
00000000
00000000
00033000
00000000
00000100
00001000
,
00000010
00000010
00000010
00000010
00001001
00000000
00000100
00010000
,
00001000
00001000
00001000
00001000
00110000
00000000
01000000
10000000
,
00100000
00100000
00100000
00100000
10010000
00000000
01000000
00001000
,
00100000
00011000
00000010
00011000
,
00100000
00100000
00100000
00100000
10010000
00000000
00100000
00001000
,
00010000
00010000
00010000
00010000
00001100
00000000
00000010
00000001
,
00000100
00000100
00000100
00000100
00001001
00000000
00000010
00010000
,
MMMMMMMM
00100000
MMMMMMMM
00000010
,
00011000
00000000
00000000
00000000
10010000
00000000
01000000
00000000
00100000
00000000
00000000
00100000
00000000
00000000
00011000
00000000
,
00000000
00000100
00000000
00000000
00010000
00000000
00000010
00000000
00001000
00000000
00000000
00001000
00000000
00000000
00000100
00000000
,
00000011
00000000
00000000
00000000
00000110
00000000
00001000
00000000
00010000
00000000
00000000
00010000
00000000
00000000
00001000
00000000
,
01000000
00110000
10000000
01010000
,
00011000
00000000
00000000
00000000
00001001
00000000
00000010
00000000
00000100
00000000
00000000
00000100
00000000
00000000
00011000
00000000
,
00000000
00100000
00000000
00000000
00001000
00000000
01000000
00000000
00010000
00000000
00000000
00010000
00000000
00000000
00100000
00000000
,
11000000
00000000
00000000
00000000
01100000
00000000
00010000
00000000
00001000
00000000
00000000
00010000
00001000
00000000
00010000
00000000
,
00000010
00000000
00001100
00000000
00000001
00000000
00001010
00000100
,
00000010
00000010
00000010
00000010
00001001
00000000
00000100
00010000
,
00001000
00001000
00001000
00001000
00110000
00000000
01000000
10000000
,
00100000
00100000
00100000
00100000
10010000
00000000
01000000
00001000
,
00100000
00011000
00000010
00011000
,
00100000
00100000
00100000
00100000
10010000
00000000
00100000
00001000
,
00010000
00010000
00010000
00010000
00001100
00000000
00000010
00000001
,
00000100
00000100
00000100
00000100
00001001
00000000
00000010
00010000
,
00000100
00011000
01000000
20020000
,
30030000
00000000
00000000
00000000
;

//---------------dance-double - ----------------
#NOTES:
     dance-double:
     :
     Medium:
     9:
     0.332938,0.358890,0.283567,0.150645,0.000000,263.000000,231.000000,32.000000,17.000000,0.000000,0.000000,0.332938,0.358890,0.283567,0.150645,0.000000,263.000000,231.000000,32.000000,17.000000,0.000000,0.000000:
00000000
00000000
00000000
00000000
,
00000000
00000000
00000000
00000000
,
00000000
00000000
00000000
00000000
,
00000000
00000000
00000000
00000000
,
00000000
00000000
00000000
00000000
,
00100000
00000000
00001000
00010000
00001000
00000000
00000100
00000010
,
00000100
00000001
00001000
00000002
00000000
00000003
00000010
00000000
,
00000200
00000000
00001300
00000001
00000010
00000100
00010000
00002000
,
00000000
00020000
00000000
00000000
00000000
00000000
00033000
00000000
,
00000100
00000000
00010000
00001000
00010000
00000000
00100000
01000000
,
00100000
10000000
00010000
20000000
00000000
30000000
01000000
00000000
,
00200000
01000000
01300000
10000000
00100000
01000000
00001000
00020000
,
00002000
00000000
00000000
00000000
00033000
00100000
01000000
10000000
,
00020000
00000000
00130000
00001000
00001000
00010000
00020000
00000000
,
00031000
00000100
00000001
00000100
00001000
00010000
00000010
00000100
,
00000001
00000000
00000010
00000100
00001000
00000001
00000010
00000200
,
00000000
00000300
00000010
00000000
00000000
00001000
00010000
00100000
,
20000000
00000000
31000000
00010000
00010000
00001000
00002000
00000000
,
00013000
01000000
10000000
01000000
00010000
00001000
00100000
01000000
,
00100000
00000000
00001000
00010000
00000010
00000100
00000001
00000020
,
00000000
00000200
00000000
00000000
00000330
00000000
00000010
00000100
,
00010000
00001000
00010000
00001000
00011000
00000000
00010000
01000000
,
10000000
00100000
10000000
00100000
10100000
00000000
01000000
00100000
,
00010000
00001000
00010000
00001000
00011000
00000000
00001000
00000010
,
00000001
00001010
00010000
00001010
,
00000001
00000010
00000001
00000010
00000011
00000000
00000100
00010000
,
00001000
00010000
00001000
00010000
00011000
00000000
00010000
00100000
,
10000000
01000000
10000000
01000000
11000000
00000000
00010000
01000000
,
10000000
00110000
00001000
00110000
,
01010000
00000000
11000000
00100000
00010000
00000000
00011000
00000000
,
00000100
00000000
00000100
00000010
00000001
00000000
00000100
00000000
,
00000010
00000000
00001010
00000001
00001000
00000000
00001000
00000000
,
00000100
00011000
00100000
00011000
,
00001010
00000000
00000011
00000100
00001000
00000000
00011000
00000000
,
00100000
00000000
00100000
01000000
10000000
00000000
00100000
00000000
,
01000000
00000000
01010000
10000000
00010000
00000000
00010000
00100000
,
00001000
00000000
00011000
00000000
00000010
00000000
00000101
00000010
,
00010000
00001000
00010000
00001000
00011000
00000000
00010000
00100000
,
10000000
01000000
10000000
01000000
11000000
00000000
00100000
01000000
,
00010000
00001000
00010000
00001000
00011000
00000000
00001000
00000100
,
00000001
00001100
00010000
00001100
,
00000001
00000100
00000001
00000100
00000101
00000000
00000010
00010000
,
00001000
00010000
00001000
00010000
00011000
00000000
00010000
01000000
,
10000000
00100000
10000000
00100000
10100000
00000000
00010000
00100000
,
10000000
01010000
00001000
02020000
,
03030000
00000000
00000000
00000000
;

//---------------dance-double - ----------------
#NOTES:
     dance-double:
     :
     Easy:
     6:
     0.239260,0.319013,0.177230,0.124061,0.000000,189.000000,169.000000,20.000000,14.000000,0.000000,0.000000,0.239260,0.319013,0.177230,0.124061,0.000000,189.000000,169.000000,20.000000,14.000000,0.000000,0.000000:
00000000
00000000
00000000
00000000
,
00000000
00000000
00000000
00000000
,
00000000
00000000
00000000
00000000
,
00000000
00000000
00000000
00000000
,
00000000
00000000
00000000
00000000
,
00000000
00000000
00001000
00000100
00001000
00000000
00010000
00000000
,
01000000
00100000
01000000
00000000
00020000
00000000
00030000
00000000
,
00001000
00000000
00000100
00000000
00000001
00000010
00000100
00000000
,
00020000
00002000
00000000
00033000
,
00000000
00000000
00010000
01000000
00010000
00000000
00001000
00000000
,
00000100
00000010
00000100
00000000
00002000
00000000
00003000
00000000
,
00010000
01000000
10000000
00000000
00100000
01000000
00001000
00000000
,
00020000
00000000
00030000
00001000
,
00000020
00000000
00000100
00000200
,
00000330
00000000
00001000
00000000
00000001
00000100
00000010
00000000
,
00001000
00000000
00000000
00000000
00000100
00010000
00001000
00000000
,
00020000
00000000
00030000
00001000
,
02000000
00000000
00100000
00200000
,
03300000
00000000
10000000
00000000
00010000
00100000
01000000
00000000
,
10000000
00000000
00100000
00000000
00010000
00001000
00000010
00000000
,
00002000
00020000
00033000
00001000
,
00000100
00000100
00000100
00000000
00000100
00000000
00000001
00000000
,
00000010
00000010
00000010
00000000
00000010
00000000
00001000
00000000
,
00010000
00010000
00010000
00000000
00010000
00000000
01000000
00000000
,
10000000
10100000
00010000
00110000
,
01000000
01000000
01000000
00000000
01000000
00000000
10000000
00000000
,
00100000
00100000
00100000
00000000
00100000
00000000
00010000
00000000
,
00001000
00001000
00001000
00000000
00001000
00000000
00000100
00000000
,
00000000
00001000
00000000
00010000
,
01010000
00011000
00001100
00011000
,
00010000
01000000
01000000
00000000
10000000
00000000
01100000
00000000
,
00010000
00000000
00001000
00000010
00000010
00000000
00000001
00000000
,
00001000
00010100
00001000
00010010
,
00001010
00011000
00110000
00011000
,
00001000
00000010
00000010
00000000
00000001
00000000
00000110
00000000
,
00001000
00000000
00010000
01000000
01000000
00000000
10000000
00000000
,
00010000
00101000
00010000
01001000
,
00100000
00100000
00100000
00000000
00100000
00000000
10000000
00000000
,
01000000
01000000
01000000
00000000
01000000
00000000
00010000
00000000
,
00001000
00001000
00001000
00000000
00001000
00000000
00000010
00000000
,
00000001
00000101
00001000
00001100
,
00000010
00000010
00000010
00000000
00000010
00000000
00000001
00000000
,
00000100
00000100
00000100
00000000
00000100
00000000
00001000
00000000
,
00010000
00010000
00010000
00000000
00010000
00000000
00100000
00000000
,
10000000
11000000
00100000
00022000
,
00033000
00000000
00000000
00000000
;
