#TITLE:Ghen Co Vy;
#SUBTITLE:;
#ARTIST:NIOEH x KHAC HUNG x MIN x ERIK;
#TITLETRANSLIT:;
#SUBTITLETRANSLIT:;
#ARTISTTRANSLIT:;
#GENRE:World Music;
#CREDIT:;
#BANNER:Ghen Co Vy.png;
#BACKGROUND:Ghen Co Vy-bg.png;
#LYRICSPATH:;
#CDTITLE:../cdtitle.png;
#MUSIC:Ghen Co Vy.ogg;
#OFFSET:2.299000;
#SAMPLESTART:47.487000;
#SAMPLELENGTH:15.000000;
#LASTBEATHINT:2.165000;
#SELECTABLE:YES;
#BPMS:0.000000=100.000000
;
#STOPS:
;
#BGCHANGES:4.000=Ghen Co Vy.avi=1.000=0=0=0=StretchNoLoop====,
99999=-nosongbg-=1.000=0=0=0 // don't automatically add -songbackground-
;
#KEYSOUNDS:;
#ATTACKS:;

//---------------dance-single - ----------------
#NOTES:
     dance-single:
     :
     Hard:
     11:
     0.436748,0.498462,0.389908,0.310154,0.225970,345.000000,301.000000,44.000000,35.000000,0.000000,0.000000,0.436748,0.498462,0.389908,0.310154,0.225970,345.000000,301.000000,44.000000,35.000000,0.000000,0.000000:
0000
0000
0000
0000
,
0000
0000
0000
0000
,
0000
0000
0000
0000
,
0000
0000
0000
0000
,
0000
0000
0000
0000
,
0010
0000
0100
0001
2000
0000
3100
1000
,
0010
0001
0010
2000
0100
0000
3010
0000
,
0200
0000
0310
1000
0001
0010
0100
2000
,
0000
3002
0020
0000
0000
0000
0033
0000
,
0100
0000
0010
0001
2000
0000
3010
0100
,
0001
0000
0010
0000
2000
0000
0000
3020
0000
0000
0030
0000
0001
0000
0000
0000
,
2000
0000
3001
0100
0010
1000
0001
0020
,
0000
0230
2000
0000
3300
1000
0100
0010
,
0002
0000
0000
0000
0013
0000
0100
0010
0100
0000
1000
0010
2000
0000
0000
0000
,
3001
0010
0100
0010
0001
0100
0010
1000
,
0001
0000
0100
0001
0010
0100
0010
0002
,
1000
0000
0100
0000
1003
0001
0010
0100
,
2000
0000
0000
0000
3100
0000
0010
0100
0010
0000
0001
0100
0002
0000
0000
0000
,
1003
0100
0010
0100
1000
0010
0100
0001
,
1000
0000
0010
1000
0100
0010
0100
2000
,
0000
0000
3020
0000
0200
0000
0000
0000
0330
0000
0000
0000
0100
0001
1000
0000
,
0010
0000
0010
0000
0010
0000
0010
0000
0110
0000
0000
0000
1000
0100
0001
0000
,
0100
0000
0100
0000
1001
0000
1100
0000
0101
0000
0000
0000
0010
1000
0001
0000
,
0010
0000
0010
0000
0010
0000
0010
0000
0110
0000
0000
0000
0001
0100
0010
0100
,
0001
0000
0000
1000
0200
0000
0300
0000
0110
0000
0000
0001
0200
0000
0300
0000
,
0100
0000
0100
0000
0100
0000
0100
0000
0110
0000
0000
0000
1000
0010
0001
0000
,
0010
0000
0010
0000
1001
0000
1010
0000
0011
0000
0000
0000
0100
1000
0001
0000
,
0100
0000
0100
0000
0100
0000
0100
0000
0110
0000
0000
0000
0001
0010
0100
0010
,
0001
0000
0000
1000
0020
0000
0030
0000
0110
0000
0000
0001
0020
0000
0030
0000
,
0110
0000
0001
0000
0101
0000
1010
0000
1001
0000
0001
0010
0000
0100
1000
0100
,
0000
0010
0000
0000
1100
0000
0001
0000
0100
0000
0010
1000
0000
1000
0001
0000
,
0110
0000
1000
0000
1010
0000
0101
0000
1001
0000
0001
0010
0001
0000
0010
0100
,
0010
0000
0000
0100
2000
0000
3010
0000
0110
0000
0000
0100
0002
0000
0013
0000
,
0110
0000
0001
0000
0011
0000
1100
0000
1001
0000
0001
0100
0000
0010
1000
0010
,
0000
0100
0000
0000
1010
0000
0001
0000
0010
0000
0100
1000
0000
1000
0001
0000
,
0110
0000
1000
0000
1100
0000
0011
0000
1001
0000
0001
0100
0001
0000
0100
0010
,
0100
0000
0000
0010
2000
0000
3100
0000
0110
0000
0000
0010
0001
0010
0100
0000
,
1000
0000
1000
0000
0010
0000
0100
0000
1010
0000
0000
0000
0001
0010
0100
0000
,
0010
0000
0010
0000
0110
0000
1001
0000
0011
0000
0000
0000
0001
1000
0010
0000
,
0001
0000
0001
0000
0010
0000
1000
0000
0110
0000
0000
0000
1000
0010
0100
0001
,
0020
0000
0030
0100
2000
0000
3010
0000
0110
0000
0000
0100
0002
0000
0013
0000
,
0001
0000
0001
0000
0010
0000
0100
0000
0011
0000
0000
0000
1000
0010
0100
0000
,
0010
0000
0010
0000
0110
0000
1001
0000
1010
0000
0000
0000
1000
0001
0010
0000
,
1000
0000
1000
0000
0010
0000
0001
0000
0110
0000
0000
0000
0001
0010
0100
1000
,
0020
0000
0030
0100
0002
0000
0013
0000
0110
0000
0000
0200
2000
0000
0000
0000
,
3300
0000
0000
0000
;

//---------------dance-single - ----------------
#NOTES:
     dance-single:
     :
     Medium:
     8:
     0.317750,0.319016,0.177231,0.168370,0.004431,251.000000,231.000000,20.000000,19.000000,0.000000,0.000000,0.317750,0.319016,0.177231,0.168370,0.004431,251.000000,231.000000,20.000000,19.000000,0.000000,0.000000:
0000
0000
0000
0000
,
0000
0000
0000
0000
,
0000
0000
0000
0000
,
0000
0000
0000
0000
,
0000
0000
0000
0000
,
0001
0000
0010
0100
2000
0000
3010
0100
,
0001
0010
0100
0020
0030
0000
0100
0000
,
2000
0000
3100
0010
0001
0100
0010
2000
,
0000
0002
0000
0000
0000
0000
3003
0000
,
1000
0000
0100
0010
0200
0000
1300
0001
,
0100
0000
0010
0000
1000
0000
0000
2000
0000
0000
3000
0000
0001
0000
0000
0000
,
0020
0000
0130
1000
0010
0100
0001
0020
,
0000
0200
0000
0000
0330
1000
0010
0100
,
0002
0000
0013
0100
0100
1000
2000
0000
,
3001
1000
0010
1000
0001
0010
0100
1000
,
0001
0000
1000
0010
0100
0010
1000
0001
,
2000
0000
0100
0000
3000
0001
0010
0100
,
2000
0000
3010
0100
0100
0001
0002
0000
,
1003
0001
0010
0001
1000
0010
0100
0001
,
1000
0000
0001
0010
0100
0010
0001
2000
,
0000
0020
0000
0000
3030
0000
0100
0001
,
1000
0100
1000
0100
1000
0000
0001
0100
,
0010
1000
0010
1000
0010
0000
0100
0001
,
0010
0100
0010
0100
0010
0000
0100
1000
,
0001
0101
1000
1100
,
0001
0010
0001
0010
0001
0000
1000
0001
,
0100
0010
0100
0010
0100
0000
0001
0010
,
0100
1000
0100
1000
0100
0000
1000
0010
,
0100
1001
0010
1001
,
0110
0000
1001
1000
0100
0000
0011
0000
,
0100
0000
1000
0001
0100
0000
0010
0000
,
1000
0000
0101
0001
0010
0000
0100
0000
,
1000
1100
0001
0101
,
0110
0000
1001
0001
0010
0000
1100
0000
,
0010
0000
0001
1000
0010
0000
0100
0000
,
0001
0000
1010
1000
0100
0000
0001
0100
,
1000
0000
1010
0000
0001
0000
0011
0100
,
1000
0010
1000
0010
1000
0000
0001
0010
,
0100
1000
0100
1000
0100
0000
0010
0001
,
0100
0010
0100
0010
0100
0000
0010
1000
,
0001
0011
1000
1010
,
0001
0100
0001
0100
0001
0000
1000
0001
,
0010
0100
0010
0100
0010
0000
0001
0100
,
0010
1000
0010
1000
0010
0000
1000
0100
,
0010
1001
0100
2002
,
3003
0000
0000
0000
;

//---------------dance-single - ----------------
#NOTES:
     dance-single:
     :
     Easy:
     5:
     0.165838,0.219323,0.008862,0.177231,0.000000,131.000000,130.000000,1.000000,20.000000,0.000000,0.000000,0.165838,0.219323,0.008862,0.177231,0.000000,131.000000,130.000000,1.000000,20.000000,0.000000,0.000000:
0000
0000
0000
0000
,
0000
0000
0000
0000
,
0000
0000
0000
0000
,
0000
0000
0000
0000
,
0000
0000
0000
0000
,
0000
0001
1000
1000
,
0001
0001
0010
0000
,
0010
0100
0100
0010
,
0020
0000
0030
1001
,
0000
0001
1000
0001
,
0010
0200
0000
0300
,
0100
0010
0001
1000
,
0002
0000
0000
0003
,
2000
3000
2000
0000
,
3000
0001
0010
0001
,
1000
0000
0010
0000
,
0200
0000
0000
0300
,
0002
0003
0002
0000
,
0003
1000
0010
1000
,
0001
0000
0010
0000
,
0200
0000
0000
0300
,
0001
1000
0001
1000
,
0100
0010
0100
0010
,
0002
0103
2000
3100
,
0002
0013
2000
3010
,
0001
1000
0001
0000
,
0100
0010
0100
0000
,
0010
0100
0010
0100
0010
0000
0100
0000
,
0020
0030
0020
0030
,
0001
0001
0010
1000
,
1000
0010
0001
0001
,
0001
1000
0001
1000
,
0002
0003
2000
3000
,
1000
1000
0010
0001
,
0001
0010
0010
1000
,
1000
1000
0001
0001
,
0010
0000
0010
0000
,
1000
0001
1000
0001
,
0100
0010
0100
0010
,
1000
0100
0001
0100
,
1000
0010
0001
0010
,
1000
0001
1000
1000
,
0100
0010
0100
0100
,
0010
0100
0010
0100
0010
0000
0100
0000
,
0020
0130
0020
0230
,
0300
0000
0000
0000
;

//---------------dance-single - ----------------
#NOTES:
     dance-single:
     :
     Beginner:
     2:
     0.065829,0.099693,0.000000,0.124062,0.000000,52.000000,52.000000,0.000000,14.000000,0.000000,0.000000,0.065829,0.099693,0.000000,0.124062,0.000000,52.000000,52.000000,0.000000,14.000000,0.000000,0.000000:
0000
0000
0000
0000
,
0000
0000
0000
0000
,
0000
0000
0000
0000
,
0000
0000
0000
0000
,
0000
0000
0000
0000
,
0010
0000
0000
0000
,
0010
0000
0000
0000
,
0100
0000
0000
0000
,
0100
0000
0000
0000
,
1000
0000
0000
0000
,
1000
0000
0000
0000
,
0001
0000
0000
0000
,
0001
0000
0000
0000
,
1000
0000
1000
0000
,
0000
0010
0000
0010
,
0010
0000
1000
0000
,
0100
0000
0000
0000
,
0001
0000
0001
0000
,
0000
0100
0000
0100
,
0100
0000
0001
0000
,
0020
0000
0030
0000
,
0002
0000
0003
0000
,
0002
0000
0003
0000
,
2000
0000
3000
0000
,
0010
0000
0010
0000
,
2000
0000
3000
0000
,
2000
0000
3000
0000
,
0002
0000
0003
0000
,
0010
0000
0010
0000
,
0001
0000
0000
0000
,
1000
0000
0000
0000
,
0010
0000
0000
0000
,
0100
0000
0100
0000
,
1000
0000
0000
0000
,
0001
0000
0000
0000
,
0010
0000
0000
0000
,
0100
0000
0100
0000
,
2000
0000
3000
0000
,
2000
0000
3000
0000
,
0002
0000
0003
0000
,
0010
0000
0010
0000
,
0002
0000
0003
0000
,
0002
0000
0003
0000
,
2000
0000
3000
0000
,
0010
0000
0020
0000
,
0030
0000
0000
0000
;

//---------------dance-double - ----------------
#NOTES:
     dance-double:
     :
     Hard:
     11:
     0.441812,0.498462,0.425355,0.283570,0.225970,349.000000,301.000000,48.000000,32.000000,0.000000,0.000000,0.441812,0.498462,0.425355,0.283570,0.225970,349.000000,301.000000,48.000000,32.000000,0.000000,0.000000:
// measure 0
00000000
00000000
00000000
00000000
,  // measure 1
00000000
00000000
00000000
00000000
,  // measure 2
00000000
00000000
00000000
00000000
,  // measure 3
00000000
00000000
00000000
00000000
,  // measure 4
00000000
00000000
00000000
00000000
,  // measure 5
00001000
00000000
00010000
01000000
20000000
00000000
30100000
00010000
,  // measure 6
00001000
00000010
00000001
00002000
00000100
00000000
00003001
00000000
,  // measure 7
00000100
00000000
00001000
00010000
01000000
00010000
00001000
00000200
,  // measure 8
00000000
00000302
00000010
00000000
00000000
00000000
00000013
00000000
,  // measure 9
00000100
00000000
00000010
00001000
00020000
00000000
01030000
10000000
,  // measure 10
00100000
00000000
00010000
00000000
00200000
00000000
00000000
20300000
00000000
00000000
30000000
00000000
00010000
00000000
00000000
00000000
,  // measure 11
00200000
00000000
01300000
10000000
00010000
00100000
01000000
00020000
,  // measure 12
00000000
00032000
00000200
00000000
00003300
00000100
00000001
00001000
,  // measure 13
00000020
00000000
00000000
00000000
00000130
00000000
00000001
00000010
00000001
00000000
00000010
00000100
00000020
00000000
00000000
00000000
,  // measure 14
00000031
00001000
00000100
00000010
00001000
00010000
01000000
00100000
,  // measure 15
00110000
00000000
01000000
10000000
00100000
00010000
00100000
10000000
,  // measure 16
00020000
00000000
01000000
00000000
10030000
01000000
10000000
00010000
,  // measure 17
00200000
00000000
00000000
00000000
01300000
00000000
10000000
00100000
10000000
00000000
00100000
01000000
00200000
00000000
00000000
00000000
,  // measure 18
10300000
00010000
01000000
00100000
00010000
00001000
00000100
00000010
,  // measure 19
00001010
00000000
00000100
00000001
00000010
00001000
00000010
00002200
,  // measure 20
00003300
00000000
00022000
00000000
00000000
00000000
00000000
00000000
00033000
00000000
00000000
00000000
00001000
00010000
00100000
00000000
,  // measure 21
10000000
00000000
10000000
00000000
10000000
00000000
10000000
00000000
01010000
00000000
00000000
00000000
00100000
00010000
00001000
00000000
,  // measure 22
00000100
00000000
00000100
00000000
00001001
00000000
00001100
00000000
00000011
00000000
00000000
00000000
00000100
00001000
00000010
00000000
,  // measure 23
00001000
00000000
00001000
00000000
00001000
00000000
00001000
00000000
00011000
00000000
00000000
00000000
01000000
00010000
00100000
01000000
,  // measure 24
10000000
00000000
00000000
01000000
00020000
00000000
00030000
00000000
00011000
00000000
00000000
00001000
00000200
00000000
00000300
00000000
,  // measure 25
00000001
00000000
00000001
00000000
00000001
00000000
00000001
00000000
00001100
00000000
00000000
00000000
00000010
00001000
00010000
00000000
,  // measure 26
01000000
00000000
01000000
00000000
10010000
00000000
01010000
00000000
10100000
00000000
00000000
00000000
01000000
00010000
00100000
00000000
,  // measure 27
00010000
00000000
00010000
00000000
00010000
00000000
00010000
00000000
00011000
00000000
00000000
00000000
00000100
00001000
00000010
00000100
,  // measure 28
00000001
00000000
00000000
00000100
00002000
00000000
00003000
00000000
00011000
00000000
00000000
00010000
02000000
00000000
03000000
00000000
,  // measure 29
10010000
00000000
00100000
00000000
10100000
00000000
00110000
00000000
10010000
00000000
01000000
00010000
00000000
00001000
00000100
00001000
,  // measure 30
00000000
00010000
00000000
00000000
00011000
00000000
00000100
00000000
00000010
00000000
00000001
00000010
00000000
00000100
00001000
00000000
,  // measure 31
00000110
00000000
00000001
00000000
00000011
00000000
00001001
00000000
00000101
00000000
00000010
00001000
00000010
00000000
00000100
00001000
,  // measure 32
00010000
00000000
00000000
00100000
02000000
00000000
03100000
00000000
01100000
00000000
00000000
01000000
00020000
00000000
10030000
00000000
,  // measure 33
10010000
00000000
00100000
00000000
10100000
00000000
01010000
00000000
10010000
00000000
10000000
01000000
00000000
00010000
00001000
00010000
,  // measure 34
00000000
00001000
00000000
00000000
00010010
00000000
00001000
00000000
00000100
00000000
00000010
00000001
00000000
00000010
00000100
00000000
,  // measure 35
00000110
00000000
00000001
00000000
00000101
00000000
00001010
00000000
00001001
00000000
00000001
00001000
00000001
00000000
00000010
00001000
,  // measure 36
00010000
00000000
00000000
01000000
00200000
00000000
01300000
00000000
01100000
00000000
00000000
00100000
00010000
10000000
01000000
00000000
,  // measure 37
10000000
00000000
10000000
00000000
10000000
00000000
10000000
00000000
00110000
00000000
00000000
00000000
01000000
10000000
00100000
00000000
,  // measure 38
00010000
00000000
00010000
00000000
00011000
00000000
00001010
00000000
00000011
00000000
00000000
00000000
00000100
00001000
00000001
00000000
,  // measure 39
00000010
00000000
00000010
00000000
00000010
00000000
00000010
00000000
00001001
00000000
00000000
00000000
00000001
00000100
00000010
00001000
,  // measure 40
00000100
00000000
00000000
00000010
00002000
00000000
00013000
00000000
00011000
00000000
00000000
00010000
00200000
00000000
10300000
00000000
,  // measure 41
10000000
00000000
10000000
00000000
10000000
00000000
10000000
00000000
01010000
00000000
00000000
00000000
00100000
10000000
01000000
00000000
,  // measure 42
00010000
00000000
00010000
00000000
00011000
00000000
00001100
00000000
00000101
00000000
00000000
00000000
00000010
00001000
00000001
00000000
,  // measure 43
00000100
00000000
00000100
00000000
00000100
00000000
00000100
00000000
00001001
00000000
00000000
00000000
00000001
00000010
00000100
00001000
,  // measure 44
00000010
00000000
00000000
00000100
00002000
00000000
00013000
00000000
00011000
00000000
00000000
00020000
02000000
00000000
00000000
00000000
,  // measure 45
03030000
00000000
00000000
00000000
;

//---------------dance-double - ----------------
#NOTES:
     dance-double:
     :
     Medium:
     8:
     0.307623,0.319016,0.159508,0.177231,0.000000,243.000000,225.000000,18.000000,20.000000,0.000000,0.000000,0.307623,0.319016,0.159508,0.177231,0.000000,243.000000,225.000000,18.000000,20.000000,0.000000,0.000000:
00000000
00000000
00000000
00000000
,
00000000
00000000
00000000
00000000
,
00000000
00000000
00000000
00000000
,
00000000
00000000
00000000
00000000
,
00000000
00000000
00000000
00000000
,
00010000
00000000
00000010
00000100
00000020
00000000
00001030
00000000
,
00000001
00000010
00001000
00000000
00002000
00000000
00013000
00000000
,
00020000
00000000
01030000
10000000
00100000
00010000
00001000
00000000
,
00002000
00020000
00000000
00033000
,
00001000
00000000
00100000
00001000
00020000
00000000
00031000
00000100
,
00000010
00000100
00000001
00000000
00000020
00000000
00000130
00000000
,
00002000
00000000
00003001
00000100
00000010
00001000
00000100
00000000
,
00020000
00000000
00002000
00000000
00033000
00010000
01000000
10000000
,
00200000
00000000
00310000
00001000
00010000
00001000
00020000
00000000
,
00030100
00001000
00000001
00000010
00000001
00001000
00000010
00000000
,
00000100
00000000
00000001
00000000
00000001
00000010
00000100
00000010
,
00000002
00000000
00000020
00000000
00000033
00001000
00000010
00000001
,
00000200
00000000
00001300
00010000
00001000
00010000
00002000
00000000
,
00103000
00010000
10000000
01000000
10000000
00010000
01000000
00000000
,
00100000
00000000
10000000
00000000
10000000
01000000
00010000
00000000
,
00020000
00000000
00002000
00000000
00033000
00000000
00001000
00000100
,
00000001
00000010
00000001
00000010
00000001
00000000
00000010
00001000
,
00010000
00100000
00010000
00100000
00010000
00000000
00100000
10000000
,
01000000
00010000
01000000
00010000
01000000
00000000
00010000
00001000
,
00000100
00001001
00000010
00001001
,
00000001
00000010
00000001
00000010
00000001
00000000
00000010
00000100
,
00010000
00001000
00010000
00001000
00010000
00000000
00001000
00010000
,
00100000
10000000
00100000
10000000
00100000
00000000
01000000
00001000
,
00100000
00011000
00000010
00011000
,
01100000
00000000
10000000
00100000
00010000
00000000
00011000
00000000
,
00001000
00000000
00010000
01000000
10000000
00000000
01000000
00000000
,
00100000
00000000
00011000
00010000
00001000
00000000
00001000
00000000
,
00000100
00001001
00000010
00001001
,
00000110
00000000
00000001
00000010
00001000
00000000
00011000
00000000
,
00010000
00000000
00001000
00000100
00000001
00000000
00000100
00000000
,
00000010
00000000
00011000
00001000
00010000
00000000
00010000
00000000
,
01000000
00000000
10010000
00000000
00100000
00000000
10010000
01000000
,
10000000
01000000
10000000
01000000
10000000
00000000
01000000
00010000
,
00001000
00000100
00001000
00000100
00001000
00000000
00000100
00000001
,
00000010
00001000
00000010
00001000
00000010
00000000
00001000
00010000
,
00100000
10010000
01000000
10010000
,
10000000
01000000
10000000
01000000
10000000
00000000
01000000
00100000
,
00001000
00010000
00001000
00010000
00001000
00000000
00010000
00001000
,
00000100
00000001
00000100
00000001
00000100
00000000
00000010
00010000
,
00000100
00011000
01000000
00022000
,
00033000
00000000
00000000
00000000
;

//---------------dance-double - ----------------
#NOTES:
     dance-double:
     :
     Easy:
     5:
     0.165838,0.219323,0.008862,0.177231,0.000000,131.000000,130.000000,1.000000,20.000000,0.000000,0.000000,0.165838,0.219323,0.008862,0.177231,0.000000,131.000000,130.000000,1.000000,20.000000,0.000000,0.000000:
00000000
00000000
00000000
00000000
,
00000000
00000000
00000000
00000000
,
00000000
00000000
00000000
00000000
,
00000000
00000000
00000000
00000000
,
00000000
00000000
00000000
00000000
,
00000000
00001000
01000000
01000000
,
00010000
00010000
00100000
00000000
,
00100000
00001000
00010000
00100000
,
00200000
00000000
00300000
10010000
,
00000000
00010000
10000000
00010000
,
00100000
02000000
00000000
03000000
,
00000000
01000000
00010000
00001000
,
00000100
00000002
00000000
00000003
,
00002000
00003000
00002000
00000000
,
00003000
00000001
00001000
00000001
,
00001000
00000000
00001000
00000000
,
00020000
00000000
00000000
00030000
,
00020000
00030000
00020000
00000000
,
00030000
01000000
00100000
10000000
,
00010000
00000000
00100000
00000000
,
02000000
00000000
00000000
03000000
,
00010000
10000000
00010000
10000000
,
00001000
00010000
00001000
00010000
,
00000020
00001030
00020000
00031000
,
00000200
00001300
00020000
00031000
,
00000010
00001000
00000010
00000000
,
00000100
00000001
00000100
00000000
,
00000010
00000100
00000010
00000100
00000010
00000000
00000100
00000000
,
00000020
00000030
00000020
00000030
,
00000001
00000001
00000010
00001000
,
00001000
00000010
00000001
00000001
,
00000001
00001000
00000001
00001000
,
00002000
00003000
00020000
00030000
,
10000000
10000000
00100000
00010000
,
00010000
00100000
00100000
10000000
,
10000000
10000000
00010000
00010000
,
00100000
00000000
00100000
00000000
,
00010000
10000000
00010000
10000000
,
00001000
00010000
00001000
00010000
,
00000010
00001000
00010000
00001000
,
00000100
00001000
00010000
00001000
,
00000010
00001000
00000010
00000010
,
00000100
00000001
00000100
00000100
,
00000010
00000100
00000010
00000100
00000010
00000000
00000100
00000000
,
00000020
00000130
00000020
00000230
,
00000300
00000000
00000000
00000000
;
