#VERSION:0.83;
#TITLE:Get off my lawn;
#SUBTITLE:;
#ARTIST:USAO;
#TITLETRANSLIT:;
#SUBTITLETRANSLIT:;
#ARTISTTRANSLIT:;
#GENRE:J-Music;
#ORIGIN:;
#CREDIT:;
#BANNER:Get off my lawn.png;
#BACKGROUND:Get off my lawn-bg.png;
#PREVIEWVID:;
#JACKET:Get off my lawn-jacket.png;
#CDIMAGE:;
#DISCIMAGE:;
#LYRICSPATH:;
#CDTITLE:../cdtitle.png;
#MUSIC:Get off my lawn.ogg;
#OFFSET:2.393000;
#SAMPLESTART:19.200001;
#SAMPLELENGTH:15.000000;
#SELECTABLE:YES;
#BPMS:0.000=100.000;
#STOPS:;
#DELAYS:;
#WARPS:;
#TIMESIGNATURES:0.000=4=4;
#TICKCOUNTS:0.000=4;
#COMBOS:0.000=1;
#SPEEDS:0.000=1.000=0.000=0;
#SCROLLS:0.000=1.000;
#FAKES:;
#LABELS:0.000=Song Start;
#BGCHANGES:-99.000=../bg.avi=1.000=0=0=1=====,
99999=-nosongbg-=1.000=0=0=0 // don't automatically add -songbackground-
;
#KEYSOUNDS:;
#ATTACKS:
;

//---------------dance-single - ----------------
#NOTEDATA:;
#CHARTNAME:;
#STEPSTYPE:dance-single;
#DESCRIPTION:;
#CHARTSTYLE:;
#DIFFICULTY:Beginner;
#METER:3;
#RADARVALUES:0.119519,0.140382,0.029528,0.000000,0.000000,85.000000,82.000000,3.000000,0.000000,0.000000,0.000000,0.000000,0.000000,0.000000,0.119519,0.140382,0.029528,0.000000,0.000000,85.000000,82.000000,3.000000,0.000000,0.000000,0.000000,0.000000,0.000000,0.000000;
#CREDIT:led_light;
#NOTES:
0000
0000
0000
0000
,
0000
0000
0000
0000
,
0000
0000
0000
0000
,
0000
0000
0000
0000
,
0000
0000
0000
0000
,
0100
0000
0100
0000
,
0010
0000
0010
0000
,
0100
0000
0100
0000
,
0010
0010
0010
0000
,
0110
0000
0000
0000
,
0001
0000
0000
0000
,
1000
0000
0000
0000
,
0001
0001
0001
0000
,
0010
0010
0010
0000
,
1000
0000
1000
0000
,
0100
0100
0100
0000
,
0001
0000
0001
0000
,
1001
0000
0000
0000
,
0100
0000
0000
0000
,
0010
0000
0000
0000
,
0100
0100
0100
0000
,
0001
0001
0001
0000
,
0010
0000
0010
0000
,
1000
1000
1000
0000
,
0100
0000
0100
0000
,
0110
0000
0100
0000
,
0001
0001
0001
0000
,
0010
0000
0100
0000
,
1000
1000
1000
0000
,
0001
0000
0010
0000
,
0100
0100
0100
0000
,
1000
0000
0010
0000
,
0100
0100
0100
0000
,
0001
0000
1000
0000
,
0001
0001
0001
0000
,
1000
0000
0001
0000
,
1000
1000
1000
0000
,
0010
0000
0100
0000
,
0010
0010
0010
0000
,
0100
0000
0010
0000
,
0100
0100
0100
0100
;

//---------------dance-single - ----------------
#NOTEDATA:;
#CHARTNAME:;
#STEPSTYPE:dance-single;
#DESCRIPTION:;
#CHARTSTYLE:;
#DIFFICULTY:Medium;
#METER:9;
#RADARVALUES:0.381054,0.422437,0.157483,0.059056,0.000000,271.000000,255.000000,16.000000,6.000000,0.000000,0.000000,0.000000,0.000000,0.000000,0.381054,0.422437,0.157483,0.059056,0.000000,271.000000,255.000000,16.000000,6.000000,0.000000,0.000000,0.000000,0.000000,0.000000;
#CREDIT:led_light;
#NOTES:
0000
0000
0000
0000
,
0000
0000
0000
0000
,
0000
0000
0000
0000
,
0000
0000
0000
0000
,
0000
0000
0000
0000
,
0100
0100
0100
0100
0100
0100
0100
0100
,
0010
0010
0010
0010
0010
0010
0010
0010
,
1001
0100
0100
0100
1001
0010
0010
0010
,
0110
1000
1001
0010
0200
0000
0300
0000
,
2001
0000
3100
0010
0100
1000
0010
0100
,
0100
0000
0001
0010
1000
0010
0001
1000
,
0110
0000
0100
0001
0010
0001
0100
0000
,
0010
1000
0100
0001
0100
1000
0010
0100
,
1001
0000
0010
0010
0100
0100
0100
0100
,
0010
0000
0001
0100
1000
0100
0001
1000
,
0110
0000
0001
0001
1000
1000
0010
0010
,
0100
0001
0010
1000
0001
0100
1000
0001
,
0110
0000
0010
1000
0100
1000
0010
0100
,
0200
0000
0310
0000
1000
0100
0001
0010
,
0110
0000
0001
0100
1000
0010
0001
1000
,
2000
0000
3100
1000
0010
0100
0001
1000
,
0110
0000
0010
0010
0001
0001
0001
0001
,
0200
0010
0310
0000
1000
0100
0001
0010
,
0110
0000
1000
1000
0001
0001
1000
1000
,
0020
0100
0130
0001
0010
0100
0100
0000
,
1001
0000
0100
1000
0010
0100
1000
0001
,
0010
0100
0001
0010
0100
1000
0001
1000
,
1001
0000
0100
0010
0001
0100
0010
0001
,
1000
0100
0010
1000
0100
0010
0001
1000
,
0110
0000
0100
0001
0010
0100
0001
1000
,
0010
0100
1000
0010
0100
0001
1000
0001
,
1001
0000
0100
0010
1000
0100
0010
1000
,
0001
0100
0010
0001
0100
0010
1000
0001
,
1000
0100
0001
0000
1000
0100
0001
0000
,
1000
0010
0001
0010
1000
0100
0001
0000
,
1000
0010
0001
0000
1000
0010
0001
0000
,
1000
0100
0001
0100
1000
0010
0001
1000
,
0001
0100
1000
0000
0001
0100
1000
0000
,
0001
0010
1000
0010
0001
0100
1000
0000
,
0001
0010
1000
0000
0001
0010
1000
0000
,
0001
0100
1000
0100
0001
0010
1000
0001
;

//---------------dance-single - ----------------
#NOTEDATA:;
#CHARTNAME:;
#STEPSTYPE:dance-single;
#DESCRIPTION:;
#CHARTSTYLE:;
#DIFFICULTY:Easy;
#METER:6;
#RADARVALUES:0.300906,0.362089,0.305124,0.137798,0.000000,214.000000,183.000000,31.000000,14.000000,0.000000,0.000000,0.000000,0.000000,0.000000,0.300906,0.362089,0.305124,0.137798,0.000000,214.000000,183.000000,31.000000,14.000000,0.000000,0.000000,0.000000,0.000000,0.000000;
#CREDIT:led_light;
#NOTES:
0000
0000
0000
0000
,
0000
0000
0000
0000
,
0000
0000
0000
0000
,
0000
0000
0000
0000
,
0000
0000
0000
0000
,
0110
0110
1100
1100
,
0101
0101
0110
0110
,
1001
1001
0110
0110
,
1001
0110
0220
0330
,
2002
3003
1000
0100
0001
0000
1000
0000
,
0001
0000
1000
0010
0001
0000
1000
0000
,
0110
0000
0100
0001
0010
0000
0100
0000
,
1000
0001
0001
0000
0001
1000
1000
0000
,
1001
0000
0001
0010
1000
0000
0001
0000
,
1000
0000
0001
0100
1000
0000
0001
0000
,
0110
0000
0010
1000
0100
0000
0010
0000
,
0001
1000
1000
0000
1000
0001
0001
0000
,
1001
0000
0001
0000
1000
0010
0010
0000
,
0002
0000
0103
0000
1000
1000
1000
0000
,
1001
0000
0100
0000
1000
0010
0010
0000
,
0100
0000
0001
0000
0010
0010
0010
0000
,
0110
0000
0010
0000
0100
1000
1000
0000
,
0020
0000
0031
0000
0100
0100
0100
0000
,
0110
0000
0001
0000
0100
1000
1000
0000
,
0001
0000
0010
0000
1000
0001
1000
0000
,
1001
0000
0110
0000
0001
0010
1000
0000
,
0010
0001
0100
0000
1000
0100
0001
0000
,
1001
0000
0110
0000
0100
1000
0010
0000
,
0100
0001
0010
0000
1000
0010
0001
0000
,
1001
0000
0110
0000
1000
0100
0001
0000
,
0100
1000
0010
0000
0001
0010
1000
0000
,
1001
0000
0110
0000
0010
0001
0100
0000
,
0010
1000
0100
0000
0001
0100
1000
0000
,
2000
3100
0002
0103
,
1000
0010
0001
0000
1000
0100
0001
0000
,
2000
3010
0002
0013
,
1000
0100
0001
0000
1000
0010
0001
1000
,
0002
0103
2000
3100
,
0001
0010
1000
0000
0001
0100
1000
0000
,
0002
0013
2000
3010
,
0001
0100
1000
0000
0001
0010
1000
0001
;

//---------------dance-single - ----------------
#NOTEDATA:;
#CHARTNAME:;
#STEPSTYPE:dance-single;
#DESCRIPTION:;
#CHARTSTYLE:;
#DIFFICULTY:Hard;
#METER:14;
#RADARVALUES:0.726955,0.725285,0.620091,0.472450,0.866159,517.000000,454.000000,63.000000,48.000000,0.000000,0.000000,0.000000,0.000000,0.000000,0.726955,0.725285,0.620091,0.472450,0.866159,517.000000,454.000000,63.000000,48.000000,0.000000,0.000000,0.000000,0.000000,0.000000;
#CREDIT:led_light;
#NOTES:
// measure 0
0000
0000
0000
0000
,  // measure 1
0000
0000
0000
0000
,  // measure 2
0000
0000
0000
0000
,  // measure 3
0000
0000
0000
0000
,  // measure 4
0000
0000
0000
0000
,  // measure 5
1010
0000
0100
0001
0010
0100
0010
0001
0101
0000
0010
1000
0100
0010
0100
1000
,  // measure 6
1010
0000
0100
0001
0010
0001
0100
0010
0110
0000
0110
0000
0001
0010
0100
1000
,  // measure 7
0001
0100
0001
0100
1000
0100
1000
0100
0001
0010
0001
0010
1000
0010
1000
0010
,  // measure 8
0001
1000
0010
0100
0001
0010
0100
1000
0020
0000
0000
0000
0130
0000
0000
0000
,  // measure 9
2002
0000
3003
0000
0010
1000
0010
0001
0020
0000
0130
0000
2001
0000
3001
0100
,  // measure 10
0020
0000
0130
0000
0001
0010
0100
0010
0002
0000
1003
0000
1020
0000
0130
0010
,  // measure 11
2002
0000
3003
0000
0100
1000
0100
0001
0200
0000
0310
0000
1002
0000
1003
0010
,  // measure 12
0200
0000
0310
0000
0100
0001
0010
0200
0000
0310
0100
0000
0011
0000
0001
1000
,  // measure 13
0010
0000
0110
0000
0001
1000
0100
1000
0002
0000
0103
0000
0110
1000
0001
1000
,  // measure 14
0020
0000
0130
0001
1000
0001
0100
0000
0010
1000
0001
1000
0100
0100
0010
0100
,  // measure 15
2002
0000
0000
0000
3003
0000
0000
0000
0001
0000
0010
0000
0100
0000
0010
0001
0010
0000
0001
0000
1000
0000
0100
0000
1100
0000
1000
0000
0001
0000
0010
0000
,  // measure 16
0001
0001
1000
1000
0010
0010
0100
0100
0001
0100
0010
1000
0001
1000
0100
0010
,  // measure 17
2002
0000
0000
0000
3003
0000
0000
0000
1000
0000
0100
0000
0001
0000
0100
0000
1000
0001
1000
0001
0010
0000
1000
0000
0010
0000
0001
0000
1000
0000
0100
0000
,  // measure 18
0020
0000
0000
0000
0130
0000
0000
0000
1100
0000
0001
0000
1000
0000
0001
0010
0001
0000
0000
0000
1010
0000
0000
0000
0001
0000
0010
0000
0100
0000
1000
0000
,  // measure 19
2002
0000
0000
0000
3003
0000
0000
0000
0001
0000
0010
0000
1000
0000
0010
0000
0001
1000
0001
1000
0100
0000
0001
0000
0100
0000
1000
0000
0001
0000
0010
0000
,  // measure 20
0200
0000
0000
0000
0310
0000
0000
0000
0011
0000
1000
0000
0001
0000
1000
0100
1000
0000
0001
0000
0101
0000
0000
0000
1100
0000
0100
0000
0010
0000
0001
0000
,  // measure 21
1002
0000
0000
0000
0103
0000
0000
0000
0010
0000
0100
0000
0001
0000
1000
0000
0100
0010
0100
0010
0100
0000
1000
0000
0001
0000
0010
0000
0100
0000
1000
0000
,  // measure 22
0002
0000
0000
0000
1003
0000
0000
0000
1001
0000
0000
0000
1000
0000
0010
0100
0010
0000
1000
0000
1001
0000
0000
0000
1001
0000
0001
0000
0010
0000
0100
0000
,  // measure 23
0220
0000
0330
0000
1000
0001
0010
1000
0010
0001
1000
0001
1000
0010
0100
0001
,  // measure 24
0010
0010
0100
0100
1000
1000
0001
0001
0100
0100
0010
0000
0220
0000
0330
0000
,  // measure 25
2001
0000
3001
0000
0011
0100
1000
0001
0010
1000
0010
0000
0011
0000
0110
0000
,  // measure 26
1001
0000
1010
0000
0100
0001
0010
0000
0110
0000
0011
0000
1000
0100
0001
0000
,  // measure 27
0110
0000
1001
0000
0110
0001
1000
0100
0010
0001
1000
0000
1010
0000
0110
0000
,  // measure 28
1001
0000
1100
0000
0001
0100
0010
0000
1010
0000
1001
0000
0001
0010
0100
0000
,  // measure 29
2001
0000
3001
0000
0101
0010
1000
0001
0100
1000
0100
0000
0101
0000
0110
0000
,  // measure 30
1001
0000
1100
0000
0010
0001
0100
0000
0110
0000
0101
0000
1000
0010
0001
0000
,  // measure 31
0110
0000
1001
0000
0110
0001
1000
0010
0100
0001
1000
0000
1100
0000
0110
0000
,  // measure 32
1001
0000
1010
0001
0010
0000
1100
0000
1100
0000
0101
0001
0010
0000
0100
0000
,  // measure 33
2000
0000
3100
0001
0100
1000
0001
0000
0200
0000
1300
0100
0001
1000
0100
0010
,  // measure 34
0200
0000
1300
0010
0100
0100
0001
0001
2000
0000
3100
0010
0001
1000
0001
1000
,  // measure 35
0002
0000
0103
1000
0100
0001
1000
0000
0200
0000
0301
0100
1000
0001
0100
0010
,  // measure 36
0200
0000
0310
1000
0001
0001
1000
0100
0002
0000
0103
1000
0010
0100
0010
0100
,  // measure 37
0002
0000
0013
1000
0010
0001
1000
0000
0020
0000
0031
0010
1000
0001
0010
0100
,  // measure 38
0020
0000
0031
0100
0010
0010
1000
1000
0002
0000
0013
0100
1000
0001
1000
0001
,  // measure 39
2000
0000
3010
0001
0010
1000
0001
0000
0020
0000
1030
0010
0001
1000
0010
0100
,  // measure 40
0020
0000
0130
0001
1000
1000
0001
0010
2000
0000
3010
0001
0100
0010
0100
0010
;
