#VERSION:0.83;
#TITLE:Get Up;
#SUBTITLE:;
#ARTIST:Tujamo;
#TITLETRANSLIT:;
#SUBTITLETRANSLIT:;
#ARTISTTRANSLIT:;
#GENRE:Spinnin' Records;
#ORIGIN:;
#CREDIT:;
#BANNER:Get Up.png;
#BACKGROUND:Get Up-bg.png;
#PREVIEWVID:;
#JACKET:Get Up-jacket.png;
#CDIMAGE:;
#DISCIMAGE:;
#LYRICSPATH:;
#CDTITLE:../cdtitle.png;
#MUSIC:Get Up.ogg;
#OFFSET:1.841000;
#SAMPLESTART:74.349060;
#SAMPLELENGTH:15.000000;
#SELECTABLE:YES;
#BPMS:0.000=126.000;
#STOPS:;
#DELAYS:;
#WARPS:;
#TIMESIGNATURES:0.000=4=4;
#TICKCOUNTS:0.000=4;
#COMBOS:0.000=1;
#SPEEDS:0.000=1.000=0.000=0;
#SCROLLS:0.000=1.000;
#FAKES:;
#LABELS:0.000=Song Start;
#BGCHANGES:3.875=Get Up.avi=1.000=0=0=0=StretchNoLoop====,
99999=-nosongbg-=1.000=0=0=0 // don't automatically add -songbackground-
;
#KEYSOUNDS:;
#ATTACKS:
;

//---------------dance-single - ----------------
#NOTEDATA:;
#CHARTNAME:;
#STEPSTYPE:dance-single;
#DESCRIPTION:;
#CHARTSTYLE:;
#DIFFICULTY:Challenge;
#METER:13;
#RADARVALUES:0.520518,0.713683,0.459632,0.158782,0.158782,436.000000,381.000000,55.000000,19.000000,36.000000,0.000000,0.000000,0.000000,0.000000,0.520518,0.713683,0.459632,0.158782,0.158782,436.000000,381.000000,55.000000,19.000000,36.000000,0.000000,0.000000,0.000000,0.000000;
#CREDIT:led_light;
#NOTES:
0000
0000
0000
0000
,
0000
0000
0000
0000
,
0000
0000
0000
0000
,
0000
0000
0000
0000
,
0000
0000
0000
0000
,
1000
0100
0001
0001
0100
0010
1000
1000
,
0001
0100
0010
0010
1000
0010
0001
0001
,
1000
0010
0001
0001
0010
0100
1000
1000
,
0001
0010
0100
0100
1000
0100
0001
0001
,
1000
0100
1000
0000
0100
0000
0010
0000
0001
0100
0001
0000
0100
0000
0010
0000
,
1000
0001
1000
0000
0100
0000
0010
0000
1000
0001
1000
0000
0010
0000
0100
0000
,
1000
0010
1000
0000
0001
0100
0001
0000
0010
0100
1000
0100
0010
0000
0001
0000
,
MMMM
0000
0000
0000
0001
0100
0010
1000
0001
0000
0010
0000
0100
0000
0010
0000
,
MMMM
0000
0101
0100
1000
0000
0101
0000
,
1010
0000
0001
0100
0010
1000
0001
0010
,
MMMM
0000
1010
1000
0001
0000
0011
0000
,
1100
0000
0001
0010
1000
0001
0100
1000
,
MMMM
0000
1010
0010
0001
0000
1010
0000
,
0101
0000
1000
0010
0100
0001
1000
0100
,
MMMM
0000
0101
0001
1000
0000
1100
0000
,
0011
0000
0000
0000
1000
0100
0010
0001
1000
0000
0010
0000
0100
0000
0010
0000
,
MMMM
0000
0101
0001
1000
0001
0101
0000
,
0110
0000
0000
0000
1010
0000
0001
0000
0010
0000
1000
0000
0001
0000
0001
0100
,
2000
3000
1100
1000
0001
0100
0101
0000
,
1010
0000
0110
1000
0001
0010
0100
1000
,
2200
3300
1100
1000
0001
1000
1100
0000
,
0110
0000
0000
0000
0011
0000
1000
0000
0010
0000
0001
0000
1000
0000
1000
0100
,
0002
0003
0101
0001
1000
0100
1100
0000
,
1000
0000
0000
0000
0010
0000
0000
0000
0100
0000
0010
0100
0001
0000
0010
0100
,
2000
0000
3000
0000
,
2000
0000
3000
0000
,
2000
0000
3000
0000
,
2000
0000
3000
0000
,
2000
0100
0100
3100
,
0002
0100
0100
0103
,
2000
0100
0100
3100
,
0002
0100
0010
0103
,
1000
0010
0001
1000
0001
0010
1000
0001
,
1000
0100
0001
1000
0001
0100
1000
0001
,
1000
0010
0100
0100
0010
1000
0100
0100
,
0001
0100
0010
0010
0001
0100
0010
0010
,
1000
0010
1000
0010
0100
0000
0010
0000
1000
0100
1000
0100
0010
0000
0100
0000
,
1000
0010
1000
0010
0100
0000
1000
0000
0100
0010
0100
0010
1000
0000
0001
0000
,
0010
0100
0010
0001
1000
0100
0001
0100
1000
0010
0100
0001
0010
0100
1000
0100
,
MMMM
0000
0000
0000
0001
0010
0100
1000
0001
0000
0100
0000
0010
0000
0100
0000
,
MMMM
0000
0011
0010
1000
0010
0011
1000
,
1100
0001
0101
0010
0001
0010
1000
0100
,
0020
0030
1100
1000
0001
0100
0101
0010
,
1010
0001
0101
0010
1000
0001
0010
1000
,
0020
0030
1100
0100
0001
0100
1100
0001
,
0011
1000
1100
0010
1000
0010
0001
1000
,
0020
0030
0101
0001
1000
0001
0011
0010
,
0110
0000
0000
0000
1000
0000
0000
0000
0001
0000
0010
0100
1000
0000
0010
0100
,
0002
0000
0103
0010
1000
0000
0110
0000
,
1010
0000
0101
0001
1000
0100
0010
0100
,
2000
3000
1100
1000
0010
0000
0101
0000
,
0110
0000
1100
0001
0100
0001
1000
0100
,
0002
0000
1003
0010
0001
0000
0110
0000
,
1100
0000
1010
1000
0001
0010
0100
0010
,
0002
0003
0011
0001
0100
0000
1010
0000
,
0110
0000
0000
0000
0010
1000
0001
0100
0010
0000
1000
0000
0100
0000
0001
0000
,
MMMM
0000
0000
0000
;

//---------------dance-single - ----------------
#NOTEDATA:;
#CHARTNAME:;
#STEPSTYPE:dance-single;
#DESCRIPTION:;
#CHARTSTYLE:;
#DIFFICULTY:Hard;
#METER:10;
#RADARVALUES:0.421429,0.458796,0.300850,0.116997,0.000000,353.000000,317.000000,36.000000,14.000000,0.000000,0.000000,0.000000,0.000000,0.000000,0.421429,0.458796,0.300850,0.116997,0.000000,353.000000,317.000000,36.000000,14.000000,0.000000,0.000000,0.000000,0.000000,0.000000;
#CREDIT:led_light;
#NOTES:
// measure 0
0000
0000
0000
0000
,  // measure 1
0000
0000
0000
0000
,  // measure 2
0000
0000
0000
0000
,  // measure 3
0000
0000
0000
0000
,  // measure 4
0000
0000
0000
0000
,  // measure 5
1000
0100
0010
0000
1000
0100
0010
0000
,  // measure 6
0001
0100
0010
0000
0001
0100
0010
0000
,  // measure 7
1000
0010
0100
0000
1000
0010
0100
0000
,  // measure 8
0001
0010
0100
0000
0001
0010
0100
0000
,  // measure 9
1000
0010
0100
0010
1000
0100
0010
0100
,  // measure 10
1000
0010
0001
0010
1000
0100
0001
0100
,  // measure 11
1000
0001
0100
0010
1000
0100
0001
0100
,  // measure 12
0010
0000
0000
0000
,  // measure 13
0100
0000
0110
1000
0001
0000
1001
0000
,  // measure 14
0110
0000
1000
0010
0100
0010
1000
0100
,  // measure 15
1000
0000
1100
0001
0100
0000
1100
0000
,  // measure 16
1100
0000
0001
1000
0010
0100
0001
0010
,  // measure 17
0100
0000
0110
0001
1000
0000
1001
0000
,  // measure 18
0110
0000
0001
0010
0100
0010
0001
0100
,  // measure 19
0001
0000
0101
1000
0100
0000
0101
0000
,  // measure 20
0101
0000
1000
0100
0001
0100
1000
0001
,  // measure 21
0010
0000
0110
0100
0010
0100
0110
0000
,  // measure 22
1001
0000
1000
0010
0001
0010
1000
0100
,  // measure 23
0020
0000
1030
0010
0100
1000
0010
0000
,  // measure 24
0110
0000
0001
1000
0100
1000
0001
1000
,  // measure 25
0020
0000
0130
0001
1000
0010
0110
0000
,  // measure 26
1001
0000
1000
0100
0001
0100
1000
0010
,  // measure 27
0200
0000
1300
0100
0010
1000
0100
0000
,  // measure 28
0010
0000
0001
0000
1000
0100
0010
0001
,  // measure 29
2000
0000
3000
0000
,  // measure 30
2000
0000
3000
0000
,  // measure 31
2000
0000
3000
0000
,  // measure 32
2000
0000
3000
0000
,  // measure 33
1000
1000
1000
1000
,  // measure 34
0001
0001
0001
0001
,  // measure 35
0100
0100
0100
0100
,  // measure 36
0010
0010
0010
0010
,  // measure 37
1000
0100
0010
0000
1000
0100
0010
0000
,  // measure 38
0001
0100
0010
0000
0001
0100
0010
0000
,  // measure 39
1000
0010
0100
0000
1000
0010
0100
0000
,  // measure 40
0001
0010
0100
0000
0001
0010
0100
0000
,  // measure 41
1000
0010
0100
0010
1000
0100
0010
0100
,  // measure 42
1000
0010
0001
0010
1000
0100
0001
0100
,  // measure 43
1000
0001
0100
0010
1000
0100
0001
0100
,  // measure 44
0010
0000
0000
0000
,  // measure 45
0100
0000
0110
0001
1000
0010
0110
0000
,  // measure 46
1001
0000
1000
0100
0001
0100
1000
0010
,  // measure 47
0200
0000
0310
1000
0001
0010
0110
0000
,  // measure 48
1100
0000
1001
0010
0100
0001
1000
0001
,  // measure 49
0020
0000
0031
0100
0010
1000
1001
0000
,  // measure 50
1100
0000
1000
0010
0100
0001
0010
0100
,  // measure 51
0020
0000
1030
0010
0001
1000
1010
0000
,  // measure 52
0110
0000
0001
0000
1000
0100
0010
0001
,  // measure 53
2000
0000
3001
0100
0001
0000
1001
0000
,  // measure 54
1100
0000
1000
0001
0100
0010
1000
0100
,  // measure 55
0020
0000
0130
1000
0001
0000
0101
0000
,  // measure 56
1001
0000
1000
0100
0010
0100
1000
0001
,  // measure 57
2000
0000
3001
0010
0100
0000
1001
0000
,  // measure 58
1010
0000
0100
0001
0010
1000
0010
0001
,  // measure 59
2000
0000
3100
1000
0010
0000
0101
0000
,  // measure 60
1001
0000
1000
0100
0001
1000
0010
0001
,  // measure 61
0100
0000
0000
0000
;

//---------------dance-single - ----------------
#NOTEDATA:;
#CHARTNAME:;
#STEPSTYPE:dance-single;
#DESCRIPTION:;
#CHARTSTYLE:;
#DIFFICULTY:Medium;
#METER:9;
#RADARVALUES:0.364124,0.433307,0.259065,0.033428,0.000000,305.000000,274.000000,31.000000,4.000000,0.000000,0.000000,0.000000,0.000000,0.000000,0.364124,0.433307,0.259065,0.033428,0.000000,305.000000,274.000000,31.000000,4.000000,0.000000,0.000000,0.000000,0.000000,0.000000;
#CREDIT:led_light;
#NOTES:
0000
0000
0000
0000
,
0000
0000
0000
0000
,
0000
0000
0000
0000
,
0000
0000
0000
0000
,
0000
0000
0000
0000
,
1000
0100
1000
0000
0100
0001
0100
0000
,
0001
0010
0001
0000
0010
1000
0010
0000
,
1000
0010
1000
0000
0010
0001
0010
0000
,
0001
0100
0001
0000
0100
1000
0100
0000
,
1000
0010
1000
0010
0001
0010
0001
0010
,
0001
0100
0001
0100
1000
0100
1000
0100
,
1000
0010
0100
0001
0010
0100
1000
0010
,
0100
0000
0000
0000
0010
0100
0010
0000
,
0001
1100
0001
0001
,
0100
0000
0001
0000
1000
0100
0010
0000
,
0100
1001
0010
0010
,
1000
0000
0001
0000
0100
0010
1000
0000
,
0001
1100
0001
0001
,
0100
0000
0001
0000
1000
0100
0010
0000
,
0100
1001
0010
0010
,
1000
0000
0001
0100
0010
0000
0010
0000
,
1000
0011
1000
1000
,
0010
0000
1000
0000
0001
0010
0100
0000
,
0010
1001
0100
0100
,
0001
0000
1000
0000
0010
0100
0001
0000
,
1000
0011
1000
1000
,
0010
0000
1000
0000
0001
0010
0100
0000
,
0010
1001
0100
0100
,
0001
0000
0001
0000
1000
0010
0100
0000
,
0002
0000
0003
0000
,
0002
0000
0003
0000
,
0002
0000
0003
0000
,
0002
0000
0003
0000
,
1000
1000
0001
0001
,
1000
1000
0010
0010
,
0100
0100
0001
0001
,
0010
0100
0010
0100
,
1000
0100
1000
0000
0100
0001
0100
0000
,
0001
0010
0001
0000
0010
1000
0010
0000
,
1000
0010
1000
0000
0010
0001
0010
0000
,
0001
0100
0001
0000
0100
1000
0100
0000
,
1000
0010
1000
0010
0001
0010
0001
0010
,
0001
0100
0001
0100
1000
0100
1000
0100
,
1000
0010
0100
0001
0010
0100
1000
0010
,
0100
0000
0000
0000
0010
0100
0010
0000
,
0001
1001
1000
1000
,
0001
0000
0001
0000
1000
0100
0001
0010
,
1000
1001
0001
0001
,
1000
0000
1000
0000
0001
0010
1000
0100
,
0001
1010
0001
0001
,
0010
0000
0010
0000
0001
0100
0010
1000
,
0001
1100
0010
0010
,
0100
0000
1000
0000
0010
0001
0010
1000
,
0100
0110
1001
0101
,
1010
0000
0011
0000
0001
0100
1000
0000
,
0110
0001
1001
0011
,
1010
0000
0101
0000
1000
0100
0001
0000
,
0110
0001
1001
1100
,
0011
0000
1010
0000
1000
0100
0001
0000
,
0110
1000
1001
1010
,
0011
0000
0100
1000
0001
0100
1000
0000
,
0001
0000
0000
0000
;

//---------------dance-single - ----------------
#NOTEDATA:;
#CHARTNAME:;
#STEPSTYPE:dance-single;
#DESCRIPTION:;
#CHARTSTYLE:;
#DIFFICULTY:Easy;
#METER:6;
#RADARVALUES:0.309207,0.382330,0.401133,0.033428,0.000000,259.000000,211.000000,48.000000,4.000000,0.000000,0.000000,0.000000,0.000000,0.000000,0.309207,0.382330,0.401133,0.033428,0.000000,259.000000,211.000000,48.000000,4.000000,0.000000,0.000000,0.000000,0.000000,0.000000;
#CREDIT:led_light;
#NOTES:
0000
0000
0000
0000
,
0000
0000
0000
0000
,
0000
0000
0000
0000
,
0000
0000
0000
0000
,
0000
0000
0000
0000
,
1000
1000
0010
0010
,
0001
0001
0100
0100
,
1000
1000
0100
0100
,
0001
0001
0010
0010
,
1000
0100
0001
0100
,
1000
0100
0001
0100
,
1000
0010
0001
0010
,
1000
0000
0100
0100
,
0010
0110
1001
0110
,
1001
0110
0001
0001
,
0001
1100
0010
0010
,
0001
1000
0010
0100
,
0010
0110
1001
0110
,
1001
0110
1000
1000
,
1000
0101
0010
0010
,
1000
0100
0001
0010
,
1000
1001
0110
1001
,
0110
1001
0010
0010
,
0010
0101
1000
1000
,
0010
0100
1000
0001
,
1000
1001
0110
1001
,
0110
1001
0100
0100
,
0100
0011
1000
1000
,
0100
0001
0010
1000
,
0002
0000
0003
0000
,
0002
0000
0003
0000
,
0002
0000
0003
0000
,
0002
0000
0003
0000
,
1000
1000
1000
1000
,
1000
1000
1000
1000
,
0001
0001
0001
0001
,
0001
0001
0001
0001
,
1000
1000
0100
0100
,
0001
0001
0010
0010
,
1000
1000
0010
0010
,
0001
0001
0100
0100
,
1000
0010
0001
0010
,
1000
0010
0001
0010
,
1000
0100
0001
0100
,
1000
0000
0010
0010
,
0100
0110
1001
0110
,
1001
0110
0001
0001
,
0001
1010
0100
0100
,
0001
1000
0100
0010
,
0100
0110
1001
0110
,
1001
0110
1000
1000
,
1000
0011
0100
0100
,
1000
0010
0001
0001
,
0001
1001
0110
1001
,
0110
1001
0010
0010
,
0010
1100
0001
0001
,
0010
0100
0001
1000
,
0001
1001
0110
1001
,
0110
1001
0100
0100
,
0100
1010
0001
0001
,
0100
1000
0010
0001
,
0100
0000
0000
0000
;

//---------------dance-single - ----------------
#NOTEDATA:;
#CHARTNAME:;
#STEPSTYPE:dance-single;
#DESCRIPTION:;
#CHARTSTYLE:;
#DIFFICULTY:Beginner;
#METER:3;
#RADARVALUES:0.122966,0.178421,0.000000,0.050142,0.000000,103.000000,103.000000,0.000000,6.000000,0.000000,0.000000,0.000000,0.000000,0.000000,0.122966,0.178421,0.000000,0.050142,0.000000,103.000000,103.000000,0.000000,6.000000,0.000000,0.000000,0.000000,0.000000,0.000000;
#CREDIT:led_light;
#NOTES:
0000
0000
0000
0000
,
0000
0000
0000
0000
,
0000
0000
0000
0000
,
0000
0000
0000
0000
,
0000
0000
0000
0000
,
0100
0000
0100
0000
,
0100
0000
0100
0000
,
0100
0000
0100
0000
,
0100
0000
0100
0000
,
1000
0000
0001
0000
,
1000
0000
0001
0000
,
0010
0010
0010
0010
,
0010
0000
0000
0000
,
0000
0001
0001
0000
,
0001
0000
0001
0000
,
0000
0010
0010
0000
,
0010
0000
0010
0000
,
0000
1000
1000
0000
,
1000
0000
1000
0000
,
0000
0100
0100
0000
,
0100
0000
0100
0000
,
0000
0001
0001
0000
,
0100
0000
0001
0000
,
0000
0010
0010
0000
,
0100
0000
0010
0000
,
0000
1000
1000
0000
,
0100
0000
1000
0000
,
0000
0010
0010
0000
,
0100
0000
0010
0000
,
2000
0000
0000
0000
,
3000
0000
0000
0000
,
0000
0000
0000
0000
,
0000
0000
0000
0000
,
0002
0000
0003
0000
,
0002
0000
0003
0000
,
2000
0000
3000
0000
,
0002
0000
0003
0000
,
0100
0000
0100
0000
,
0100
0000
0100
0000
,
0100
0000
0100
0000
,
0100
0000
0100
0000
,
0001
0000
1000
0000
,
0001
0000
1000
0000
,
0010
0010
0010
0010
,
0010
0000
0000
0000
,
0000
1000
1000
0000
,
1000
0000
1000
0000
,
0000
0010
0010
0000
,
0010
0000
0010
0000
,
0000
0001
0001
0000
,
0001
0000
0001
0000
,
0000
0100
0100
0000
,
0100
0000
0100
0000
,
0000
1000
1000
0000
,
0100
0000
1000
0000
,
0000
0010
0010
0000
,
0100
0000
0010
0000
,
0000
0001
0001
0000
,
0100
0000
0001
0000
,
0000
0010
0010
0000
,
0100
0000
0020
0000
,
0030
0000
0000
0000
;
