#TITLE:Get Lucky;
#SUBTITLE:;
#ARTIST:Daft Punk ft. Pharrell Williams;
#TITLETRANSLIT:;
#SUBTITLETRANSLIT:;
#ARTISTTRANSLIT:;
#GENRE:Popular Songs;
#CREDIT:;
#BANNER:Get Lucky.png;
#BACKGROUND:Get Lucky-bg.png;
#LYRICSPATH:;
#CDTITLE:../cdtitle.png;
#MUSIC:Get Lucky.ogg;
#OFFSET:-0.019000;
#SAMPLESTART:49.654999;
#SAMPLELENGTH:15.000000;
#SELECTABLE:YES;
#BPMS:0.000000=116.040024
;
#STOPS:
;
#BGCHANGES:-0.500=Get Lucky.avi=1.000=0=0=0=StretchNoLoop====,
180.250=Get Lucky.avi=1.000=0=0=1===CrossFade_Fastest=#000000=,
99999=-nosongbg-=1.000=0=0=0 // don't automatically add -songbackground-
;
#KEYSOUNDS:;
#ATTACKS:;

//---------------dance-single - ----------------
#NOTES:
     dance-single:
     :
     Beginner:
     1:
     0.057775,0.065103,0.000000,0.000000,0.000000,41.000000,41.000000,0.000000,0.000000,0.000000,0.000000,0.057775,0.065103,0.000000,0.000000,0.000000,41.000000,41.000000,0.000000,0.000000,0.000000,0.000000:
0000
0000
0000
0000
,
0000
0000
0000
0000
,
0000
0000
0000
0000
,
0000
0000
0000
0000
,
1000
0000
0000
0000
,
1000
0000
0000
0000
,
0001
0000
0000
0000
,
0001
0000
0000
0000
,
0010
0000
0000
0000
,
1000
0000
0000
0000
,
0010
0000
0000
0000
,
0001
0000
0000
0000
,
0100
0000
0000
0000
,
1000
0000
0000
0000
,
0100
0000
0000
0000
,
0001
0000
0000
0000
,
1000
0000
0000
0000
,
0001
0000
0000
0000
,
0010
0000
0000
0000
,
0010
0000
0000
0000
,
0001
0000
0000
0000
,
1000
0000
0000
0000
,
0010
0000
0000
0000
,
0010
0000
0000
0000
,
0100
0000
0000
0000
,
0100
0000
0000
0000
,
0001
0000
0000
0000
,
1000
0000
0000
0000
,
0100
0000
0000
0000
,
0100
0000
0000
0000
,
1000
0000
0000
0000
,
0001
0000
0000
0000
,
0001
0000
0000
0000
,
0001
0000
0000
0000
,
0001
0000
0000
0000
,
0001
0000
0000
0000
,
0100
0000
0000
0000
,
1000
0000
0000
0000
,
0010
0000
0000
0000
,
0001
0000
0000
0000
,
0100
0000
0000
0000
,
0001
0000
0000
0000
,
0010
0000
0000
0000
,
1000
0000
0000
0000
,
0100
0000
0000
0000
;

//---------------dance-single - ----------------
#NOTES:
     dance-single:
     :
     Easy:
     4:
     0.173326,0.195309,0.000000,0.000000,0.000000,123.000000,123.000000,0.000000,0.000000,0.000000,0.000000,0.173326,0.195309,0.000000,0.000000,0.000000,123.000000,123.000000,0.000000,0.000000,0.000000,0.000000:
0000
0000
0000
0000
,
0000
0000
0000
0000
,
0000
0000
0000
0000
,
0000
0000
0000
0000
,
1000
0001
1000
0000
,
0001
1000
0001
0000
,
0010
0100
0010
0000
,
0100
0010
0100
0010
,
0100
0000
0001
0000
,
0100
0000
0001
0000
,
1000
0000
0100
0000
,
1000
0000
0100
0000
,
0010
0000
0001
0000
,
0010
0000
0001
0000
,
0010
0000
1000
0000
,
0010
0000
1000
0000
,
0100
0100
0100
0000
,
0001
0001
0001
0000
,
1000
1000
1000
0000
,
0010
0010
0010
0000
,
1000
0100
1000
0000
,
0001
0100
0001
0000
,
1000
0010
1000
0000
,
0001
0010
0001
0000
,
1000
0001
1000
0000
,
0100
0010
0100
0000
,
0001
1000
0001
0000
,
0010
0100
0010
0000
,
1000
0100
0001
0000
,
1000
0100
0001
0000
,
0001
0100
1000
0000
,
0001
0100
1000
0100
,
0001
0100
1000
0100
,
0001
0100
1000
0100
,
0001
0010
1000
0010
,
0001
0010
1000
0010
,
0001
1000
0100
0000
,
0001
1000
0100
0000
,
0100
0100
0100
0001
,
0010
0010
0010
0001
,
1000
0001
0010
0000
,
1000
0001
0010
0000
,
0010
0010
0010
1000
,
0100
0100
0100
1000
,
0001
0000
0000
0000
;

//---------------dance-single - ----------------
#NOTES:
     dance-single:
     :
     Medium:
     6:
     0.226874,0.195309,0.000000,0.000000,0.000000,161.000000,161.000000,0.000000,0.000000,0.000000,0.000000,0.226874,0.195309,0.000000,0.000000,0.000000,161.000000,161.000000,0.000000,0.000000,0.000000,0.000000:
0000
0000
0000
0000
,
0000
0000
0000
0000
,
0000
0000
0000
0000
,
0000
0000
0000
0000
,
1000
0100
0001
0100
,
1000
0100
0001
0100
,
1000
0010
0001
0010
,
1000
0010
0001
0010
,
1000
0001
1000
0001
,
0001
1000
0001
1000
,
0010
0100
0010
0100
,
0100
0010
0100
0010
,
0001
0100
0001
0100
,
0010
1000
0010
1000
,
0001
0010
0001
0010
,
0100
1000
0100
1000
,
0001
0010
0100
0100
,
0001
0010
0100
0100
,
1000
0100
0010
0010
,
1000
0100
0010
0010
,
0100
0100
0001
1000
,
0100
0100
0001
1000
,
0010
0010
1000
0001
,
0010
0010
1000
0001
,
0010
1000
0100
1000
,
0010
0001
0100
0001
,
1000
0010
0100
0001
,
0001
0010
1000
0100
,
0010
1000
0100
1000
,
0010
0001
0100
0001
,
1000
0010
0100
0001
,
0001
0010
1000
0100
,
0001
0010
1000
0100
,
0001
0010
1000
0100
,
0001
0010
1000
0100
,
0001
0010
1000
0100
,
0001
0100
0001
0100
,
1000
0100
1000
0100
,
1000
0010
1000
0010
,
0001
0010
0001
0010
,
0001
0100
0001
0100
,
1000
0100
1000
0100
,
1000
0010
1000
0010
,
0001
0010
0001
0010
,
1000
0000
0000
0000
;

//---------------dance-single - ----------------
#NOTES:
     dance-single:
     :
     Hard:
     8:
     0.287467,0.282112,0.000000,0.000000,0.000000,204.000000,204.000000,0.000000,0.000000,0.000000,0.000000,0.287467,0.282112,0.000000,0.000000,0.000000,204.000000,204.000000,0.000000,0.000000,0.000000,0.000000:
0000
0000
0000
0000
,
0000
0000
0000
0000
,
0000
0000
0000
0000
,
0000
0000
0000
0000
,
0001
0000
0010
0000
1000
0100
0001
0000
,
1000
0000
0010
0000
0001
0100
1000
0000
,
0010
0000
0001
0000
1000
0001
0100
0000
,
0010
0000
1000
0000
0001
1000
0100
1000
,
0001
0000
0010
0000
1000
0010
0001
0000
,
0100
0000
0001
0000
1000
0010
0100
0010
,
1000
0000
0010
0000
0001
0010
1000
0000
,
0100
0000
1000
0000
0001
0010
0100
0010
,
0001
1000
0010
0100
,
1000
0000
0001
0000
0100
0010
0001
0000
,
1000
0001
0100
0010
,
0001
0000
1000
0000
0010
0100
1000
0000
,
0100
0000
0001
0000
0010
0100
0001
0000
,
0100
0000
1000
0000
0010
0100
1000
0000
,
0100
0000
0010
0000
0100
0010
0001
0000
,
0100
0000
0010
0000
0100
0010
1000
0000
,
0010
0000
1000
0000
0100
0010
1000
0000
,
0010
0000
0001
0000
0100
0010
0001
0000
,
0010
0000
0100
0000
0010
0100
1000
0000
,
0010
0000
0100
0000
0010
0100
0001
0000
,
1000
0000
0001
0000
1000
0100
0001
0000
,
1000
0000
0001
0000
1000
0100
0001
0000
,
0001
0000
1000
0000
0001
0100
1000
0000
,
0010
0000
0100
0000
1000
0100
0001
0000
,
1000
0000
0001
0000
1000
0100
0001
0000
,
1000
0000
0001
0000
1000
0100
0001
0000
,
0001
0000
1000
0000
0001
0100
1000
0000
,
0010
0000
0100
0000
1000
0100
0001
0000
,
0010
0000
0100
0000
1000
0100
0001
0000
,
0010
0000
0100
0000
1000
0100
0001
0000
,
0010
0000
0100
0000
1000
0100
0001
0000
,
0010
0000
0100
0000
1000
0100
0001
0000
,
0100
0000
0010
0000
0001
0000
0010
0001
,
0100
1000
0010
0001
,
1000
0100
0001
0100
1000
0000
0001
0010
,
1000
0000
0010
0000
1000
0000
0100
0001
,
0010
0000
0100
0000
1000
0000
0100
1000
,
0010
0001
0100
1000
,
0001
0010
1000
0010
0001
0000
1000
0100
,
0001
0000
0100
0000
0001
0000
0010
1000
,
0100
0000
0000
0000
;

//---------------dance-single - ----------------
#NOTES:
     dance-single:
     :
     Challenge:
     10:
     0.410064,0.390617,0.000000,0.078913,0.019728,291.000000,291.000000,0.000000,8.000000,28.000000,0.000000,0.410064,0.390617,0.000000,0.078913,0.019728,291.000000,291.000000,0.000000,8.000000,28.000000,0.000000:
// measure 0
0000
0000
0000
0000
,  // measure 1
0000
0000
0000
0000
,  // measure 2
0000
0000
0000
0000
,  // measure 3
0000
0000
0000
0000
,  // measure 4
1000
0100
0010
0001
0100
0010
1000
0100
,  // measure 5
0001
0100
1000
0010
0100
0001
0010
0001
,  // measure 6
0100
1000
0010
1000
0100
0100
0001
0010
,  // measure 7
0100
0000
1000
0000
0001
0000
1000
0100
0010
0000
0001
0000
0010
0000
0100
0000
,  // measure 8
1000
0010
1000
0010
0001
0010
0001
0100
,  // measure 9
0001
0000
0100
0000
1000
0000
0100
0000
1000
0000
0001
0010
0100
0000
1000
0000
,  // measure 10
0001
0010
0100
0010
1000
0010
0100
0010
,  // measure 11
0001
0000
0100
0000
0010
0000
0100
0000
1000
0000
0100
0001
0010
0000
1000
0000
,  // measure 12
0100
0001
0010
0001
0100
1000
0010
0001
,  // measure 13
0100
0000
0001
0000
0010
0000
1000
0000
0100
0000
1000
0010
0001
0000
0010
0000
,  // measure 14
0100
0001
0100
1000
0100
0010
0001
0100
,  // measure 15
0010
1000
0100
0010
0001
0010
0001
0100
,  // measure 16
2000
0000
0100
0000
3001
0100
1000
0010
,  // measure 17
0002
0000
0100
0000
1003
0100
0001
0010
,  // measure 18
0200
0000
1000
0000
0310
0001
0100
1000
,  // measure 19
0020
0000
1000
0000
0130
0001
0010
1000
,  // measure 20
0002
0000
0010
0000
1003
0010
0001
0100
,  // measure 21
2000
0000
0010
0000
3001
0010
1000
0100
,  // measure 22
0020
0000
0001
0000
0130
1000
0010
0200
,  // measure 23
0001
0000
1000
0000
0310
1000
0100
MMMM
,  // measure 24
0001
0100
1000
0100
0001
0100
1000
0000
,  // measure 25
0001
0100
1000
0100
0001
0100
1000
0000
,  // measure 26
0001
0010
1000
0010
0001
0010
1000
0000
,  // measure 27
0001
0010
1000
0010
0001
0100
1000
MMMM
,  // measure 28
1000
0100
0001
0100
1000
0100
0001
0000
,  // measure 29
1000
0100
0001
0100
1000
0100
0001
0000
,  // measure 30
1000
0010
0001
0010
1000
0010
0001
0000
,  // measure 31
1000
0010
0001
0010
1000
0100
0001
MMMM
,  // measure 32
1000
0010
0001
0010
1000
0100
0001
MMMM
,  // measure 33
1000
0010
0001
0010
1000
0100
0001
MMMM
,  // measure 34
1000
0010
0001
0010
1000
0100
0001
MMMM
,  // measure 35
1000
0010
0001
0010
1000
0100
0001
MMMM
,  // measure 36
1000
0001
0010
0001
1000
0001
0100
0000
,  // measure 37
0010
1000
0001
1000
0100
1000
0001
0000
,  // measure 38
1000
0100
0001
1000
0010
0001
0100
0010
,  // measure 39
0001
1000
0100
0001
0010
1000
0100
0000
,  // measure 40
0001
1000
0010
1000
0001
1000
0100
0000
,  // measure 41
0010
0001
1000
0001
0100
0001
1000
0000
,  // measure 42
0001
0010
1000
0001
0100
1000
0010
0100
,  // measure 43
1000
0001
0010
1000
0100
0001
0010
1000
,  // measure 44
0100
0000
0000
0000
;

//---------------dance-double - ----------------
#NOTES:
     dance-double:
     :
     Easy:
     4:
     0.184599,0.195309,0.000000,0.000000,0.000000,131.000000,131.000000,0.000000,0.000000,0.000000,0.000000,0.184599,0.195309,0.000000,0.000000,0.000000,131.000000,131.000000,0.000000,0.000000,0.000000,0.000000:
00000000
00000000
00000000
00000000
,
00000000
00000000
00000000
00000000
,
00000000
00000000
00000000
00000000
,
00000000
00000000
00000000
00000000
,
00010000
00010000
00001000
00000000
,
00001000
00001000
00010000
00000000
,
00100000
01000000
00100000
00000000
,
00000010
00000100
00000010
00000100
,
00000010
00000001
00001000
00000000
,
00100000
00010000
10000000
00000000
,
01000000
10000000
00010000
00000000
,
00000100
00001000
00000001
00000000
,
00000100
00000001
00000010
00001000
,
00010000
00000000
00100000
00000000
,
01000000
10000000
00100000
00010000
,
00001000
00000000
00000010
00000000
,
00000001
00001000
00000001
00000000
,
00000100
00010000
00000100
00000000
,
00001000
00100000
00001000
00000000
,
00010000
10000000
00010000
00000000
,
10000000
00010000
10000000
00000000
,
01000000
00001000
01000000
00000000
,
00010000
00000010
00010000
00000000
,
00001000
00000001
00001000
00000000
,
00000010
00001000
00010000
00000000
,
00100000
00010000
00001000
00000000
,
00000010
00001000
00010000
00000000
,
00001000
00000100
00010000
01000000
,
00100000
00010000
00001000
00000000
,
00000010
00001000
00010000
00000000
,
00100000
00010000
00001000
00000000
,
00010000
01000000
00001000
00000100
,
00010000
01000000
00001000
00000100
,
00010000
01000000
00001000
00000100
,
00010000
01000000
00001000
00000100
,
00010000
01000000
00001000
00000100
,
00000001
00001000
00010000
00000000
,
10000000
00010000
00001000
00000000
,
00000010
00000001
00000100
00001000
,
00010000
00100000
01000000
00000000
,
10000000
00010000
00001000
00000000
,
00000001
00001000
00010000
00000000
,
00100000
10000000
01000000
00010000
,
00001000
00000010
00000100
00001000
,
00000001
00000000
00000000
00000000
;

//---------------dance-double - ----------------
#NOTES:
     dance-double:
     :
     Medium:
     6:
     0.226874,0.195309,0.000000,0.000000,0.000000,161.000000,161.000000,0.000000,0.000000,0.000000,0.000000,0.226874,0.195309,0.000000,0.000000,0.000000,161.000000,161.000000,0.000000,0.000000,0.000000,0.000000:
00000000
00000000
00000000
00000000
,
00000000
00000000
00000000
00000000
,
00000000
00000000
00000000
00000000
,
00000000
00000000
00000000
00000000
,
00100000
00010000
01000000
00010000
,
00000100
00001000
00000010
00001000
,
00010000
01000000
10000000
00010000
,
00001000
00000100
00000001
00001000
,
00010000
00001000
00100000
00010000
,
01000000
10000000
00100000
00010000
,
00001000
00010000
00000100
00001000
,
00000010
00000001
00000100
00001000
,
00000001
00000010
00000100
00000001
,
00000010
00001000
00010000
00100000
,
10000000
01000000
00100000
10000000
,
01000000
00010000
00001000
00000100
,
00000010
00000001
00000001
00000001
,
00000100
00001000
00001000
00001000
,
00010000
00100000
00100000
00100000
,
10000000
01000000
01000000
01000000
,
00010000
10000000
10000000
10000000
,
01000000
00100000
00100000
00100000
,
00001000
00000001
00000001
00000001
,
00000010
00000100
00000100
00000100
,
00000010
00001000
00000010
00010000
,
00100000
00010000
00100000
00001000
,
00010000
00000100
00000001
00000100
,
00000010
00001000
00010000
01000000
,
00100000
00010000
00100000
00001000
,
00000010
00001000
00000010
00010000
,
00001000
01000000
10000000
01000000
,
00100000
00010000
00001000
00000100
,
00000010
00001000
00010000
01000000
,
00100000
00010000
00001000
00000100
,
00000010
00001000
00010000
01000000
,
00100000
00010000
00001000
00000100
,
00000001
00000010
00001000
00000001
,
00000001
00000100
00001000
00001000
,
00010000
00010000
01000000
00100000
,
10000000
10000000
01000000
00010000
,
10000000
01000000
00010000
10000000
,
10000000
00100000
00010000
00010000
,
00001000
00001000
00000010
00000100
,
00000001
00000001
00000010
00001000
,
00000001
00000000
00000000
00000000
;

//---------------dance-double - ----------------
#NOTES:
     dance-double:
     :
     Hard:
     8:
     0.284649,0.282112,0.000000,0.000000,0.000000,202.000000,202.000000,0.000000,0.000000,0.000000,0.000000,0.284649,0.282112,0.000000,0.000000,0.000000,202.000000,202.000000,0.000000,0.000000,0.000000,0.000000:
00000000
00000000
00000000
00000000
,
00000000
00000000
00000000
00000000
,
00000000
00000000
00000000
00000000
,
00000000
00000000
00000000
00000000
,
10000000
00000000
00010000
00000000
00001000
00000100
00000010
00000000
,
00000001
00000000
00001000
00000000
00010000
01000000
00100000
00000000
,
10000000
00000000
01000000
00000000
00010000
00001000
00000100
00000000
,
00000010
00000000
00001000
00000000
00000001
00000100
00001000
00010000
,
01000000
00010000
10000000
01000000
,
00010000
00000000
10000000
00000000
00100000
00010000
00001000
00010000
,
00100000
00001000
00000010
00010000
,
00000100
00000000
00001000
00000000
00000010
00000001
00000100
00000010
,
00000001
00000100
00010000
00001000
,
00000100
00000000
00010000
00000000
00100000
10000000
01000000
00100000
,
10000000
00010000
01000000
00001000
,
00100000
00001000
00010000
00001000
,
00000010
00000000
00000001
00000000
00001000
00000100
00000001
00000000
,
00000001
00000000
00001000
00000000
00000010
00001000
00010000
00000000
,
01000000
00000000
00001000
00000000
00100000
00010000
10000000
00000000
,
00100000
01000000
10000000
00010000
,
01000000
00000000
10000000
00000000
00010000
00100000
10000000
00000000
,
10000000
00000000
00010000
00000000
01000000
00010000
00001000
00000000
,
00000010
00000000
00010000
00000000
00000100
00001000
00000001
00000000
,
00000100
00000010
00000001
00001000
,
00000010
00000000
00010000
00000000
00000010
00001000
00010000
00000000
,
00100000
00000000
00001000
00000000
00100000
00010000
00001000
00000000
,
00000010
00000000
00000100
00000000
00001000
00001000
00000001
00000000
,
00000010
00000000
00001000
00000000
00010000
01000000
10000000
00000000
,
00100000
00000000
00001000
00000000
00100000
00010000
00001000
00000000
,
00000010
00000000
00010000
00000000
00000010
00001000
00010000
00000000
,
00100000
00000000
01000000
00000000
00010000
00010000
10000000
00000000
,
00100000
00000000
00010000
00000000
00001000
00000100
00000001
00000000
,
00000010
00000000
00001000
00000000
00010000
01000000
10000000
00000000
,
00100000
00000000
00010000
00000000
00001000
00000100
00000001
00000000
,
00000010
00000000
00001000
00000000
00010000
01000000
10000000
00000000
,
00100000
00000000
00010000
00000000
00001000
00000100
00000001
00000000
,
00000010
00000000
00000010
00000000
00001000
00000001
00000100
00000000
,
00001000
00000000
00000001
00000000
00001000
00000010
00010000
00000000
,
00001000
00010000
00100000
00010000
00001000
00000000
00010000
01000000
,
10000000
00000000
01000000
00000000
00010000
00000000
01000000
10000000
,
00100000
00000000
00100000
00000000
00010000
10000000
01000000
00000000
,
00010000
00000000
10000000
00000000
00010000
00100000
00001000
00000000
,
00010000
00001000
00000010
00001000
00010000
00000000
00001000
00000100
,
00000001
00000000
00000010
00000000
00001000
00000000
00000010
00000001
,
00000100
00000000
00000000
00000000
;

//---------------dance-double - ----------------
#NOTES:
     dance-double:
     :
     Challenge:
     10:
     0.412882,0.390617,0.019728,0.078913,0.019728,293.000000,291.000000,2.000000,8.000000,56.000000,0.000000,0.412882,0.390617,0.019728,0.078913,0.019728,293.000000,291.000000,2.000000,8.000000,56.000000,0.000000:
00000000
00000000
00000000
00000000
,
00000000
00000000
00000000
00000000
,
00000000
00000000
00000000
00000000
,
00000000
00000000
00000000
00000000
,
01000000
00010000
01000000
10000000
00100000
00010000
00001000
00000000
,
00000010
00001000
00000010
00000001
00000100
00001000
00010000
00000000
,
01000000
10000000
00100000
10000000
01000000
00100000
00010000
00000000
,
00000100
00000000
00000001
00000000
00000010
00000000
00000001
00000000
00000100
00000000
00001000
00010000
01000000
00000000
00010000
00000000
,
00001000
01000000
00100000
10000000
01000000
00010000
01000000
10000000
,
00010000
00000000
01000000
00000000
10000000
00000000
00100000
00000000
10000000
00000000
01000000
00010000
00100000
00000000
00001000
00000000
,
00010000
00000010
00000100
00000001
00000010
00001000
00000010
00000001
,
00001000
00000000
00000010
00000000
00000001
00000000
00000100
00000000
00000001
00000000
00000010
00001000
00000100
00000000
00010000
00000000
,
01000000
10000000
00100000
00010000
01000000
10000000
00100000
00010000
,
00001000
00000000
00000100
00000000
00000001
00000000
00000010
00000000
00001000
00000000
00000100
00000001
00001000
00000000
00000100
00000000
,
00010000
00000010
00001000
00010000
00001000
00100000
00010000
00001000
,
01000000
10000000
00010000
00100000
10000000
00010000
01000000
00000000
,
20100000
00000000
00010000
00000000
31000000
00010000
00001000
00000010
,
00000002
00000000
00001000
00000000
00000103
00000010
00001000
00010000
,
02000000
00000000
00100000
00000000
13000000
01000000
00010000
00100000
,
20000000
00000000
00100000
00000000
30010000
01000000
10000000
00100000
,
00020000
00000000
00001000
00000000
00030100
00001000
00000010
00000001
,
00002000
00000000
00010000
00000000
00103000
00010000
10000000
01000000
,
00200000
00000000
10000000
00000000
01300000
00010000
00001000
00000020
,
00000001
00000000
00000100
00000000
00001030
00010000
00000100
MMMMMMMM
,
00000001
00000100
00001000
00000100
00000001
00000100
00001000
00000000
,
00010000
01000000
10000000
01000000
00010000
01000000
10000000
00000000
,
00100000
00010000
00001000
00010000
00100000
00010000
00001000
00000000
,
00000010
00000001
00000100
00001000
00010000
00100000
10000000
MMMMMMMM
,
10000000
01000000
00010000
01000000
10000000
01000000
00010000
00000000
,
00001000
00000100
00000001
00000100
00001000
00000100
00000001
00000000
,
00000010
00001000
00010000
00001000
00000010
00001000
00010000
00000000
,
00100000
10000000
01000000
00010000
00001000
00000010
00000001
MMMMMMMM
,
00000100
00000001
00000010
00001000
00010000
00100000
10000000
MMMMMMMM
,
00100000
10000000
01000000
00010000
00001000
00000100
00000001
MMMMMMMM
,
00000100
00000001
00000010
00001000
00010000
01000000
10000000
MMMMMMMM
,
01000000
10000000
00100000
00010000
00001000
00000100
00000001
MMMMMMMM
,
00001000
00000001
00000100
00000001
00000010
00000010
00001000
00000010
,
00000100
00000001
00000100
00001000
00001000
00000010
00000100
00000001
,
00000010
00001000
00010000
00010000
10000000
01000000
00100000
00010000
,
10000000
01000000
00010000
01000000
10000000
00100000
01000000
00000000
,
00010000
10000000
01000000
10000000
00100000
00100000
00010000
00100000
,
01000000
10000000
01000000
00010000
00010000
00100000
01000000
10000000
,
00100000
00010000
00001000
00001000
00000001
00000100
00000010
00001000
,
00000001
00000100
00001000
00000100
00000001
00000010
00000100
00010000
,
00011000
00000000
00000000
00000000
;
