#TITLE:ζœˆε…‰δΉ±θˆž;
#SUBTITLE:;
#ARTIST:P*Light;
#TITLETRANSLIT:Gekkou ranbu;
#SUBTITLETRANSLIT:;
#ARTISTTRANSLIT:;
#GENRE:BEMANI;
#CREDIT:led_light;
#BANNER:Gekkou ranbu.png;
#BACKGROUND:Gekkou ranbu-bg.png;
#LYRICSPATH:;
#CDTITLE:../cdtitle.png;
#MUSIC:Gekkou ranbu.ogg;
#OFFSET:-0.123000;
#SAMPLESTART:11.091000;
#SAMPLELENGTH:15.000000;
#SELECTABLE:YES;
#BPMS:0.000000=186.000000
,205.000000=93.000000
,222.000000=186.000000
;
#STOPS:204.000000=1.613000
;
#BGCHANGES:-99.000=../bg.avi=1.000=0=0=1=====,
99999=-nosongbg-=1.000=0=0=0 // don't automatically add -songbackground-
;
#KEYSOUNDS:;
#ATTACKS:;

//---------------dance-single - ----------------
#NOTES:
     dance-single:
     :
     Beginner:
     5:
     0.237186,0.307758,0.111834,0.103231,0.000000,193.000000,180.000000,13.000000,12.000000,0.000000,0.000000,0.237186,0.307758,0.111834,0.103231,0.000000,193.000000,180.000000,13.000000,12.000000,0.000000,0.000000:
0000
0000
0000
0000
,
0000
0000
0000
0000
,
0000
0000
0000
0000
,
0000
0000
0000
0000
,
0000
0000
0000
0000
,
0010
0000
0010
0000
,
0100
0000
0100
0000
,
0010
0000
0010
0000
,
0010
0010
0010
0000
,
1000
0000
1000
0000
,
0001
0000
0001
0000
,
0010
0000
1000
0000
,
0001
0000
0100
0000
,
1000
0000
1000
0000
,
0001
0000
0001
0000
,
0100
0000
0100
0100
,
0000
0010
0010
0000
,
1000
0000
0100
0000
,
0001
0000
0100
0000
,
1000
0000
0010
0000
,
0001
0000
0010
0000
,
1000
0000
0001
0000
,
1000
0000
0001
0000
,
0100
0000
0100
0100
,
0000
0010
0010
0000
,
1000
1000
1000
0000
,
1000
1000
1000
0000
,
0001
0001
0001
0000
,
0001
0001
0001
0000
,
2002
0000
3003
0000
,
0220
0000
0330
0000
,
1001
0000
0110
0000
,
0100
0100
0200
0000
,
0300
0000
0000
0000
,
0010
0010
0010
0000
,
0001
0000
1000
0000
,
0100
0100
0100
0000
,
1000
0000
0001
0000
,
1000
1000
1000
2000
,
3000
0010
0010
0000
,
0100
0100
0100
0000
,
0001
0000
1000
0000
,
0001
0001
0001
0000
,
0010
0010
0010
0000
,
0010
0010
0010
0000
,
0100
0100
0100
0000
,
0100
0100
0100
0000
,
0110
0000
0110
0000
,
1001
0000
1001
0000
,
0001
0001
1000
1000
,
0001
0001
0001
0001
,
0001
0000
2000
3000
,
0002
0003
0010
0100
,
2000
3000
0002
0003
,
2000
3000
0010
0100
,
0002
0003
1000
1000
,
1000
0000
0001
0001
,
0001
0000
0010
0000
,
0010
0000
0100
0000
,
0100
0000
0110
0000
,
0110
0000
1001
0000
,
1001
0000
0010
0000
,
0100
0000
0010
0010
,
0010
0000
0001
0001
,
0001
0000
1000
1000
,
1000
0000
0100
0000
,
0100
0000
0001
0000
,
0001
0000
1000
1000
,
1000
0000
0001
0001
,
0001
0000
0010
0000
,
0010
0000
0000
1000
,
1000
0000
0001
0001
,
0001
0000
1000
1000
,
1000
0000
0010
0000
,
0010
0000
0001
0000
,
0001
0000
1000
1000
,
1000
0000
0001
0001
,
0001
0000
0100
0000
,
0100
0000
0010
0000
,
0000
0000
1001
0000
;

//---------------dance-single - ----------------
#NOTES:
     dance-single:
     :
     Hard:
     17:
     0.930309,0.923273,0.344104,0.146244,0.933381,757.000000,717.000000,40.000000,17.000000,0.000000,0.000000,0.930309,0.923273,0.344104,0.146244,0.933381,757.000000,717.000000,40.000000,17.000000,0.000000,0.000000:
// measure 0
0000
0000
0000
0000
,  // measure 1
0000
0000
0000
0000
,  // measure 2
0000
0000
0000
0000
,  // measure 3
0000
0000
0000
0000
,  // measure 4
0000
0000
0000
0000
,  // measure 5
2001
0000
0100
0000
3100
0001
0100
0010
,  // measure 6
1002
0000
0100
0000
0103
1000
0100
0010
,  // measure 7
1000
0000
1000
0000
0001
0000
0001
0000
0010
0100
1000
0010
0100
0001
0010
0100
,  // measure 8
0020
0000
0100
0000
0130
0010
0001
1000
,  // measure 9
1001
0000
1000
0100
0000
1000
0100
0000
0010
0000
0100
0000
1000
0000
0010
0000
,  // measure 10
0100
0000
0001
0100
0000
0001
0100
0000
0010
0000
1000
0000
0001
0000
0010
0000
,  // measure 11
1000
0000
0010
0001
0000
0010
0001
0000
1000
0000
0100
0000
0001
0000
0100
0000
,  // measure 12
1000
0000
0010
0100
0000
0010
0100
0000
0001
0000
1000
0000
0100
0000
0010
0000
,  // measure 13
0001
0000
1000
0010
0000
1000
0010
0000
0100
0000
0010
0000
1000
0000
0100
0000
,  // measure 14
0010
0000
0001
0010
0000
0001
0010
0000
0100
0000
1000
0000
0001
0000
0100
0000
,  // measure 15
0010
0000
0000
0101
0000
0000
1001
0000
1000
0000
1000
0000
0100
0000
0001
0000
,  // measure 16
0000
0000
0011
0000
0000
1010
0000
0000
1001
0000
0000
0000
0110
0000
0000
0000
,  // measure 17
1001
0000
0001
0010
0000
0100
1000
0000
0100
0000
0010
0000
0001
0000
1000
0000
,  // measure 18
0010
0000
0100
0010
0000
0100
1000
0000
0001
0000
0010
0000
1000
0000
0001
0000
,  // measure 19
0100
0000
0001
0100
0000
0010
1000
0000
0010
0000
0100
0000
0001
0000
1000
0000
,  // measure 20
0100
0000
0010
0100
0000
0010
1000
0000
0001
0000
0100
0000
2000
0000
0000
0000
,  // measure 21
3001
0000
1000
0100
0010
0000
0100
0000
1000
0000
0010
0000
0100
0000
0001
0000
,  // measure 22
0010
0000
0100
0010
0001
0000
0100
0000
0010
0000
1000
0000
0100
0000
0010
0000
,  // measure 23
0001
0000
0000
0101
0000
0000
1100
0000
1000
0100
0010
0001
0100
0010
1000
0100
,  // measure 24
0000
0000
1100
0000
0000
0101
0000
0000
1001
0000
0000
0000
0110
0000
0000
0000
,  // measure 25
1000
0001
0000
1000
0001
0000
1000
0001
0000
1000
0001
0000
1000
0000
0100
0000
,  // measure 26
0010
0001
0000
0010
0001
0000
0010
0001
1000
0100
1000
0000
0001
0000
0100
0000
,  // measure 27
0010
1000
0000
0010
1000
0000
0010
1000
0000
0010
1000
0000
0010
0000
0100
0000
,  // measure 28
0001
1000
0000
0001
1000
0000
0001
1000
0001
1000
0010
0000
0100
0001
0100
0001
,  // measure 29
1000
0100
0010
0001
0001
0010
0100
1000
,  // measure 30
1100
0000
0100
0000
0010
0000
0001
0000
0001
1000
0010
0000
0100
0000
0001
0000
,  // measure 31
0101
0001
1000
0100
1100
1000
0001
0010
,  // measure 32
0100
0000
0100
0000
1000
0000
1000
0000
0100
0010
0001
1000
0001
0100
0010
1000
,  // measure 33
0002
0000
1003
0100
0010
0100
1000
0001
,  // measure 34
1001
0101
1100
1001
0110
0000
0001
0000
,  // measure 35
2001
0000
3100
0001
0100
1000
0010
0100
,  // measure 36
1000
0100
0010
1000
0001
0100
0001
0010
,  // measure 37
0100
0001
0100
0010
0001
0001
1000
1000
,  // measure 38
0100
1000
0010
0100
0001
0010
0200
0000
,  // measure 39
1300
0001
1000
0001
0010
0000
1000
0000
0010
0000
0001
0000
0100
0000
0010
0000
,  // measure 40
0001
0010
0100
0001
1000
0010
1000
0100
,  // measure 41
0010
1000
0010
0100
1000
1000
0001
0001
,  // measure 42
0010
0010
0001
0001
0100
0010
1000
0001
,  // measure 43
1000
0100
0000
1000
0100
0000
0010
0001
0000
0010
0001
0000
1000
0000
0001
0000
,  // measure 44
0100
0010
0000
0100
0010
0000
1000
0010
1000
0001
0010
0000
0100
0000
1000
0000
,  // measure 45
0001
0010
0000
0001
0010
0000
0100
1000
0000
0100
1000
0000
0001
0000
1000
0000
,  // measure 46
0010
0100
0000
0010
0100
0000
0001
0100
0001
1000
0100
0000
0010
0001
1000
0100
,  // measure 47
0010
0001
0100
0010
1010
1000
0100
0010
,  // measure 48
0011
0000
0001
0000
0010
0000
0100
0000
1000
0100
1000
0000
0001
0000
1000
0000
,  // measure 49
1010
0000
0000
0101
0000
0000
1100
0000
0011
0000
0000
1100
0000
0000
0101
0000
,  // measure 50
1000
0000
1000
0000
0001
0000
0001
0000
1000
0100
0010
0001
0010
0100
1000
0001
,  // measure 51
0020
0030
0000
0000
0000
0000
0000
0000
0000
0000
0000
0000
0000
0000
0000
0000
0001
0000
0000
0000
0010
0000
0000
0000
0100
0000
0000
0000
1000
0000
0000
0000
0002
0000
0000
0000
0000
0000
0000
0000
0003
0000
0000
0000
0000
0000
0000
0000
1000
0000
0000
0000
0010
0000
0000
0000
0100
0000
0000
0000
0001
0000
0000
0000
,  // measure 52
2000
0000
3000
0000
0001
0010
0100
1000
0001
1000
0100
0010
0001
0100
0010
1000
,  // measure 53
0002
0000
0003
0000
1000
0100
0010
0001
2000
0000
3000
0000
0001
0100
0010
1000
,  // measure 54
0002
0000
0003
0000
1000
0100
0010
0001
1000
0001
0010
0100
1000
0010
0100
0001
,  // measure 55
2000
0000
0000
0000
0000
0000
3001
0000
0001
1000
0010
0000
0100
0000
0010
1000
,  // measure 56
0000
0001
0100
0001
1000
0100
0010
0001
1000
0010
0100
0000
0001
0000
1000
0010
,  // measure 57
0000
1000
0010
1000
0001
0010
0100
1000
0001
0000
0100
0010
0000
0100
0010
0000
,  // measure 58
1000
0001
0000
1000
0001
0000
0010
0000
0100
0000
1000
0100
0000
1000
0100
0000
,  // measure 59
1000
0010
0000
1000
0010
0000
1000
0000
0001
0010
0100
0000
0010
0000
0001
0100
,  // measure 60
0010
1000
0100
0000
0010
0000
0100
1000
0010
0100
0001
0000
0010
0000
0100
0010
,  // measure 61
0001
0100
0010
0000
1000
0000
0100
0010
0001
0000
0001
0000
0100
0000
0100
0000
,  // measure 62
0010
1000
0100
0010
0001
0100
0010
1000
0100
0000
0000
0000
0100
0000
0000
0000
,  // measure 63
0100
0000
0010
0001
2000
0000
3000
0000
0001
1000
0100
0000
0010
0000
0100
1000
,  // measure 64
0000
0001
0010
0001
1000
0010
0100
0001
1000
0100
0010
0000
0001
0000
1000
0100
,  // measure 65
0000
1000
0100
1000
0001
0100
0010
1000
0001
0000
0010
0100
0000
0010
0100
0000
,  // measure 66
1000
0001
0000
1000
0001
0000
0100
0000
0010
0000
1000
0010
0000
1000
0010
0000
,  // measure 67
1000
0100
0000
1000
0100
0000
1000
0000
0001
1000
0010
0000
0100
0000
0010
1000
,  // measure 68
0000
0001
0100
0001
1000
0100
0010
0001
1000
0010
0100
0000
0001
0000
1000
0010
,  // measure 69
0000
1000
0010
1000
0001
0010
0100
1000
0001
0000
0100
0010
0000
0100
0010
0000
,  // measure 70
1000
0001
1000
0001
0010
0100
1000
0001
0000
0000
0101
0000
0000
1100
0000
0000
,  // measure 71
1010
0000
0000
0010
0001
0000
0000
0000
1000
0001
0010
0000
0100
0000
0010
0001
,  // measure 72
0000
1000
0100
1000
0001
0100
0010
1000
0001
0010
0100
0000
1000
0000
0001
0010
,  // measure 73
0000
0001
0010
0001
1000
0010
0100
0001
1000
0000
0100
0010
0000
0100
0010
0000
,  // measure 74
0001
1000
0000
0001
1000
0000
0010
0000
0100
0000
0001
0100
0000
0001
0100
0000
,  // measure 75
0001
0010
0000
0001
0010
0000
0001
0000
1000
0001
0100
0000
0010
0000
0100
0001
,  // measure 76
0000
1000
0010
1000
0001
0010
0100
1000
0001
0100
0010
0000
1000
0000
0001
0100
,  // measure 77
0000
0001
0100
0001
1000
0100
0010
0001
1000
0000
0010
0100
0000
0010
0100
0000
,  // measure 78
0001
1000
0001
1000
0100
0010
0001
1000
0100
0000
0000
0011
0000
0000
0100
0000
,  // measure 79
0000
1010
0000
0000
0220
0000
0330
0000
1001
0000
0000
0000
0000
0000
0000
0000
;

//---------------dance-single - ----------------
#NOTES:
     dance-single:
     :
     Medium:
     13:
     0.648881,0.581320,0.111834,0.094629,0.266680,528.000000,515.000000,13.000000,11.000000,0.000000,0.000000,0.648881,0.581320,0.111834,0.094629,0.266680,528.000000,515.000000,13.000000,11.000000,0.000000,0.000000:
0000
0000
0000
0000
,
0000
0000
0000
0000
,
0000
0000
0000
0000
,
0000
0000
0000
0000
,
0000
0000
0000
0000
,
1000
0000
1000
0000
0001
0010
0100
1000
,
0001
0000
0001
0000
1000
0010
0100
0001
,
1000
0100
1000
0001
0100
0010
1000
0001
,
0010
0000
0010
0000
0010
0100
1001
0000
,
0010
0000
0000
0010
0000
0000
1000
0000
0100
0000
0001
0000
0100
0000
1000
0000
,
0010
0000
0000
0010
0000
0000
0100
0000
0001
0000
0010
0000
1000
0000
0010
0000
,
0001
0000
0000
1000
0000
0000
1000
0000
0010
0000
0100
0000
1000
0000
0100
0000
,
0010
0000
0000
0010
0000
0000
1000
0000
0001
0000
0010
0000
0100
0000
1000
0000
,
0100
0000
0000
0100
0000
0000
0001
0000
0010
0000
1000
0000
0010
0000
0001
0000
,
0100
0000
0000
0100
0000
0000
0010
0000
1000
0000
0100
0000
0001
0000
0100
0000
,
1000
0000
0000
0001
0000
0000
0001
0000
0100
0000
0010
0000
0001
0000
0010
0000
,
0000
0000
1000
0000
0000
0001
0000
0000
1001
0000
0000
0000
0110
0000
0000
0000
,
0001
0000
0000
0100
0000
0000
0010
0000
1000
0000
0100
0000
0010
0000
0100
0000
,
1000
0000
0000
0001
0000
0000
0010
0000
1000
0000
0010
0000
0100
0000
0010
0000
,
0001
0000
0000
0010
0000
0000
0100
0000
1000
0000
0010
0000
0100
0000
0010
0000
,
1000
0000
0000
0001
0000
0000
0100
0000
1000
0000
0100
0000
0020
0000
0000
0000
,
1030
0000
0000
0001
1000
0000
0100
0000
0010
0000
0100
0000
0001
0000
0100
0000
,
1000
0000
0000
0001
1000
0000
0010
0000
0100
0000
0010
0000
0001
0000
0010
0000
,
1000
0000
0000
0100
0000
0000
0100
0000
0010
0000
0001
0000
0100
0000
0010
0000
,
0000
0000
1000
0000
0000
0001
0000
0000
1001
0000
0000
0000
0110
0000
0000
0000
,
0001
0000
0000
0001
0000
0000
0001
0000
1000
0000
0010
0000
0100
0000
0001
0000
,
1000
0000
0000
1000
0000
0000
1000
0000
0001
0000
0010
0000
0100
0000
1000
0000
,
0001
0000
0000
0001
0000
0000
0001
0000
0100
0000
1000
0000
0100
0000
0001
0000
,
1000
0000
0000
1000
0000
0000
1000
0000
0010
0000
0001
0000
0010
0000
1000
0000
,
0001
0100
0001
0100
0010
1000
0010
1000
,
0001
0010
0001
0010
0100
1000
0100
1000
,
0001
0000
0000
0001
0000
0000
0010
0000
0100
0000
0000
0100
0000
0000
1000
0000
,
0010
0100
0001
0100
0010
1000
0001
1000
,
0002
0000
1003
0100
0010
0100
1000
0001
,
1000
0100
0001
0010
1000
0000
0110
0000
,
1001
0000
0001
0010
0100
0010
0001
1000
,
0010
0001
0010
1000
0001
0000
0001
0100
,
0010
0000
0010
1000
0100
0000
0100
0000
,
0010
1000
0010
0001
1000
0100
0020
0000
,
0031
0000
0001
0100
0010
0100
0001
1000
,
0100
0001
0100
1000
0001
0000
0001
0010
,
0100
0000
0100
1000
0010
0000
0010
0000
,
0100
1000
0100
0001
1000
0010
0100
0100
,
0001
0000
0000
0001
0000
0000
0001
0000
1000
0000
0100
0000
0010
0000
0001
0000
,
1000
0000
0000
1000
0000
0000
1000
0000
0001
0000
0100
0000
0010
0000
1000
0000
,
0001
0000
0000
0001
0000
0000
0001
0000
0010
0000
1000
0000
0010
0000
0001
0000
,
1000
0000
0000
1000
0000
0000
1000
0000
0100
0000
0001
0000
0100
0000
1000
0000
,
0001
0010
0001
0010
0100
1000
0100
1000
,
0001
0100
0001
0100
0010
1000
0010
1000
,
0001
0000
0000
0101
0000
0000
0100
0000
0010
0000
0000
1010
0000
0000
1000
0000
,
0100
0010
0001
0010
0100
1000
0001
1000
,
0002
0003
0000
0000
0000
0000
0000
0000
0000
0000
0000
0000
0000
0000
0000
0000
1000
0000
0000
0000
0100
0000
0000
0000
1000
0000
0000
0000
0000
0000
0000
0000
0020
0000
0000
0000
0000
0000
0000
0000
0030
0000
0000
0000
0000
0000
0000
0000
0100
0000
0000
0000
0001
0000
0000
0000
0100
0000
0000
0000
0000
0000
0000
0000
,
2000
0000
3000
0000
0100
0010
0100
0000
0001
0000
0010
0000
0100
0000
1000
0000
,
0002
0000
0003
0000
1000
0010
1000
0000
0200
0000
0300
0000
0010
0001
0010
0000
,
2000
0000
3000
0000
0010
0100
0010
0000
0001
0000
0100
0000
0010
0000
1000
0000
,
0002
0000
0000
0000
0003
0000
1001
0000
1000
0000
0100
0000
0010
0000
0000
0001
,
0000
0000
0001
0000
1000
0000
0100
0000
1000
0000
0010
0000
0100
0000
0000
0001
,
0000
0000
0001
0000
1000
0000
0010
0000
0001
0000
0000
0001
0000
0000
0010
0000
,
0000
0010
0000
0000
1000
0000
0100
0000
0001
0000
0000
0001
0000
0000
0100
0000
,
0000
0100
0000
0000
1000
0000
0001
0000
1000
0000
0010
0000
1000
0000
0010
0000
,
0100
0001
0100
0001
1000
0100
1000
0100
,
0010
0001
0010
0001
1000
0100
0010
0001
,
0100
0010
1000
0100
0010
0000
0010
0000
,
0010
0000
0100
0000
1001
0000
0000
0000
0001
0000
0100
0000
0010
0000
1000
0010
,
0000
0000
1000
0000
0100
0000
0010
0000
0001
0000
1000
0000
0100
0000
1000
0001
,
0000
0000
0100
0000
0010
0000
1000
0000
0001
0000
0000
0001
0000
0000
0001
0000
,
0000
0001
0000
0000
0010
0000
0100
0000
1000
0000
0000
1000
0000
0000
1000
0000
,
0000
0100
0000
0000
0100
0000
0010
0000
0001
0000
0010
0000
0100
0000
1000
0100
,
0000
0000
1000
0000
0010
0000
0100
0000
0001
0000
1000
0000
0010
0000
1000
0001
,
0000
0000
0010
0000
0100
0000
1000
0000
0001
0000
0000
0001
0000
0000
0001
0000
,
0100
0000
0010
0000
1000
0000
0001
0000
0000
0000
0010
0000
0000
0010
0000
0000
,
0100
0000
0000
0110
0000
0000
0000
0000
1000
0000
0100
0000
0010
0000
0001
0010
,
0000
0000
0001
0000
0100
0000
0010
0000
1000
0000
0001
0000
0100
0000
0001
1000
,
0000
0000
0100
0000
0010
0000
0001
0000
1000
0000
0000
1000
0000
0000
1000
0000
,
0000
1000
0000
0000
0010
0000
0100
0000
0001
0000
0000
0001
0000
0000
0001
0000
,
0000
0100
0000
0000
0100
0000
0010
0000
1000
0000
0010
0000
0100
0000
0001
0100
,
0000
0000
0001
0000
0010
0000
0100
0000
1000
0000
0001
0000
0010
0000
0001
1000
,
0000
0000
0010
0000
0100
0000
0001
0000
1000
0000
0000
1000
0000
0000
1000
0000
,
0100
0000
0010
0000
0001
0000
1000
0000
0010
0000
0000
0010
0000
0000
0100
0000
,
0000
0100
0000
0000
0020
0000
0030
0000
1001
0000
0000
0000
0000
0000
0000
0000
;

//---------------dance-single - ----------------
#NOTES:
     dance-single:
     :
     Easy:
     10:
     0.473143,0.478734,0.309693,0.077423,0.008603,385.000000,349.000000,36.000000,9.000000,0.000000,0.000000,0.473143,0.478734,0.309693,0.077423,0.008603,385.000000,349.000000,36.000000,9.000000,0.000000,0.000000:
0000
0000
0000
0000
,
0000
0000
0000
0000
,
0000
0000
0000
0000
,
0000
0000
0000
0000
,
0000
0000
0000
0000
,
1000
0000
1000
0000
1000
0000
1000
0100
,
0001
0000
0001
0000
0001
0000
0001
0010
,
1000
0100
1000
0000
0001
0010
0001
0000
,
0100
0100
0100
1001
,
0001
0000
0001
0000
1000
0100
0010
0000
,
1000
0000
1000
0000
0001
0100
0010
0000
,
0001
0000
0010
0000
0100
1000
0010
0000
,
0100
0000
0001
0000
0010
0100
1000
0000
,
0001
0000
0001
0000
1000
0010
0100
0000
,
1000
0000
1000
0000
0001
0010
0100
0000
,
0001
0000
0100
0000
0010
1000
0100
0010
,
0000
0100
1001
0000
,
0110
0000
0001
0000
0100
1000
0100
0000
,
0010
0000
1000
0000
0100
0010
0100
0000
,
0001
0000
0100
0000
1000
0001
1000
0000
,
0010
0000
0100
0000
0001
1000
0001
0000
,
1000
0000
1100
0000
0100
0010
0001
0000
,
0001
0000
0101
0000
0100
0010
1000
0000
,
1000
0000
0010
0000
0100
0001
0010
0100
,
0000
0010
1001
0000
,
1000
0000
1000
0000
1000
0100
1000
0000
,
0001
0000
0001
0000
0001
0100
0001
0100
,
0010
0000
0010
0000
0010
0001
0010
0000
,
0100
0000
0100
0000
0100
1000
0100
0010
,
1001
0100
0100
0100
,
1001
0010
0010
0010
,
1001
0100
1001
0010
,
0110
0100
0020
0000
,
0130
0000
0000
0000
,
1000
0001
1001
0000
,
0110
0010
1000
0010
,
0001
0001
1000
0100
,
1000
0000
1000
0010
,
0001
0100
1000
0002
,
0003
0100
1000
0100
,
0001
0001
1000
0010
,
1000
0000
1000
0100
,
0001
0010
1000
0001
,
1000
0000
1000
0000
1000
0100
1000
0100
,
0010
0000
0010
0000
0010
0001
0010
0001
,
0100
0000
0100
0000
0100
1000
0100
0000
,
0010
0000
0010
0000
0010
0001
0010
1000
,
0001
0100
0001
0000
1000
0100
1000
0000
,
0001
0010
0001
0000
1000
0010
1000
0000
,
0001
0000
0000
0001
0000
0000
0001
0000
1000
0000
0000
1000
0000
0000
1000
0000
,
0100
0010
0001
0000
0010
0100
1000
0000
,
0002
0003
0000
0000
0000
0000
0000
0000
0000
0000
0000
0000
0000
0000
0000
0000
1000
0000
0000
0000
0000
0000
0000
0000
0100
0000
0000
0000
0000
0000
0000
0000
0002
0000
0000
0000
0000
0000
0000
0000
0003
0000
0000
0000
0000
0000
0000
0000
1000
0000
0000
0000
0000
0000
0000
0000
0100
0000
0000
0000
0000
0000
0000
0000
,
0002
0003
1000
0100
0001
0010
1000
0001
,
2000
3000
0001
0100
2000
3000
0001
0100
,
2000
3000
0001
0100
1000
0010
0001
1000
,
0002
0000
0000
0003
1000
0001
0100
0000
,
0010
0000
1010
0000
0001
1000
0100
0000
,
0010
0011
1000
1000
,
1000
1100
0001
0001
,
0001
0101
1010
0010
,
0011
0001
0101
0100
,
1100
1000
0001
0100
,
0010
1000
0100
0100
,
0100
0000
1001
0000
1000
0001
0100
0000
,
1000
0000
0110
0000
1000
0001
0010
0000
,
1000
0110
1000
1000
,
1000
1100
0001
0001
,
0001
0000
0101
0000
0010
1000
0001
0000
,
0100
0000
1100
0000
0100
0001
1000
0000
,
0010
0011
0010
1000
,
0100
0010
0001
1000
0000
0000
0010
0000
,
0110
0000
0000
0000
0001
1000
0010
0000
,
0001
0000
0110
0000
0001
1000
0100
0000
,
0001
0110
0001
0001
,
0001
0011
1000
1000
,
1000
0000
1010
0000
0100
0001
1000
0000
,
0010
0000
0011
0000
0010
1000
0001
0000
,
0100
1100
0100
0001
,
0010
0100
1000
0001
0100
0000
0100
0000
,
0100
0010
1001
0000
;
