#TITLE:ζœˆε…‰δΉ±θˆž;
#SUBTITLE:-GRV mix-;
#ARTIST:P*Light;
#TITLETRANSLIT:Gekkou ranbu;
#SUBTITLETRANSLIT:;
#ARTISTTRANSLIT:;
#GENRE:BEMANI;
#CREDIT:;
#BANNER:Gekkou ranbu -GRV mix-.png;
#BACKGROUND:Gekkou ranbu -GRV mix--bg.png;
#LYRICSPATH:;
#CDTITLE:../cdtitle.png;
#MUSIC:Gekkou ranbu -GRV mix-.ogg;
#OFFSET:-0.013000;
#SAMPLESTART:11.612000;
#SAMPLELENGTH:15.000000;
#SELECTABLE:YES;
#BPMS:0.000000=186.000000
,170.000000=93.000000
,186.000000=186.000000
;
#STOPS:168.000000=1.935482
;
#BGCHANGES:-99.000=../bg.avi=1.000=0=0=1=====,
99999=-nosongbg-=1.000=0=0=0 // don't automatically add -songbackground-
;
#KEYSOUNDS:;
#ATTACKS:;

//---------------dance-single - ----------------
#NOTES:
     dance-single:
     :
     Challenge:
     18:
     0.956889,0.974946,0.434741,0.289827,1.038547,832.000000,778.000000,54.000000,36.000000,4.000000,0.000000,0.956889,0.974946,0.434741,0.289827,1.038547,832.000000,778.000000,54.000000,36.000000,4.000000,0.000000:
// measure 0
0000
0000
0000
0000
,  // measure 1
0000
0000
0000
0000
,  // measure 2
0000
0000
0000
0000
,  // measure 3
0000
0000
0000
0000
,  // measure 4
0000
0000
0000
0000
,  // measure 5
2001
0000
0100
0000
3100
0001
0100
0010
,  // measure 6
1002
0000
0100
0000
0103
1000
0100
0010
,  // measure 7
1000
0000
1000
0000
0001
0000
0001
0000
0010
0100
1000
0010
0100
0001
0010
0100
,  // measure 8
0020
0100
0100
0130
,  // measure 9
1001
0000
0001
0000
1000
0000
0010
0000
0100
0000
0010
1000
0000
0001
0100
0000
,  // measure 10
0001
0000
0010
0000
0100
0000
1000
0000
0010
0000
0100
0001
0000
1000
0010
0000
,  // measure 11
1000
0000
0100
1000
0000
0100
1000
0000
0001
0000
0010
0001
0000
0010
0001
0000
,  // measure 12
1000
0000
0010
1000
0000
0010
1000
0000
0001
0000
0000
0101
0000
0000
1100
0000
,  // measure 13
1000
0100
0010
0001
0011
0010
0100
1000
,  // measure 14
0001
0000
0001
0000
0010
0000
0010
0000
1000
0000
1000
0100
0000
0100
0001
1000
,  // measure 15
0100
0010
0000
0002
0000
0000
1003
0010
0100
0010
1000
0001
0010
0100
1000
0001
,  // measure 16
0010
0100
0000
1100
0000
0000
1001
0000
0001
1000
0100
1000
0010
0100
0001
1000
,  // measure 17
0002
0000
1003
0100
0001
0100
1000
0001
,  // measure 18
1001
0000
0010
0101
0000
1100
0000
0001
,  // measure 19
1002
0000
1003
0010
0001
0010
1000
0001
,  // measure 20
1001
0000
0100
0011
0000
1010
0000
0001
,  // measure 21
1000
0000
0100
0000
0010
0000
0001
0100
0010
0000
0100
0000
0001
0000
0010
0100
,  // measure 22
1000
0000
0010
0000
0100
0000
0010
1000
0100
0000
0010
0000
0001
0000
0100
0010
,  // measure 23
0100
0100
0001
0001
1000
1000
0100
0010
,  // measure 24
0002
0000
1003
0100
0010
0100
1000
0001
,  // measure 25
1001
0101
1100
1001
0110
0000
0001
0000
,  // measure 26
1000
0001
1000
0100
0000
0010
0000
0001
0000
0001
1000
0000
0100
0000
1000
0000
,  // measure 27
0001
1000
0000
0001
0010
0001
1000
0000
0010
0000
0010
0000
0100
0001
0100
0000
,  // measure 28
0001
1000
0001
0010
0000
0100
0000
1000
0000
1000
0001
0000
0010
0000
0001
0000
,  // measure 29
1000
0001
1000
0000
0100
1000
0001
0100
0000
0100
0010
0000
1000
0000
0001
0000
,  // measure 30
1000
0001
1000
0100
0000
0010
0000
0001
0000
0001
1000
0000
0100
0000
1000
0000
,  // measure 31
0001
1000
0000
0001
0010
0001
1000
0000
0010
0100
0010
0000
0100
0000
0001
0000
,  // measure 32
0101
0000
1000
0001
0000
0010
0100
0000
1100
0000
1000
0001
0000
0010
0001
0000
,  // measure 33
1000
0100
1000
0000
0010
0100
0010
0000
0100
0000
0100
0000
0001
0000
0001
0000
,  // measure 34
1000
0100
0000
1000
0100
0000
0010
0001
0000
0010
0001
0000
1000
0000
0001
0000
,  // measure 35
0100
0010
0000
0100
0010
0000
1000
0010
1000
0001
0010
0000
0100
0000
1000
0000
,  // measure 36
0001
0010
0000
0001
0010
0000
0100
1000
0000
0100
1000
0000
0001
0000
1000
0000
,  // measure 37
0010
0100
0000
0010
0100
0000
0001
0100
0001
1000
0100
0000
0010
0001
1000
0100
,  // measure 38
0010
0001
0100
0010
1010
1000
0100
0010
,  // measure 39
0011
0000
0001
0000
0010
0000
0100
0000
1000
0100
1000
0000
0001
0000
1000
0000
,  // measure 40
1010
0000
0000
0101
0000
0000
1100
0000
0011
0000
0000
1100
0000
0000
0101
0000
,  // measure 41
1000
0000
1000
0000
0001
0000
0001
0000
1000
0100
0010
0001
0010
0100
1000
0001
,  // measure 42
0020
0030
0000
0000
0000
0000
0000
0000
0000
0000
0000
0000
0000
0000
0000
0000
0001
0000
0000
0000
0000
0000
0000
0000
1000
0000
0000
0000
0000
0000
0000
0000
0020
0000
0000
0000
0000
0000
0000
0000
0000
0000
0000
0000
0000
0000
0000
0000
0032
0000
0000
0000
0000
0000
0000
0000
0000
0000
0000
0000
0000
0000
0000
0000
,  // measure 43
0023
0000
2030
3002
0000
0023
0000
0230
0000
1300
0001
1000
0010
0100
0001
2000
,  // measure 44
0002
0000
0000
0000
3003
0000
1000
0001
0020
0000
0000
0000
2030
0000
0000
0000
,  // measure 45
3020
0000
0032
2003
0000
3020
0000
0230
0000
0301
1000
0001
0010
0100
1000
0002
,  // measure 46
2000
0000
0000
0000
3003
0000
0001
1000
0020
0000
0000
0000
0100
0000
0000
0000
,  // measure 47
0230
0000
0001
0000
0302
0000
0013
0100
,  // measure 48
0000
1001
0000
1020
0000
0130
0001
1000
,  // measure 49
0001
0010
0100
1000
2001
0000
3001
0000
,  // measure 50
1001
0000
0000
1100
0000
0000
1001
0000
0011
0000
0010
0000
0100
0000
1000
0000
,  // measure 51
1100
0100
0010
0001
1001
1000
0010
0110
,  // measure 52
0000
0101
0000
1001
1000
1000
0001
0001
,  // measure 53
0010
0100
0010
0001
1000
0010
0100
0001
1000
0001
0000
1000
0000
0001
1000
0000
,  // measure 54
0200
0000
0000
0000
0310
0000
0000
0000
1001
0000
1000
0100
0001
0000
0100
0000
,  // measure 55
1000
0000
0001
0010
0100
0000
0010
0000
0001
0000
0100
0010
1000
0000
0010
0000
,  // measure 56
0100
0000
1000
0100
0001
0000
1000
0000
0001
0000
0010
0100
1000
0000
0100
0000
,  // measure 57
1000
0000
0001
0010
1000
0000
0010
0000
0001
0000
1000
0001
0010
0000
0001
0000
,  // measure 58
1000
0000
0010
0100
0010
0000
0010
0000
1000
0000
0001
0100
1000
0000
0100
0000
,  // measure 59
0001
0000
1000
0010
0100
0000
0010
0000
1000
0000
0100
0010
0001
0000
0010
0000
,  // measure 60
0100
0000
0001
0100
1000
0000
0001
0000
1000
0000
1000
0010
0100
0000
0100
0000
,  // measure 61
0001
0000
0001
0010
1000
0000
1000
0000
0010
0000
0000
1100
0000
0000
1001
0000
,  // measure 62
2000
0000
0010
0000
3010
0000
0100
0000
1001
0000
0001
0100
0000
0001
0000
1000
,  // measure 63
0000
1000
0100
0010
0001
1000
0001
1000
0010
0000
0100
0001
0000
1000
0000
0100
,  // measure 64
0000
0100
1000
0001
0010
0100
1000
0001
1000
0000
0100
1000
0000
0010
0000
0100
,  // measure 65
0000
0100
0001
1000
0010
0100
0010
1000
0001
0010
0100
1000
0001
0000
1000
0010
,  // measure 66
0100
0001
1000
0000
0100
0000
0100
0010
0001
0000
0010
0001
0000
0100
0000
0010
,  // measure 67
0000
0010
1000
0001
0100
0010
0100
0001
1000
0100
0010
0001
1000
0000
0001
0100
,  // measure 68
0010
1000
0001
0000
0010
0000
0010
0100
1000
0000
1000
0000
0001
0000
0001
0000
,  // measure 69
1000
0010
0100
1000
0100
0010
1000
0001
0100
0000
0001
0000
0010
0100
0000
0100
,  // measure 70
1000
0001
1000
0001
2000
0000
3000
0000
0001
1000
0100
0000
0010
0000
0100
1000
,  // measure 71
0000
0001
0010
0001
1000
0010
0100
0001
1000
0100
0010
0000
0001
0000
1000
0100
,  // measure 72
0000
1000
0100
1000
0001
0100
0010
1000
0001
0000
0010
0100
0000
0010
0100
0000
,  // measure 73
1000
0001
0000
1000
0001
0000
0100
0000
0010
0000
1000
0010
0000
1000
0010
0000
,  // measure 74
1000
0100
0000
1000
0100
0000
1000
0000
0001
1000
0010
0000
0100
0000
0010
1000
,  // measure 75
0000
0001
0100
0001
1000
0100
0010
0001
1000
0010
0100
0000
0001
0000
1000
0010
,  // measure 76
0000
1000
0010
1000
0001
0010
0100
1000
0001
0000
0100
0010
0000
0100
0010
0000
,  // measure 77
1000
0001
1000
0001
0010
0100
1000
0001
0000
0000
0101
0000
0000
1100
0000
0000
,  // measure 78
1010
0000
0000
0011
0000
0000
MMMM
0000
1000
0001
0010
0000
0100
0000
0010
0001
,  // measure 79
0000
1000
0100
1000
0001
0100
0010
1000
0001
0010
0100
0000
1000
0000
0001
0010
,  // measure 80
0000
0001
0010
0001
1000
0010
0100
0001
1000
0000
0100
0010
0000
0100
0010
0000
,  // measure 81
0001
1000
0000
0001
1000
0000
0010
0000
0100
0000
0001
0100
0000
0001
0100
0000
,  // measure 82
0001
0010
0000
0001
0010
0000
0001
0000
1000
0001
0100
0000
0010
0000
0100
0001
,  // measure 83
0000
1000
0010
1000
0001
0010
0100
1000
0001
0100
0010
0000
1000
0000
0001
0100
,  // measure 84
0000
0001
0100
0001
1000
0100
0010
0001
1000
0000
0010
0100
0000
0010
0100
0000
,  // measure 85
0001
1000
0001
1000
0100
0010
0001
1000
0100
0000
0000
0011
0000
0000
0100
0000
,  // measure 86
0000
1010
0000
0000
0220
0000
0330
0000
1001
0000
0000
0000
0000
0000
0000
0000
;
