#VERSION:0.83;
#TITLE:Gate One;
#SUBTITLE:;
#ARTIST:aran;
#TITLETRANSLIT:;
#SUBTITLETRANSLIT:;
#ARTISTTRANSLIT:;
#GENRE:Crossover;
#ORIGIN:;
#CREDIT:;
#BANNER:Gate One.png;
#BACKGROUND:Gate One-bg.png;
#PREVIEWVID:;
#JACKET:Gate One-jacket.png;
#CDIMAGE:;
#DISCIMAGE:;
#LYRICSPATH:;
#CDTITLE:../cdtitle.png;
#MUSIC:Gate One.ogg;
#OFFSET:-0.046000;
#SAMPLESTART:92.044998;
#SAMPLELENGTH:15.000000;
#SELECTABLE:YES;
#BPMS:0.000=180.000;
#STOPS:66.000=0.333,
273.000=0.333;
#DELAYS:;
#WARPS:;
#TIMESIGNATURES:0.000=4=4;
#TICKCOUNTS:0.000=4;
#COMBOS:0.000=1;
#SPEEDS:0.000=1.000=0.000=0;
#SCROLLS:0.000=1.000;
#FAKES:;
#LABELS:0.000=Song Start;
#BGCHANGES:-99.000=../bg.avi=1.000=0=0=1=====,
99999=-nosongbg-=1.000=0=0=0 // don't automatically add -songbackground-
;
#KEYSOUNDS:;
#ATTACKS:
;

//---------------dance-single - ----------------
#NOTEDATA:;
#CHARTNAME:;
#STEPSTYPE:dance-single;
#DESCRIPTION:;
#CHARTSTYLE:;
#DIFFICULTY:Hard;
#METER:13;
#RADARVALUES:0.613934,0.652202,0.418217,0.201898,0.061290,596.000000,538.000000,58.000000,28.000000,0.000000,0.000000,0.000000,0.000000,0.000000,0.613934,0.652202,0.418217,0.201898,0.061290,596.000000,538.000000,58.000000,28.000000,0.000000,0.000000,0.000000,0.000000,0.000000;
#CREDIT:led_light;
#NOTES:
// measure 0
0000
0000
0000
0000
,  // measure 1
0000
0000
0000
0000
,  // measure 2
0000
0000
0000
0000
,  // measure 3
0000
0000
0000
0000
,  // measure 4
0000
0000
0000
0000
,  // measure 5
0000
0000
0000
0000
,  // measure 6
0000
0000
0000
0000
,  // measure 7
0000
0000
0000
0000
,  // measure 8
0000
0000
0000
0000
,  // measure 9
1100
0000
0000
1100
0000
0000
0010
0000
,  // measure 10
0101
0000
0000
0101
0000
0010
1000
0001
,  // measure 11
0011
0000
0000
0011
0000
0000
0100
0000
,  // measure 12
1010
0000
0000
1010
0000
0100
0001
1000
,  // measure 13
0100
0010
0001
0000
0010
0100
1000
0000
,  // measure 14
0001
0100
0010
0000
0100
0010
1000
0000
,  // measure 15
0001
0010
0001
0010
0100
1000
0100
1000
,  // measure 16
0010
0100
0010
0100
0110
0000
1001
0000
,  // measure 17
0100
1001
0010
0110
,  // measure 18
1000
0001
1000
0010
1000
0100
0010
0001
,  // measure 19
0010
0001
1000
0010
1000
0010
0100
0001
,  // measure 20
0010
0100
0000
1100
0000
0101
0000
0010
,  // measure 21
0110
0000
0100
0001
1000
0000
0001
0010
,  // measure 22
0001
0010
0100
1000
0001
1000
0010
0010
,  // measure 23
0100
0001
0010
0010
1000
0010
0001
1000
,  // measure 24
0001
1000
1100
0000
0012
0000
1003
0100
,  // measure 25
1000
0001
0010
0100
0010
0001
0100
0010
,  // measure 26
0100
0001
1000
0010
0001
0010
1000
0001
,  // measure 27
1000
0001
0010
0100
0010
0001
1000
0100
,  // measure 28
0001
0000
0100
0000
1000
0000
0000
1000
0000
0000
1100
0000
0100
0000
0010
0000
,  // measure 29
0001
0000
0100
0010
1000
0000
0001
0010
,  // measure 30
0100
0000
1000
0100
0010
0000
0001
0100
,  // measure 31
0001
0100
0010
1000
0010
1000
0200
0000
,  // measure 32
0001
1000
0310
1001
,  // measure 33
0000
0100
1100
0000
0001
0000
1010
0000
,  // measure 34
0011
0000
0000
0000
1010
0000
0000
0000
0011
0000
0000
0000
1100
0000
0000
0100
,  // measure 35
0000
0000
0010
0001
1000
0000
0000
0000
0000
0000
0001
0100
0010
0000
1000
0000
,  // measure 36
0001
0101
1100
0021
,  // measure 37
1000
0000
0031
0000
0110
0000
1000
0100
,  // measure 38
1000
0001
1000
0100
0010
0001
1000
0000
,  // measure 39
0001
0000
0000
0000
0220
0000
0000
0000
0330
0000
1000
0100
1000
0000
0001
0000
,  // measure 40
0100
0010
1000
0000
1001
0000
0001
0010
,  // measure 41
0100
0010
1000
0010
0100
0010
0001
0010
,  // measure 42
0100
0010
1000
0010
0100
0010
0001
0100
,  // measure 43
0010
0100
1000
0100
0010
0100
0001
0100
,  // measure 44
0010
0000
0100
0000
1000
0000
0100
0000
0010
0000
0100
0001
1000
0000
0000
0100
,  // measure 45
0000
0000
0010
0000
0000
0001
0000
0000
1001
0000
0000
0000
0001
0000
0000
0100
,  // measure 46
0000
0000
0010
0000
0000
1000
0000
0000
1001
0000
0000
0000
0001
0010
0000
0001
,  // measure 47
0010
0000
0100
1000
0000
0100
1000
0000
0001
0000
0100
0000
0020
0000
0000
0000
,  // measure 48
0000
0000
0130
0010
0100
0000
2002
0000
,  // measure 49
0000
0000
0000
0000
,  // measure 50
0000
0000
0000
0000
,  // measure 51
0000
0000
0000
0000
,  // measure 52
0000
0000
3003
0001
0100
0010
2000
0000
,  // measure 53
3000
0200
0300
0002
,  // measure 54
0003
0020
0030
2000
,  // measure 55
0000
0000
0000
0002
,  // measure 56
0000
0000
3003
0101
,  // measure 57
0010
1000
0001
0000
1000
0100
1000
0001
,  // measure 58
0020
0000
0030
0000
0100
1000
1100
0000
,  // measure 59
0010
0001
1000
0000
0001
0100
0001
1000
,  // measure 60
0020
0000
0030
0100
0001
1000
0001
0000
,  // measure 61
1000
1100
0000
1000
,  // measure 62
0001
0011
0000
1000
,  // measure 63
1000
0000
0001
0000
0001
0000
0010
0001
,  // measure 64
0100
0010
1000
0010
1000
0100
0010
0001
,  // measure 65
1000
0000
0100
0010
0001
0000
0100
0010
,  // measure 66
1000
0000
0001
0100
0010
0000
1000
0100
,  // measure 67
1000
0100
0010
0001
0010
0001
1000
0100
,  // measure 68
0010
0001
1001
0000
0200
0000
0010
0000
,  // measure 69
0000
0010
0000
0010
,  // measure 70
0000
0000
0310
0000
1100
0001
0010
0001
,  // measure 71
0100
0010
1000
0001
0010
0100
0010
0100
,  // measure 72
1000
0100
0010
0001
0100
0010
0110
0000
,  // measure 73
0001
1000
0010
0100
0001
1000
0100
0001
,  // measure 74
0100
1000
0100
0010
0001
1000
0001
0010
,  // measure 75
0001
0100
0010
1000
1010
0000
1100
0000
,  // measure 76
0011
0000
0101
0000
0010
1000
0001
1000
,  // measure 77
0100
1000
0001
0010
0001
0100
0010
0100
,  // measure 78
1000
0100
0010
1000
0001
0010
0100
0010
,  // measure 79
1000
0010
0100
1000
0001
0010
0001
1000
,  // measure 80
0010
0000
0000
0010
0000
0000
0110
0000
0001
0000
1000
0000
0010
0000
0000
0000
,  // measure 81
0100
0001
0010
0000
0001
1000
0100
0000
,  // measure 82
1000
0100
0010
0000
0001
0010
0100
1000
,  // measure 83
0001
0010
0100
1000
1100
0000
0011
0000
,  // measure 84
0101
0000
0000
0000
1010
0000
0000
0000
0100
0000
0001
0010
0002
0000
0000
0000
,  // measure 85
2003
0100
0100
0000
3002
0100
0100
0000
,  // measure 86
1003
0010
0100
0001
0020
0100
0100
0000
,  // measure 87
0032
0010
0010
0000
2003
0100
0100
0000
,  // measure 88
3020
0100
0100
0000
1030
0100
0010
0001
,  // measure 89
0000
1100
0000
0102
0000
1003
0100
1000
,  // measure 90
0001
0100
0010
1000
0001
0010
0001
0010
,  // measure 91
0100
1000
0100
1000
2002
0000
3003
0000
,  // measure 92
0110
0000
1001
0000
0001
0010
0001
0010
,  // measure 93
1000
0010
1000
0010
0100
1000
0100
1000
,  // measure 94
0001
0010
0100
1000
0001
0100
0001
0100
,  // measure 95
1000
0100
1000
0100
0010
1000
0010
1000
,  // measure 96
0001
0100
0010
1000
0001
0010
0100
1000
,  // measure 97
0000
0011
0000
2010
0000
3001
0010
0001
,  // measure 98
1000
0100
0010
0001
0100
0010
1000
0001
,  // measure 99
0100
0010
1000
0001
0010
0100
0010
0100
,  // measure 100
0010
0000
0000
0010
0000
0000
0100
0000
1001
0000
0000
0000
0000
0000
0000
0000
;

//---------------dance-single - ----------------
#NOTEDATA:;
#CHARTNAME:;
#STEPSTYPE:dance-single;
#DESCRIPTION:;
#CHARTSTYLE:;
#DIFFICULTY:Medium;
#METER:11;
#RADARVALUES:0.457360,0.543502,0.396585,0.230740,0.021632,444.000000,389.000000,55.000000,32.000000,0.000000,0.000000,0.000000,0.000000,0.000000,0.457360,0.543502,0.396585,0.230740,0.021632,444.000000,389.000000,55.000000,32.000000,0.000000,0.000000,0.000000,0.000000,0.000000;
#CREDIT:led_light;
#NOTES:
0000
0000
0000
0000
,
0000
0000
0000
0000
,
0000
0000
0000
0000
,
0000
0000
0000
0000
,
0000
0000
0000
0000
,
0000
0000
0000
0000
,
0000
0000
0000
0000
,
0000
0000
0000
0000
,
0000
0000
0000
0000
,
1100
0000
0000
1100
0000
0000
0000
0000
,
0011
0000
0000
0011
0000
1000
0001
0000
,
0101
0000
0000
0101
0000
0000
0000
0000
,
1010
0000
0000
1010
0000
0000
0110
0000
,
1000
0100
1000
0000
0001
0000
1000
0000
,
0001
0100
0001
0000
0010
0000
0100
0000
,
1000
0100
1000
0000
0001
0010
0001
0000
,
0100
0010
0100
0000
0110
0000
2001
0000
,
0100
0000
3100
1001
,
1000
0001
0100
0000
0010
0000
1000
0000
,
0001
0010
0001
0000
1000
0000
0100
0000
,
0010
0001
0000
1000
0000
0001
0000
0000
,
0110
0001
1000
0010
,
0100
0001
1000
0000
0010
0000
1000
0000
,
1000
0100
0010
0000
0001
0000
1000
0100
,
1000
0100
1000
0000
0010
0000
1001
0000
,
0100
0010
1000
0001
,
0001
1000
0100
0000
0010
0000
0001
0000
,
1000
0010
1000
0000
0001
0000
0100
0000
,
0010
1000
0000
0001
0000
1000
0100
0000
,
0110
0001
1001
0010
,
0100
1000
0001
0000
0010
0000
0001
0100
,
0010
0000
1000
0100
0010
0000
0200
0000
,
0001
1000
0310
1001
,
0000
0001
0010
0000
0000
0000
1100
0000
,
1001
1100
1001
0011
,
0000
1000
0010
0000
0000
0000
0100
0001
,
1000
0100
0010
0001
,
1000
0000
1100
0000
0000
0000
0001
0010
,
0001
0100
0010
1000
,
0001
0000
0101
0000
0000
0000
1000
0100
,
0010
0100
1000
0000
1001
0000
0001
0100
,
0010
0000
0001
0010
0100
0000
0010
1000
,
0001
0000
1000
0100
0010
0000
0001
0010
,
0100
0000
0001
0100
0010
0000
0100
1000
,
0001
0000
0000
0000
1000
0000
0010
0000
0100
0000
0010
0000
1000
0000
0000
0100
,
0000
0000
0001
0000
0000
0100
0000
0000
1100
0000
0000
0000
0001
0000
0000
0010
,
0000
0000
1000
0000
0000
0010
0000
0000
0011
0000
0000
0000
0001
0000
0000
0001
,
0000
0000
1000
0000
0000
1000
0000
0000
0010
0000
0100
0000
0020
0000
0000
0000
,
0000
0100
0130
2002
,
0000
0000
0000
0000
,
0000
0000
0000
0000
,
0000
0000
0000
0000
,
0000
3003
1000
0002
,
0003
0020
0030
0200
,
0300
2000
3000
0002
,
0000
0000
0000
2000
,
0000
0000
3003
1010
,
0000
0000
0100
0000
0000
0000
0010
1000
,
0001
0101
0000
0011
,
0000
0000
0100
0000
0000
0000
0010
0001
,
1000
1100
0000
1000
,
0100
0011
0000
0001
,
0100
1010
0000
0010
,
0010
0000
0100
0000
0100
0000
0001
0010
,
0001
0000
1000
0100
0010
0001
0010
0100
,
0010
0000
0001
0100
0001
0000
1000
0100
,
1000
0000
0010
0100
0010
0000
1000
0100
,
0010
0000
0100
0010
0001
0000
0010
0001
,
0100
0010
0110
0000
1001
0000
0100
0000
,
0000
0100
0000
0100
,
0000
0100
1001
0010
,
1000
0000
0001
0010
1000
0010
0001
0010
,
1000
0010
0001
0110
,
0001
0000
0100
0010
1000
0000
0010
0000
,
0101
0000
0010
0100
1000
0000
0100
0000
,
0011
0000
0100
0010
0001
0000
1010
0000
,
0001
1100
0100
0010
,
0011
0000
0001
1000
0010
0000
0100
0000
,
1100
0000
0001
1000
0010
0000
0010
0000
,
0101
0000
0010
1000
0100
1000
0010
1000
,
0001
0010
0200
0001
,
0000
0001
0000
0010
,
0000
0000
0010
0000
1300
0001
0010
0000
,
0001
1000
0010
0000
0100
0000
1001
0000
,
0010
1001
1000
0012
,
2003
0100
3002
0100
,
1003
0010
0100
0001
0020
0000
0100
0000
,
0032
0010
2003
0100
,
3020
0000
0100
0000
1030
0100
0010
0001
,
0000
1000
0000
2100
0000
0000
0010
0000
,
3002
0000
0100
0000
1003
0100
0010
0000
,
0001
0100
0010
0000
0220
0000
0330
0000
,
1001
0110
2001
0100
,
3002
0010
2003
0010
,
3001
0100
0010
1000
0200
0000
0010
0000
,
2300
0100
3002
0010
,
0203
0000
0010
0000
0301
0010
0100
1000
,
0000
0001
0000
0012
0000
0000
0100
0000
,
2003
0000
0010
0000
3001
0010
1000
0000
,
0010
0001
1000
0000
0010
0100
0010
0100
,
0010
0100
1001
0000
;

//---------------dance-single - ----------------
#NOTEDATA:;
#CHARTNAME:;
#STEPSTYPE:dance-single;
#DESCRIPTION:;
#CHARTSTYLE:;
#DIFFICULTY:Easy;
#METER:8;
#RADARVALUES:0.369803,0.507268,0.396585,0.216319,0.000000,359.000000,304.000000,55.000000,30.000000,0.000000,0.000000,0.000000,0.000000,0.000000,0.369803,0.507268,0.396585,0.216319,0.000000,359.000000,304.000000,55.000000,30.000000,0.000000,0.000000,0.000000,0.000000,0.000000;
#CREDIT:led_light;
#NOTES:
0000
0000
0000
0000
,
0000
0000
0000
0000
,
0000
0000
0000
0000
,
0000
0000
0000
0000
,
0000
0000
0000
0000
,
0000
0000
0000
0000
,
0000
0000
0000
0000
,
0000
0000
0000
0000
,
0000
0000
0000
0000
,
1000
0000
0000
1010
0000
0000
0000
0000
,
0001
0000
0000
0011
0000
0001
0000
0000
,
1000
0000
0000
1100
0000
0000
0000
0000
,
0001
0000
0000
0101
0000
0000
0001
0000
,
1000
1000
0100
0100
,
0010
0010
0001
0001
,
0100
0100
0010
0010
,
0100
0010
0110
1001
,
0100
0010
0001
1000
,
1000
0100
1000
0010
,
0010
0100
0001
0010
,
0000
0100
0000
0100
0000
0100
0000
0000
,
1001
0001
0100
0010
,
0010
1000
0001
0010
,
0010
1000
0010
0001
,
1000
1001
0000
0110
,
0001
1000
0100
0010
,
0001
0010
0100
1000
,
0010
0001
0010
1000
,
0000
0001
0000
0001
0000
0001
0010
0000
,
0101
0010
1100
0010
,
0001
1000
0010
0001
,
0001
0010
1000
0200
,
0000
0020
0330
0110
,
0000
1001
0000
0110
,
1001
0110
1001
0110
,
0000
0110
0000
1001
,
0110
1001
0110
1001
,
0010
0100
0000
0110
,
1001
0110
1001
0100
,
0010
0100
0000
0110
,
0110
0001
1000
0001
,
0010
0100
1000
0001
,
0010
0100
1000
0010
,
0100
0001
1000
0010
,
0100
0001
0010
0001
,
0000
0001
0000
0000
0011
0000
1000
0000
,
0000
1000
0000
0000
1100
0000
0010
0000
,
0000
0001
0000
0000
1000
0000
0020
0000
,
0000
0200
0330
2002
,
0000
0000
0000
0000
,
0000
0000
0000
0000
,
0000
0000
0000
0000
,
0000
3003
0000
2000
,
3000
0200
0300
0020
,
0030
0002
0003
2000
,
0000
0000
0000
0000
,
0000
0000
3000
0001
,
0000
1000
0000
0100
,
1000
1010
0000
1000
,
0000
0001
0000
0010
,
0001
0101
0000
0010
,
0100
0010
0000
1000
,
0100
1000
0000
0001
,
0010
1000
0010
0001
,
0100
1000
0100
0002
,
0013
0002
0103
2000
,
3010
2000
3100
0010
,
0100
0010
0100
0010
,
0010
0110
1001
0000
,
0100
0000
0100
0000
,
0100
0000
1001
0100
,
0010
0001
1000
1000
,
0010
0010
0100
1001
,
0100
1000
0010
0001
,
0010
1000
0100
0001
,
0100
1000
0110
0001
,
0110
1000
0001
0001
,
1100
0001
0010
0010
,
0101
1000
0001
0001
,
0110
1000
0010
0010
,
0001
0010
2000
0100
,
0000
0100
0000
0010
,
0000
0010
3001
0100
,
1000
0100
0110
0110
,
1001
0110
0010
1001
,
0002
0010
2003
0100
,
3010
0100
0002
0010
,
2003
0100
3020
0100
,
2030
0000
0100
0000
3001
0000
1000
0010
,
0000
0100
0000
0020
0000
0000
0100
0000
,
2030
0100
3002
0010
,
2003
3010
0220
0330
,
1001
0110
0001
0001
,
0010
0010
1000
1000
,
0010
0001
0100
0100
,
1000
1000
0100
0100
,
0001
0000
1000
0000
0100
0000
0010
0100
,
0000
1000
0000
0020
0000
0000
0100
0000
,
2030
0100
3001
0010
,
0100
1000
0010
0010
,
0110
1001
0110
0000
;

//---------------dance-single - ----------------
#NOTEDATA:;
#CHARTNAME:;
#STEPSTYPE:dance-single;
#DESCRIPTION:;
#CHARTSTYLE:;
#DIFFICULTY:Beginner;
#METER:5;
#RADARVALUES:0.210139,0.326101,0.151423,0.237951,0.000000,204.000000,183.000000,21.000000,33.000000,0.000000,0.000000,0.000000,0.000000,0.000000,0.210139,0.326101,0.151423,0.237951,0.000000,204.000000,183.000000,21.000000,33.000000,0.000000,0.000000,0.000000,0.000000,0.000000;
#CREDIT:led_light;
#NOTES:
0000
0000
0000
0000
,
0000
0000
0000
0000
,
0000
0000
0000
0000
,
0000
0000
0000
0000
,
0000
0000
0000
0000
,
0000
0000
0000
0000
,
0000
0000
0000
0000
,
0000
0000
0000
0000
,
0000
0000
0000
0000
,
1001
0000
0000
0000
,
1001
0000
0000
0000
,
0110
0000
0000
0000
,
0110
0000
0000
0000
,
1000
0000
1000
0000
,
0001
0000
0001
0000
,
1000
0000
0001
0000
,
2000
0000
3000
0010
,
0000
0000
0000
0001
,
0000
0001
0000
0010
,
0000
0010
0000
1000
,
0000
0001
0000
0000
,
0010
0010
0000
1000
,
0000
1000
0000
0100
,
0000
0001
0000
1001
,
0000
0000
0000
0100
,
0000
0100
0000
1000
,
0000
1000
0000
0100
,
0000
0100
0000
0001
,
0000
1000
0000
0001
,
0001
0001
0000
0010
,
0010
0010
0000
0100
,
0100
0100
0010
0200
,
0000
0300
0000
0110
,
0000
0110
0000
0001
,
0001
0001
1000
0001
,
0000
1001
0000
0010
,
0010
0100
0010
0100
,
0000
0010
0000
1000
,
1000
0001
1000
0001
,
0000
0100
0000
0010
,
0010
0010
0100
0020
,
0000
0000
0000
0000
,
0030
2000
3000
0002
,
0000
0000
0000
0000
,
0003
0020
0030
0200
,
0000
0300
0110
2000
,
0000
3000
1001
0100
,
0100
0010
0100
0020
,
0000
0000
0030
2002
,
0000
0000
0000
0000
,
0000
0000
0000
0000
,
0000
0000
0000
0000
,
0000
3003
0000
0001
,
0000
0100
0000
1000
,
0000
0010
0000
0002
,
0000
0000
0000
0000
,
0000
0003
0000
1000
,
0000
1001
0000
0010
,
0000
0000
0000
0001
,
0000
1001
0000
0100
,
0000
0000
0000
1000
,
0000
1001
0000
0001
,
0000
1001
0000
0010
,
0000
0010
0000
0100
,
0010
0100
0000
0001
,
0000
0010
0000
0100
,
0000
1000
0000
0010
,
0100
0010
0100
0020
,
0000
0030
1001
0000
,
0010
0000
0100
0000
,
0010
0000
1000
1000
,
1000
0000
0001
0001
,
0001
0000
0010
0000
,
0100
0000
1000
0000
,
0010
0000
0001
0000
,
0100
0000
1000
1000
,
0001
0000
0010
0100
,
0010
0000
0100
0010
,
0100
0000
1000
0001
,
1000
0000
0001
1000
,
0001
0000
2000
0000
,
0000
0000
0000
0000
,
0000
3000
0002
0000
,
0000
0000
0003
1001
,
1001
0000
0000
0110
,
0020
0030
2000
3000
,
0001
1000
0200
0300
,
0002
0003
0020
0030
,
2000
3000
0002
0003
,
0010
0010
0020
0030
,
0200
0300
2000
3000
,
0002
0003
0020
0030
,
0220
0330
0001
0001
,
0001
0000
0010
0010
,
0010
0000
1000
1000
,
1000
0000
0100
0100
,
0100
0000
0110
0000
,
0001
0001
0002
0003
,
2000
3000
0200
0000
,
0000
0300
0020
0000
,
0000
0000
0030
0000
;

//---------------dance-double - ----------------
#NOTEDATA:;
#CHARTNAME:;
#STEPSTYPE:dance-double;
#DESCRIPTION:;
#CHARTSTYLE:;
#DIFFICULTY:Hard;
#METER:13;
#RADARVALUES:0.618055,0.652202,0.432638,0.187477,0.061290,600.000000,540.000000,60.000000,26.000000,0.000000,0.000000,0.000000,0.000000,0.000000,0.618055,0.652202,0.432638,0.187477,0.061290,600.000000,540.000000,60.000000,26.000000,0.000000,0.000000,0.000000,0.000000,0.000000;
#CREDIT:led_light;
#NOTES:
00000000
00000000
00000000
00000000
,
00000000
00000000
00000000
00000000
,
00000000
00000000
00000000
00000000
,
00000000
00000000
00000000
00000000
,
00000000
00000000
00000000
00000000
,
00000000
00000000
00000000
00000000
,
00000000
00000000
00000000
00000000
,
00000000
00000000
00000000
00000000
,
00000000
00000000
00000000
00000000
,
00110000
00000000
00000000
00110000
00000000
00000000
00001000
00000000
,
01010000
00000000
00000000
01010000
00000000
00001000
00010000
00000010
,
00001010
00000000
00000000
00001010
00000000
00000000
00010000
00000000
,
00001100
00000000
00000000
00001100
00000000
00010000
00001000
00100000
,
00001000
00010000
00100000
00000000
01000000
00010000
10000000
00000000
,
01000000
00010000
00001000
00000000
00010000
00001000
00000100
00000000
,
00000010
00001000
00000010
00001000
00000001
00000010
00000001
00000010
,
00001000
00010000
01000000
10000000
11000000
00000000
00110000
00000000
,
00001000
01100000
00001000
00011000
,
00010000
00000010
00000001
00000010
00001000
00000001
00000010
00000100
,
00000010
00000100
00001000
00000001
00000010
00000001
00000100
00001000
,
00010000
00100000
00000000
01010000
00000000
11000000
00000000
01000000
,
01100000
00000000
10000000
00010000
00100000
00000000
01000000
10000000
,
00100000
00010000
00100000
10000000
00010000
00000000
00100000
01000000
,
00100000
01000000
00010000
00001000
00010000
00001000
00000100
00000100
,
00000010
00000010
00000110
00000000
00001002
00000000
00000013
00000100
,
00000010
00000001
00000010
00001000
00010000
00000100
00001000
00000010
,
00001000
00000010
00000100
00001000
00000100
00000001
00001000
00000100
,
00001000
00000001
00000010
00000100
00000010
00001000
00010000
00100000
,
10000000
00000000
01000000
00000000
00100000
00000000
00000000
00100000
00000000
00000000
10010000
00000000
00010000
00000000
01000000
00000000
,
00100000
00000000
10000000
01000000
00010000
00000000
00001000
00000100
,
00000001
00000000
00001000
00000100
00000010
00000000
00000001
00000010
,
00000100
00001000
00010000
01000000
00100000
10000000
10010000
00000000
,
00110000
01010000
00011000
00001100
,
00000000
00000010
00000110
00000000
00000001
00000000
00011000
00000000
,
00001001
00000000
00000000
00000000
00011000
00000000
00000000
00000000
00000110
00000000
00000000
00000000
00001001
00000000
00000000
00000001
,
00000000
00000000
00000010
00000100
00000010
00000000
00000000
00000000
00000000
00000000
00000100
00001000
00000001
00000000
00001000
00000000
,
00000100
00001000
00000010
00000100
00000001
00000010
00000100
00000000
,
00010000
00000000
00001000
00000000
01100000
00000000
10000000
00010000
,
00100000
00010000
01000000
00100000
10000000
01000000
00100000
00000000
,
01000000
00000000
00000000
00000000
20020000
00000000
00000000
00000000
30030000
00000000
10000000
01000000
10000000
00000000
00100000
00000000
,
00010000
00001000
00010000
00000000
00011000
00000000
00010000
00001000
,
00010000
01000000
00010000
00000100
00010000
01000000
00010000
00001000
,
00010000
00100000
00010000
10000000
00010000
00100000
00010000
00001000
,
00000010
00001000
00100000
00001000
00000010
00001000
00010000
00001000
,
00000100
00000000
00001000
00000000
00000001
00000000
00001000
00000000
00000100
00000000
00001000
00010000
00001000
00000000
00000000
00010000
,
00000000
00000000
01000000
00000000
00000000
10000000
00000000
00000000
10010000
00000000
00000000
00000000
10000000
00000000
00000000
00100000
,
00000000
00000000
00010000
00000000
00000000
00001000
00000000
00000000
00011000
00000000
00000000
00000000
00001000
00000010
00000000
00001000
,
00000010
00000000
00000001
00000100
00000000
00000001
00000100
00000000
00000010
00000000
00001000
00000000
00000002
00000000
00000000
00000000
,
00000000
00000000
00000013
00000100
00000010
00000000
00002002
00000000
,
00000000
00000000
00000000
00000000
,
00000000
00000000
00000000
00000000
,
00000000
00000000
00000000
00000000
,
00000000
00000000
00003003
00001000
00000010
00000100
00000002
00000000
,
00000003
00000020
00000030
00000200
,
00000300
00020000
00030000
00002000
,
00000000
00000000
00000000
00020000
,
00000000
00000000
00033000
00011000
,
00001000
00010000
01000000
00000000
10000000
01000000
00100000
00010000
,
00200000
00000000
00300000
00000000
00001000
00010000
00011000
00000000
,
00010000
00001000
00000100
00000000
00000001
00000100
00000010
00001000
,
00000020
00000000
00000030
00001000
00000100
00010000
00001000
00000000
,
00100000
00110000
00000000
00010000
,
00000010
00001010
00000000
00010000
,
00010000
00000000
00001000
00000000
00001000
00000000
00100000
00010000
,
01000000
00100000
00010000
00100000
01000000
00010000
00100000
01000000
,
10000000
00000000
01000000
00010000
00001000
00000000
00010000
00001000
,
00000100
00000000
00000010
00000100
00000001
00000000
00001000
00000100
,
00001000
00000100
00000010
00001000
00000010
00001000
00010000
01000000
,
10000000
00010000
10010000
00000000
00200000
00000000
01000000
00000000
,
00000000
01000000
00000000
01000000
,
00000000
00000000
01300000
00000000
00011000
00001000
00100000
00001000
,
00010000
00000010
00010000
00001000
00000010
00000100
00000010
00000001
,
00001000
00000010
00000100
00000001
00000100
00000010
00000110
00000000
,
00000001
00000010
00000100
00000010
00000001
00000100
00000010
00000100
,
00001000
00010000
01000000
10000000
01000000
00100000
01000000
00010000
,
01000000
10000000
00010000
00100000
00101000
00000000
01010000
00000000
,
00010010
00000000
00001100
00000000
00000011
00000001
00001000
00000100
,
00001000
00000010
00000100
00000001
00000010
00000100
00000010
00001000
,
00010000
00100000
10000000
00100000
01000000
00100000
00010000
00100000
,
10000000
00010000
00100000
01000000
10000000
01000000
00100000
00010000
,
10000000
00000000
00000000
10000000
00000000
00000000
11000000
00000000
01000000
00000000
00100000
00000000
00010000
00000000
00000000
00000000
,
01000000
00100000
00010000
00000000
00001000
00000100
00000010
00000000
,
00001000
00000100
00000010
00000000
00001000
00010000
00001000
00010000
,
00100000
10000000
01000000
00010000
00011000
00000000
00001010
00000000
,
00001100
00000000
00000000
00000000
00011000
00000000
00000000
00000000
00000100
00000000
00010000
00001000
00020000
00000000
00000000
00000000
,
00030010
00000100
00000020
00000000
00010030
00000100
00000020
00000000
,
00000130
00010000
00000010
00000100
00001000
01000000
00200000
00000000
,
01300000
00001000
00200000
00000000
01300000
00100000
00002000
00000000
,
00013000
00100000
02000000
00000000
03001000
00010000
00001000
00000010
,
00000000
00000011
00000000
00002100
00000000
00003001
00001000
00000010
,
00000100
00001000
00000100
00001000
00010000
00001000
00010000
00001000
,
00010000
00100000
00010000
00100000
02200000
00000000
03300000
00000000
,
10010000
00000000
01100000
00000000
10000000
01000000
10000000
01000000
,
00100000
00010000
00100000
00010000
01000000
00001000
01000000
00001000
,
00010000
00000100
00000010
00000010
00000001
00000100
00000001
00000100
,
00000010
00001000
00000010
00001000
00000100
00010000
00000100
00010000
,
00001000
01000000
00100000
00010000
00001000
00010000
00001000
00000010
,
00000000
00000011
00000000
00002100
00000000
00003001
00001000
00000010
,
00000100
00001000
00000100
00001000
00010000
00001000
00010000
00001000
,
00010000
00100000
00010000
00100000
10000000
01000000
00010000
00001000
,
00000100
00000000
00000000
00000001
00000000
00000000
00000010
00000000
00000110
00000000
00000000
00000000
00000000
00000000
00000000
00000000
;

//---------------dance-double - ----------------
#NOTEDATA:;
#CHARTNAME:;
#STEPSTYPE:dance-double;
#DESCRIPTION:;
#CHARTSTYLE:;
#DIFFICULTY:Medium;
#METER:11;
#RADARVALUES:0.456330,0.507268,0.360532,0.245162,0.028843,443.000000,393.000000,50.000000,34.000000,0.000000,0.000000,0.000000,0.000000,0.000000,0.456330,0.507268,0.360532,0.245162,0.028843,443.000000,393.000000,50.000000,34.000000,0.000000,0.000000,0.000000,0.000000,0.000000;
#CREDIT:led_light;
#NOTES:
00000000
00000000
00000000
00000000
,
00000000
00000000
00000000
00000000
,
00000000
00000000
00000000
00000000
,
00000000
00000000
00000000
00000000
,
00000000
00000000
00000000
00000000
,
00000000
00000000
00000000
00000000
,
00000000
00000000
00000000
00000000
,
00000000
00000000
00000000
00000000
,
00000000
00000000
00000000
00000000
,
00110000
00000000
00000000
00110000
00000000
00000000
00000000
00000000
,
00001010
00000000
00000000
00001010
00000000
00010000
00001000
00000000
,
01010000
00000000
00000000
01010000
00000000
00000000
00000000
00000000
,
00001100
00000000
00000000
00001100
00000000
00000000
00011000
00000000
,
00001000
00100000
00010000
00000000
10000000
00000000
10000000
00000000
,
00100000
01000000
00001000
00000000
00010000
00000000
00010000
00000000
,
00000010
00000100
00001000
00000000
00000100
00001000
00010000
00000000
,
00001000
00010000
01000000
00000000
01100000
00000000
10010000
00000000
,
01000000
00000000
01000000
01100000
,
00010000
10000000
01000000
00000000
00100000
00000000
00001000
00000000
,
01000000
00010000
01000000
00000000
00100000
00000000
10000000
00000000
,
01000000
00010000
00000000
00001000
00000000
00010000
00000000
00000000
,
00011000
00010000
00000010
00001000
,
00001000
00000001
00000100
00000000
00000010
00000000
00001000
00000000
,
00000001
00000010
00000001
00000000
00000010
00000000
00000100
00010000
,
00000100
00010000
00001000
00000000
01000000
00000000
00011000
00000000
,
00010000
00001000
00100000
00010000
,
00010000
01000000
00100000
00000000
10000000
00000000
00010000
00000000
,
00100000
01000000
00100000
00000000
00001000
00000000
00010000
00000000
,
00000010
00000000
00001000
00000000
00000100
00000000
00000000
00000100
00000000
00000000
00000010
00000000
00000001
00000000
00001000
00000000
,
00000001
00000000
00000100
00000010
00000100
00000000
00001000
00010000
,
00001000
00000000
01000000
00100000
01000000
00000000
00010000
00100000
,
01000000
00000000
10000000
01000000
00100000
00000000
00002000
00000000
,
00100000
00010000
01003000
10010000
,
00000000
01000000
00100000
00000000
00000000
00000000
11000000
00000000
,
00110000
00000000
00000000
00000000
11000000
00000000
00000000
00000000
00110000
00000000
00000000
00000000
00011000
00000000
00000000
00001000
,
00000000
00010000
00000010
00000000
00000000
00000000
00000100
00000001
,
00001000
00000010
00000100
00000001
,
00000010
00000000
00000220
00000000
00000330
00000000
00001000
00000100
,
00001000
00000010
00000100
00001000
,
00010000
00000000
00022000
00000000
00033000
00000000
00100000
00010000
,
01000000
00100000
10000000
00000000
10010000
00000000
10000000
01000000
,
10000000
00000000
01000000
00010000
00001000
00000000
00010000
00001000
,
00010000
00000000
00001000
00000100
00000001
00000000
00000001
00000010
,
00000001
00000000
00000010
00001000
00010000
00000000
00001000
00010000
,
00001000
00000000
00000000
00000000
00010000
00000000
00100000
00000000
10000000
00000000
00000000
00000000
00010000
00000000
00000000
00100000
,
00000000
00000000
01000000
00000000
00000000
00100000
00000000
00000000
00001000
00000000
00000000
00000000
00010000
00000000
00000000
00000010
,
00000000
00000000
00000100
00000000
00000000
00000010
00000000
00000000
00001000
00000000
00000000
00000000
00000001
00000000
00000000
00000001
,
00000000
00000000
00000010
00000000
00000000
00000010
00000000
00000000
00001000
00000000
00010000
00000000
00002000
00000000
00000000
00000000
,
00000000
01003000
00100000
02200000
,
00000000
00000000
00000000
00000000
,
00000000
00000000
00000000
00000000
,
00000000
00000000
00000000
00000000
,
00000000
00000000
03300000
10000000
00010000
00000000
20000000
00000000
,
30000000
02000000
03000000
00020000
,
00030000
00002000
00003000
00000200
,
00000000
00000000
00000000
00000020
,
00000000
00000000
00000330
00000100
,
00000000
00000000
00001001
00000000
00000000
00000000
00000001
00000010
,
00000001
00001100
00000000
00010000
,
00000000
00000000
00011000
00000000
00000000
00000000
00000010
00001000
,
00000010
00000101
00000000
00000100
,
00001000
00011000
00000000
00010000
,
00100000
10100000
00000000
00010000
,
00010000
00000000
10000000
00000000
10000000
00000000
01000000
00100000
,
01000000
00000000
10000000
00010000
10000000
00010000
01000000
00100000
,
10000000
00000000
00100000
01000000
00010000
00000000
00100000
00001000
,
00010000
00000000
00000100
00001000
00000010
00000000
00000100
00000001
,
00000010
00000000
00000100
00000010
00000001
00000000
00000100
00000010
,
00010000
00000100
00001000
00000000
00011000
00000000
00000100
00000000
,
00000000
00000100
00000000
00000010
,
00000000
00000010
00001001
00000001
,
00000010
00000000
00001000
00000000
00010000
00000100
00010000
00001000
,
00010000
00100000
01000000
01010000
,
00100000
00000000
10000000
01000000
10000000
00000000
00100000
00000000
,
10010000
00000000
00010000
01000000
00010000
00000000
00100000
00000000
,
00011000
00000000
00010000
00001000
00000010
00000000
00001100
00000000
,
00000001
00000110
00000001
00000001
,
00001001
00000000
00000100
00000010
00001000
00000000
00001000
00000000
,
00011000
00000000
00010000
01000000
00100000
00000000
00100000
00000000
,
10010000
00000000
01000000
00000000
10000000
00100000
00010000
00000000
,
00001000
00011000
00000002
00000100
,
00000000
00001000
00000000
00000100
,
00000000
00000000
00001003
00000000
00000001
00000010
00001000
00000000
,
00010000
01000000
10000000
00000000
01000000
00000000
00110000
00000000
,
00001000
00000110
00000001
00001001
,
00000002
00000010
00002003
00000100
,
00003010
00000100
00001000
00010000
00200000
00000000
01000000
00000000
,
20300000
01000000
30020000
01000000
,
00230000
00000000
01000000
00000000
00301000
00010000
00001000
01000000
,
00000000
00100000
00000000
20100000
00000000
00000000
30020000
00000000
,
00130000
01000000
10000000
00000000
01000000
00010000
00001000
00000000
,
00001000
00010000
00100000
00000000
02200000
00000000
03300000
00000000
,
10010000
01100000
00020000
00100000
,
20030000
01000000
30020000
00100000
,
01030000
00100000
00010000
00001000
00000200
00000000
00000010
00000000
,
00000302
00000010
00002003
00000010
,
00003200
00000000
00000010
00000000
00010300
00001000
00010000
00000010
,
00000000
00000100
00000000
00000102
00000000
00000000
00002003
00000000
,
00003100
00000010
00000001
00000000
00000010
00001000
00010000
00000000
,
00001000
00010000
00100000
00000000
10000000
01000000
00010000
00001000
,
00000100
00000001
00001001
00000000
;

//---------------dance-double - ----------------
#NOTEDATA:;
#CHARTNAME:;
#STEPSTYPE:dance-double;
#DESCRIPTION:;
#CHARTSTYLE:;
#DIFFICULTY:Easy;
#METER:8;
#RADARVALUES:0.361562,0.471035,0.338900,0.317268,0.003605,351.000000,304.000000,47.000000,44.000000,0.000000,0.000000,0.000000,0.000000,0.000000,0.361562,0.471035,0.338900,0.317268,0.003605,351.000000,304.000000,47.000000,44.000000,0.000000,0.000000,0.000000,0.000000,0.000000;
#CREDIT:led_light;
#NOTES:
00000000
00000000
00000000
00000000
,
00000000
00000000
00000000
00000000
,
00000000
00000000
00000000
00000000
,
00000000
00000000
00000000
00000000
,
00000000
00000000
00000000
00000000
,
00000000
00000000
00000000
00000000
,
00000000
00000000
00000000
00000000
,
00000000
00000000
00000000
00000000
,
00000000
00000000
00000000
00000000
,
00100000
00000000
00000000
00110000
00000000
00000000
00000000
00000000
,
00000010
00000000
00000000
00001010
00000000
00000010
00000000
00000000
,
00000100
00000000
00000000
00001100
00000000
00000000
00000000
00000000
,
01000000
00000000
00000000
01010000
00000000
00000000
00011000
00000000
,
00100000
00100000
00010000
00010000
,
01000000
01000000
00100000
00100000
,
10000000
01000000
00010000
00001000
,
00000100
00000001
00001001
00000110
,
00000001
00000000
00000001
00000110
,
00000001
00000010
00001000
00010000
,
00010000
00001000
00001000
01000000
,
00000000
00100000
00000000
10000000
00000000
00010000
00000000
00000000
,
01100000
00010000
00100000
01000000
,
01000000
10000000
00010000
00100000
,
00100000
01000000
01000000
00010000
,
00001000
00011000
00000000
00011000
,
00000010
00001000
00000001
00000100
,
00000100
00000010
00001000
00000001
,
00000001
00000010
00000010
00000100
,
00010000
00000000
00000000
00000000
00001000
00000000
00000000
00001000
00000000
00000000
01000000
00000000
00010000
00000000
00000000
00000000
,
00010000
00100000
00100000
01000000
,
01000000
10000000
10000000
00020000
,
00230000
02300000
03020000
00032000
,
00100000
00010000
01003000
00011000
,
00000000
00001010
00000000
00000001
,
00000001
00001000
00001000
00000010
,
00000000
00000110
00000000
00001000
,
00001000
00000001
00000001
00000010
,
00001000
00010000
00000000
00011000
,
00001000
00100000
00100000
00010000
,
10000000
02200000
03300000
10000000
,
00010000
00001000
00011000
00000100
,
00000100
00000001
00000001
00000010
,
00000010
00001000
00010000
00100000
,
00100000
10000000
10000000
01000000
,
01000000
00010000
00001000
00000100
,
00000000
00000100
00000000
00000000
00011000
00000000
01000000
00000000
,
00000000
01000000
00000000
00000000
00011000
00000000
00100000
00000000
,
00000000
00100000
00000000
00000000
00011000
00000000
00000020
00000000
,
00000000
00000200
00000330
00002002
,
00000000
00000000
00000000
00000000
,
00000000
00000000
00000000
00000000
,
00000000
00000000
00000000
00000000
,
00000000
00003003
00000001
00000020
,
00000030
00002000
00003000
00020000
,
00030000
02000000
03000000
20000000
,
00000000
00000000
00000000
00020000
,
00000000
00000000
30030000
00100000
,
00000000
01100000
00000000
01000000
,
00010000
00101000
00000000
00001000
,
00000000
00011000
00000000
00010000
,
00000100
00001010
00000000
00000001
,
00000010
00001100
00000000
00001000
,
00000001
00000110
00000000
00001000
,
00001000
00010000
00010000
01000000
,
10000000
00010000
00100000
00002000
,
00013000
00200000
00310000
00020000
,
00031000
00000020
00001030
00010000
,
00010000
00001000
00001000
00000010
,
00000001
00000110
00002002
00000000
,
00000000
00000000
00000000
00000000
,
00000000
00003003
00000110
00000001
,
00001000
00000010
00001000
00001000
,
00000100
00000010
00000001
00000110
,
00001000
00010000
00001000
00001000
,
00110000
01000000
10000000
10000000
,
01100000
00010000
00011000
00000100
,
00000110
00001000
00011000
00001000
,
00100000
00010000
10000000
10000000
,
01010000
00001000
00010000
00010000
,
00001010
00000001
00000010
00001000
,
00000010
00000001
00002000
00000000
,
00000100
00000000
00003020
00000000
,
00000100
00000000
00001030
00000001
,
00000010
00001000
00011000
00100000
,
10010000
01000000
00010000
00011000
,
00200000
00010000
00302000
00010000
,
01003000
00100000
00020000
00001000
,
00030020
00001000
00020030
00001000
,
00030200
00000000
00000010
00000000
00001300
00000000
00000001
00000100
,
00000000
00000010
00000000
00020000
00000000
00000000
00001000
00000000
,
00030200
00001000
00010300
00010000
,
00001000
01000000
02200000
03300000
,
10010000
01100000
00002000
00010000
,
02003000
00010000
03002000
00010000
,
00103000
01000000
00020000
00001000
,
00030200
00001000
00020300
00001000
,
00030020
00000000
00000100
00000000
00001030
00000000
00000001
00000010
,
00000000
00000100
00000000
00020000
00000000
00000000
00001000
00000000
,
00030020
00001000
00010030
00010000
,
00001000
00001000
00100000
01000000
,
01100000
10010000
01100000
00000000
;
