#TITLE:Garuda;
#SUBTITLE:;
#ARTIST:kors k;
#TITLETRANSLIT:;
#SUBTITLETRANSLIT:;
#ARTISTTRANSLIT:;
#GENRE:BEMANI;
#CREDIT:;
#BANNER:Garuda.png;
#BACKGROUND:Garuda-bg.png;
#LYRICSPATH:;
#CDTITLE:../cdtitle.png;
#MUSIC:Garuda.ogg;
#OFFSET:0.501000;
#SAMPLESTART:23.495001;
#SAMPLELENGTH:15.000000;
#SELECTABLE:YES;
#BPMS:0.000000=160.000000
;
#STOPS:
;
#BGCHANGES:-99.000=../bg.avi=1.000=0=0=1=====,
99999=-nosongbg-=1.000=0=0=0 // don't automatically add -songbackground-
;
#KEYSOUNDS:;
#ATTACKS:;

//---------------dance-single - ----------------
#NOTES:
     dance-single:
     :
     Medium:
     11:
     0.369647,0.531723,0.151650,0.388604,0.142172,273.000000,257.000000,16.000000,41.000000,0.000000,0.000000,0.369647,0.531723,0.151650,0.388604,0.142172,273.000000,257.000000,16.000000,41.000000,0.000000,0.000000:
0000
0000
0000
0000
,
0000
0000
0000
0000
,
0000
0000
0000
0000
,
0000
0000
0000
0000
,
0000
0000
0000
0000
,
0002
0000
0100
0000
,
2003
0000
0100
0000
,
3002
0000
0100
0000
,
0023
0000
0030
0000
,
0001
0000
1000
0000
0001
0100
1000
0100
,
0001
0000
1000
0000
0001
0100
0001
0000
,
1000
0000
0001
0000
1000
0100
0001
0100
,
1000
0000
0001
0000
0100
0010
2000
0000
,
0100
0010
3002
0203
,
0010
1000
0301
1000
,
0001
0010
1000
0010
0100
0010
0001
0000
,
0020
0000
0000
0030
,
0001
0100
0001
1000
0001
0100
0010
1000
,
0001
0100
0010
0100
0001
0000
1001
0000
,
1000
0100
1000
0000
0010
0001
1000
0000
,
0100
0001
1000
0000
0001
0000
1001
0000
,
0002
0100
0010
1000
,
2003
0100
0010
0010
,
3001
0000
0001
1000
0001
0000
0010
0000
,
0220
0000
0000
0330
,
2001
0100
0001
0100
,
3001
0100
0010
1010
,
0020
0100
2030
0100
,
3010
0010
0100
1001
,
0001
0000
0100
0000
0001
0000
0010
0000
0001
0000
0100
0000
,
0001
0000
0010
0000
0001
0000
0100
0000
0000
0110
0000
0000
,
0002
0100
0010
0100
,
2003
0100
0010
3001
,
0202
0300
2000
0000
,
0000
3000
0200
0303
,
0002
0010
0010
0000
,
2003
0100
0100
0000
,
3002
0000
0100
0000
,
0023
0000
0100
0000
,
0032
0000
0100
0000
,
0023
0000
0100
0001
,
0032
0203
0010
1000
,
0302
0100
0010
1003
,
0001
0100
0001
0000
0010
1000
0010
0000
,
0001
0100
0001
0000
0010
1000
0010
0000
,
0002
0100
2003
0100
,
3020
1000
0001
0230
,
0010
1000
1000
0301
,
2002
0000
0000
3003
,
0001
0100
0001
1000
0001
0100
0010
1000
,
0001
0100
0010
0100
0001
0000
1100
0000
,
0200
1000
0001
1000
,
0001
1000
0310
0110
,
0001
0100
0001
1000
0001
0100
0010
1000
,
0001
0100
0010
0100
0001
0000
1010
0000
,
0020
1000
0001
1000
,
0001
1000
0200
0330
,
0001
0000
0100
0000
0001
0000
0010
0000
0001
0000
0100
0000
,
0001
0000
0010
0000
0001
0000
0100
0000
0000
1100
0000
0000
,
1000
0000
0100
0000
1000
0000
0010
0000
1000
0000
0100
0000
,
1000
0000
0010
0000
1000
0000
0100
0000
0000
0101
0000
0000
,
0001
0000
0100
0000
1000
0000
0100
0000
0001
0000
0100
0000
,
1000
0000
0100
0000
0001
0000
0100
0000
0000
1001
0000
0000
,
1000
0000
1000
0000
1000
0000
0001
0000
0001
0000
0001
0000
,
0010
0000
0010
0000
0010
0000
0100
0000
0000
0000
0000
0000
,
2002
0000
0000
0000
,
3003
0000
0000
0000
;

//---------------dance-single - ----------------
#NOTES:
     dance-single:
     :
     Easy:
     9:
     0.353399,0.500445,0.255910,0.170606,0.000000,261.000000,234.000000,27.000000,18.000000,0.000000,0.000000,0.353399,0.500445,0.255910,0.170606,0.000000,261.000000,234.000000,27.000000,18.000000,0.000000,0.000000:
0000
0000
0000
0000
,
0000
0000
0000
0000
,
0000
0000
0000
0000
,
0000
0000
0000
0000
,
0000
0000
0000
0000
,
1000
0001
1000
0000
,
0001
1000
0001
0000
,
1000
0100
1000
0000
,
0001
0100
0001
0000
,
1000
1000
0001
0001
,
0010
0010
0010
0010
,
0001
0001
1000
1000
,
0100
0100
0100
0100
,
0010
0010
0001
0001
,
0100
0100
0100
0100
,
0001
0010
0100
1000
,
2002
0000
0000
3003
,
0001
0100
0010
1000
,
0001
0100
0010
2001
,
0100
0100
0100
0010
,
0100
0100
0100
3001
,
1000
0100
0010
0001
,
1000
0100
0010
1002
,
0100
0100
0100
0010
,
1003
0100
0010
1001
,
0001
0100
0001
1000
,
0001
0100
0001
1001
,
1000
0100
1000
0001
,
1000
0100
1000
1001
,
0001
0010
0100
0010
,
0100
1000
0001
1001
,
1001
0010
0010
1001
,
0100
0100
1001
0110
,
2002
0000
0000
0000
,
0000
0000
0000
0000
,
3003
0001
0100
0010
,
0100
0001
0010
0100
,
2002
0000
0000
0000
,
0000
0000
0000
0000
,
3003
0001
0010
0100
,
0010
0001
0100
0010
,
0010
1000
0010
1000
0010
0000
0010
0000
,
0010
1000
0010
1000
0010
0000
0010
0000
,
1000
0100
1000
0100
1000
0000
1000
0000
,
1000
0100
1000
0100
1000
0000
1000
0000
,
0002
0010
0010
0010
,
2003
0100
0100
0100
,
3001
0100
0010
0100
0001
0100
0010
0000
,
2002
0000
0000
3003
,
1000
0100
1000
0010
,
1000
0100
0010
0100
1000
0000
1001
0000
,
0001
0100
0001
0010
,
0001
0100
0010
0100
0001
1000
0001
0000
,
2000
0100
0100
0100
,
3002
0100
0103
1001
,
0100
1001
0010
1001
,
2002
0000
0000
3003
,
0001
0110
1000
0100
,
0010
0001
1001
1010
,
0100
0001
0011
0100
,
1000
0110
1001
0001
,
1000
0100
1000
0001
,
1000
0100
1000
1001
,
1000
0100
1000
0001
1000
0100
0010
0001
,
1000
0100
0010
0100
1000
0000
0001
0000
,
0220
0000
0000
0000
,
0330
0000
0000
0000
;

//---------------dance-single - ----------------
#NOTES:
     dance-single:
     :
     Challenge:
     15:
     0.785331,0.844502,0.890945,0.246431,0.753512,580.000000,486.000000,94.000000,26.000000,4.000000,0.000000,0.785331,0.844502,0.890945,0.246431,0.753512,580.000000,486.000000,94.000000,26.000000,4.000000,0.000000:
// measure 0
0000
0000
0000
0000
,  // measure 1
0000
0000
0000
0000
,  // measure 2
0000
0000
0000
0000
,  // measure 3
0000
0000
0000
0000
,  // measure 4
0000
0000
0000
0000
,  // measure 5
1000
0100
0001
0100
2000
0000
3000
0010
,  // measure 6
0001
0000
0010
0000
1000
0000
0001
0000
0010
0000
0100
1000
0001
0000
0010
0000
,  // measure 7
0001
0100
0010
1000
0002
0000
0003
1000
,  // measure 8
0100
0000
1000
0000
0001
0000
0010
0000
0100
0000
1000
0001
0100
0000
0010
0000
,  // measure 9
1000
0000
0100
1000
0000
0001
0010
0000
0100
0000
1000
0001
0000
1000
0010
0000
,  // measure 10
0100
0000
0001
0100
0000
0010
1000
0000
0001
0000
0010
0000
0100
0000
0010
0000
,  // measure 11
0001
0000
0100
0001
0000
1000
0010
0000
0100
0000
0001
1000
0000
0001
0010
0000
,  // measure 12
0100
0000
1000
0100
0000
0010
0001
0000
1000
0000
0010
0000
0100
0000
0010
0000
,  // measure 13
1000
0000
0010
0100
0001
0100
0010
0000
1000
0000
0001
0010
0100
0010
0001
0000
,  // measure 14
0010
0000
0100
1000
0001
1000
0100
0000
0010
0000
0001
0000
0100
0000
0010
0000
,  // measure 15
1000
0001
1000
0001
1000
0100
1000
0100
0010
0001
0010
0001
0100
0010
1000
0001
,  // measure 16
0020
0000
0000
0030
,  // measure 17
1001
0000
0000
0101
0000
0000
1010
0000
1010
0000
0000
0110
0000
0000
0101
0000
,  // measure 18
1001
0000
0000
1100
0000
0000
0011
0000
0011
0000
0010
0000
0100
0000
1000
0000
,  // measure 19
1100
0000
0000
1100
0000
0000
0101
0000
1001
0000
0000
0101
0000
0000
1010
0000
,  // measure 20
1001
0000
0000
0011
0000
0000
0110
0000
0110
0000
0100
0000
1000
0000
0001
0000
,  // measure 21
0020
0000
0000
0130
0000
0000
1100
0000
1100
0000
0000
1010
0000
0000
0101
0000
,  // measure 22
0011
0000
0000
1100
0000
0000
0110
0000
0110
0000
0100
0000
1000
0000
0010
0000
,  // measure 23
0110
0000
0000
0110
0000
0000
1001
0000
0011
0000
0000
0011
0000
0000
0110
0000
,  // measure 24
2000
3200
0320
0032
0203
0320
2000
3030
,  // measure 25
1001
0000
0000
1000
0100
0010
0100
1000
0010
0100
1000
0100
,  // measure 26
0010
0000
1000
0000
0100
0000
0010
0000
0100
0000
1000
0000
0001
0000
0000
0100
0000
0000
0010
0000
0000
1000
0000
0000
,  // measure 27
1100
0000
0000
0001
0010
0100
0010
0001
0100
0010
0001
0010
,  // measure 28
0100
0000
0001
0000
0010
0000
0100
0000
0010
0000
0001
0000
1000
0000
0010
0000
0100
0000
0020
0000
0000
0030
0000
0000
,  // measure 29
1010
0000
1000
0100
1000
0000
1010
0000
1100
0000
0110
0000
,  // measure 30
0011
0000
0001
0100
0001
0000
0011
0000
0000
0110
0000
0000
,  // measure 31
1001
0000
0000
0011
0000
0000
0110
0000
1100
0000
0000
0110
0000
0000
1001
0000
,  // measure 32
0101
0000
0000
0110
0000
0000
0100
0010
0100
0000
0001
0000
0010
0000
0100
0000
,  // measure 33
1000
0100
0001
0100
2000
0000
3000
0010
,  // measure 34
0001
0000
0010
0000
1000
0000
0001
0000
0010
0000
0100
1000
0001
0000
0010
0000
,  // measure 35
0100
1000
0010
0100
0020
0000
0030
1000
,  // measure 36
0001
0000
0010
0100
1000
0000
0010
0000
1000
0000
0100
0000
0010
0000
0001
0000
,  // measure 37
0100
0010
1000
0001
0020
0000
0030
0100
,  // measure 38
1000
0000
0001
0000
1000
0000
0010
0000
1000
0000
0100
0010
0100
0000
1000
0000
,  // measure 39
0001
0010
0100
1000
0020
0000
0030
0100
,  // measure 40
0001
0000
1000
0000
0100
0000
1000
0000
0001
0000
0010
0100
1000
0000
0001
0000
,  // measure 41
1000
0000
0100
1000
0100
0010
0001
0000
0100
0000
0010
1000
0001
0100
0010
0000
,  // measure 42
1000
0000
0100
0010
0001
1000
0100
0000
0010
0000
0001
0000
0100
0000
0010
0000
,  // measure 43
1000
0000
0010
1000
0010
0100
0001
0000
0010
0000
0100
1000
0001
0010
0100
0000
,  // measure 44
1000
0000
0010
0100
0001
1000
0010
0000
0100
0000
0001
0000
0010
0000
0100
0000
,  // measure 45
1000
0000
0100
0010
0001
0010
0100
0000
1000
0000
0001
0100
0010
0100
0001
0000
,  // measure 46
0100
0000
0010
1000
0001
1000
0010
0000
0100
0000
0001
0000
0010
0000
0100
0000
,  // measure 47
1000
1000
0001
0001
0010
0010
0100
1000
,  // measure 48
0020
0000
0000
0030
,  // measure 49
1001
0000
0000
1100
0000
0100
0000
1000
0010
0000
0000
0110
0000
0100
0001
1000
,  // measure 50
0010
0000
0000
1001
0000
0001
0010
0100
1000
0000
0000
0000
0110
0000
0000
0000
,  // measure 51
1001
0000
0000
1010
0000
0010
0000
0100
0010
0000
0000
1010
0000
1000
0010
0100
,  // measure 52
0001
0000
0000
0011
0000
0001
0010
0100
1000
0000
0100
0000
0010
0000
0001
0000
,  // measure 53
1000
0000
0000
1100
0000
1000
0000
0001
0010
0000
0000
0011
0000
0001
0010
0100
,  // measure 54
1000
0000
0000
1010
0000
0010
0100
0001
1000
0000
0000
0000
0011
0000
0000
0000
,  // measure 55
1100
0000
0000
0110
0000
0100
0000
1000
0001
0000
0000
0011
0000
0010
0100
1000
,  // measure 56
0002
2003
3200
0320
0032
0203
0020
0330
,  // measure 57
1010
0000
1010
0000
1100
0000
0101
0000
0101
0000
0011
0000
,  // measure 58
0110
0000
0110
0000
1001
0000
0110
0000
0000
1001
0000
0000
,  // measure 59
0101
0000
0101
0000
0011
0000
1010
0000
1010
0000
1100
0000
,  // measure 60
0110
0000
0110
0000
1001
0000
0110
0000
0001
0100
0010
1000
,  // measure 61
1010
0000
1000
0001
1000
0000
1001
0000
1000
0100
1000
0000
,  // measure 62
1100
0000
1000
0001
1000
0000
1001
0000
0000
0110
0000
0000
,  // measure 63
1000
0100
1000
0001
1000
0100
0010
0001
1000
0001
0010
0100
,  // measure 64
1000
0001
0100
0010
1000
0100
0010
0000
0000
MMMM
0000
0000
,  // measure 65
2002
0000
0000
0000
,  // measure 66
3003
0000
0000
0000
;

//---------------dance-single - ----------------
#NOTES:
     dance-single:
     :
     Hard:
     13:
     0.576812,0.563001,0.312778,0.246431,0.308039,426.000000,393.000000,33.000000,26.000000,0.000000,0.000000,0.576812,0.563001,0.312778,0.246431,0.308039,426.000000,393.000000,33.000000,26.000000,0.000000,0.000000:
0000
0000
0000
0000
,
0000
0000
0000
0000
,
0000
0000
0000
0000
,
0000
0000
0000
0000
,
0000
0000
0000
0000
,
0001
0100
0010
0100
0002
0000
0003
1000
,
0100
1000
0001
0010
0100
1000
0010
0010
,
1000
0100
0010
0100
2000
0000
3000
0001
,
0100
0001
1000
0010
0100
0001
0010
0100
,
1000
0010
0100
0010
1000
0010
0100
0010
,
1000
0100
0010
0100
1000
0010
0100
0001
,
0010
0100
0010
0001
0010
0100
0010
0001
,
0100
0010
0100
0001
0010
0100
1000
0001
,
1000
0100
1000
0001
0100
0010
0100
0001
,
1000
0010
1000
0001
0010
0100
0010
0001
,
0010
0010
0100
0100
1000
0010
0100
0001
,
0020
0000
0000
0030
,
0100
0000
0000
0100
0000
0000
1001
0000
0100
0000
0000
0100
0000
0000
1001
0000
,
0010
0000
0000
0010
0000
0000
0110
0000
0001
0000
0010
0000
0100
0000
1000
0000
,
0010
0000
0000
0010
0000
0000
1001
0000
0010
0000
0000
0010
0000
0000
1001
0000
,
0100
0000
0000
0100
0000
0000
0110
0000
1000
0000
0100
0000
0010
0000
0001
0000
,
2000
0000
0000
3010
0000
0000
1010
0000
0100
0000
0000
0001
0000
0000
0101
0000
,
0001
0000
0000
0010
0000
0000
0011
0000
0100
0000
1000
0000
0010
0000
0100
0000
,
0010
0000
0000
1000
0000
0000
1010
0000
0001
0000
0000
0010
0000
0000
0011
0000
,
0020
0230
2300
3002
0203
0320
2000
3030
,
1010
0000
0000
0000
1000
0000
0100
0000
0010
0000
0000
1100
0000
0000
1000
0000
,
0010
0000
0000
0110
0000
0000
0100
0000
1000
0000
1000
0000
0100
0000
0001
0000
,
0011
0000
0000
0000
0001
0000
0010
0000
0100
0000
0000
0011
0000
0000
0001
0000
,
0100
0000
0000
0110
0000
0000
0010
0000
0001
0000
0010
0000
1000
0000
1000
0000
,
0001
0000
0010
0000
1000
0000
0001
0000
0100
0000
1000
0000
,
0001
0000
0010
0000
0100
0000
1000
0000
0000
0110
0000
0000
,
1000
0000
0000
0010
0000
0000
1010
0000
0001
0000
0000
0010
0000
0000
0011
0000
,
0100
0000
0000
1000
0000
0000
1100
0000
0001
0000
0100
0000
0010
0000
1000
0000
,
0001
0010
0100
0010
0002
0000
0003
1000
,
0010
1000
0001
0100
0010
1000
0100
0100
,
1000
0010
0100
0010
2000
0000
3000
0001
,
0010
0001
1000
0100
0010
0001
0100
0010
,
1000
0100
0010
0100
2000
0000
3000
0001
,
0100
0001
1000
0010
0100
0001
0010
0010
,
0001
0100
0010
0100
0002
0000
0003
1000
,
0100
1000
0001
0010
0100
1000
0010
0100
,
0001
0010
0100
0010
0001
0010
0100
0010
,
0001
0100
0010
0100
0001
0010
0100
1000
,
0010
0100
0010
1000
0010
0100
0010
1000
,
0100
0010
0100
1000
0010
0100
0001
1000
,
0001
0100
0001
1000
0100
0010
0100
1000
,
0001
0010
0001
1000
0010
0100
0010
1000
,
0010
0010
0100
0100
0001
0001
0010
0100
,
0020
0000
0000
0030
,
0110
0000
0000
1000
0000
1000
0000
0000
0110
0000
0000
1000
0000
0000
0001
0000
,
0100
0000
0000
0010
0000
0000
1000
0000
0001
0000
0000
0000
0110
0000
0000
0000
,
1001
0000
0000
0010
0000
0010
0000
0000
1001
0000
0000
0100
0000
0000
1000
0000
,
0010
0000
0000
0100
0000
0000
0001
0000
0010
0000
0010
0000
0100
0000
1000
0000
,
0010
0000
0000
0100
0000
0100
0000
0000
1001
0000
0000
0100
0000
0000
1000
0000
,
0001
0000
0000
0100
0000
0000
0010
0000
1000
0000
0000
0000
1001
0000
0000
0000
,
0110
0000
0000
0001
0000
0001
0000
0000
0110
0000
0000
0001
0000
0000
0100
0000
,
0020
2030
3002
0023
0230
2300
0002
3003
,
0010
0000
0010
0000
0010
0000
0001
0000
0001
0000
0001
0000
,
1000
0000
1000
0000
1000
0000
0010
0000
0000
0110
0000
0000
,
0100
0000
0100
0000
0100
0000
0001
0000
0001
0000
0001
0000
,
1000
0000
1000
0000
1000
0000
0100
0000
0010
0000
0001
0000
,
1000
0000
0100
0000
0100
0000
0001
0000
0100
0000
0100
0000
,
1000
0000
0010
0000
0010
0000
0001
0000
0000
0110
0000
0000
,
1000
0000
0100
0000
0001
0000
0100
0000
1000
0000
0010
0000
,
0001
0000
0010
0000
1000
0000
0002
0000
0000
0003
0000
0000
,
0220
0000
0000
0000
,
0330
0000
0000
0000
;

//---------------dance-single - ----------------
#NOTES:
     dance-single:
     :
     Beginner:
     4:
     0.155712,0.250223,0.075825,0.094781,0.000000,115.000000,107.000000,8.000000,10.000000,0.000000,0.000000,0.155712,0.250223,0.075825,0.094781,0.000000,115.000000,107.000000,8.000000,10.000000,0.000000,0.000000:
0000
0000
0000
0000
,
0000
0000
0000
0000
,
0000
0000
0000
0000
,
0000
0000
0000
0000
,
0000
0000
0000
0000
,
0000
0000
1000
0000
,
0000
0000
1000
0000
,
0000
0000
0001
0000
,
0000
0000
0001
0000
,
1000
0000
1000
0000
,
1000
0000
1000
0000
,
0001
0000
0001
0000
,
0001
0000
0001
0000
,
0010
0000
0010
0000
,
0010
0000
0010
0000
,
0100
0000
0100
0000
,
0200
0000
0000
0300
,
0110
0000
0100
0000
,
1000
0000
0001
0000
,
0100
0000
0010
0000
,
1000
0000
0001
0000
,
0000
0000
0001
0000
,
1000
0000
0100
0000
,
0010
0000
0001
0000
,
2000
0000
0000
3000
,
1001
0000
0100
0000
,
0100
0000
0100
0000
,
1001
0000
0010
0000
,
0010
0000
0010
0000
,
0100
0000
0010
0000
,
0100
0000
0010
0000
,
1000
0000
0001
0000
,
1000
0000
0001
0000
,
0020
0000
0030
0000
,
0000
0000
0010
0000
,
0200
0000
0300
0000
,
0000
0000
0100
0000
,
2000
0000
3000
0000
,
0000
0000
1000
0000
,
0002
0000
0003
0000
,
0000
0000
0001
0000
,
1000
0000
1000
0000
,
1000
0000
1000
0000
,
0001
0000
0001
0000
,
0001
0000
0001
0000
,
0010
0000
0010
0000
,
0010
0000
0010
0000
,
0100
0000
0100
0000
,
0020
0000
0000
0030
,
0110
0000
1000
0000
,
0001
0001
0001
0000
,
0110
0000
0001
0000
,
1000
1000
1000
0000
,
1001
0000
0010
0000
,
0100
0100
0100
0000
,
1001
0000
0100
0000
,
0020
0000
0000
0030
,
0100
0000
0010
0000
,
0100
0000
0010
0000
,
0001
0000
1000
0000
,
0001
0000
1000
0000
,
0010
0000
0100
0000
,
0001
0000
1000
0000
,
0100
0000
0010
0000
,
0100
0000
0010
0000
,
2002
0000
0000
0000
,
3003
0000
0000
0000
;

//---------------dance-double - ----------------
#NOTES:
     dance-double:
     :
     Medium:
     11:
     0.369647,0.531723,0.151650,0.417038,0.142172,273.000000,257.000000,16.000000,44.000000,0.000000,0.000000,0.369647,0.531723,0.151650,0.417038,0.142172,273.000000,257.000000,16.000000,44.000000,0.000000,0.000000:
00000000
00000000
00000000
00000000
,
00000000
00000000
00000000
00000000
,
00000000
00000000
00000000
00000000
,
00000000
00000000
00000000
00000000
,
00000000
00000000
00000000
00000000
,
00000200
00000000
00001000
00000000
,
00020300
00000000
00001000
00000000
,
00030020
00000000
00000100
00000000
,
00002000
00000000
00003030
00000000
,
00000010
00000000
00001000
00000000
00000001
00000100
00001000
00000100
,
00000001
00000000
00001000
00000000
00000100
00010000
00001000
00000000
,
00100000
00000000
00010000
00000000
10000000
01000000
00010000
01000000
,
10000000
00000000
00010000
00000000
01000000
00100000
20000000
00000000
,
01000000
00100000
30020000
00230000
,
00010000
01000000
00302000
00023000
,
00031000
00010000
01000000
00010000
00001000
00000100
00000001
00000000
,
00000020
00000000
00000000
00000030
,
00001000
00010000
00001000
00010000
00000010
00001000
00000010
00001000
,
00000001
00000100
00000010
00001000
00000001
00000000
00000110
00000000
,
00001000
00000100
00001000
00000000
00010000
00001000
00010000
00000000
,
00100000
00010000
00100000
00000000
00001000
00000000
00011000
00000000
,
00002000
00010000
00100000
01000000
,
02003000
00010000
10000000
00100000
,
03001000
00000000
00001000
00010000
00000100
00000000
00001000
00000000
,
00022000
00000000
00000000
00033000
,
00010010
00001000
00000100
00001000
,
00000001
00000100
00000010
00001010
,
00000200
00001300
00020000
00031000
,
00000100
00001000
00010000
00011000
,
00001000
00000000
00010000
00000000
00001000
00000000
00010000
00000000
00000010
00000000
00001000
00000000
,
00000010
00000000
00001000
00000000
00000001
00000000
00000100
00000000
00000000
00000110
00000000
00000000
,
00000020
00001000
00000100
00001000
,
00020030
00001000
01000000
00030100
,
00022000
00030000
02000000
00000000
,
00000000
03000000
00020000
00033000
,
00002000
00010000
00010000
00003000
,
00200000
00001000
00010000
00300000
,
00002000
00000000
01000000
00000000
,
00023000
00000000
01000000
00000000
,
00030020
00000000
00000100
00000000
,
00020030
00000000
00001000
00000100
,
00032000
02003000
00010000
10000000
,
03200000
01000000
00010000
10300000
,
00010000
01000000
00010000
00000000
00001000
00010000
00001000
00000000
,
00000010
00001000
00000010
00000000
00000001
00001000
00000001
00000000
,
00000002
00000010
00002003
00000010
,
00003200
00000010
00000001
00002300
,
00000100
00000010
00000010
00003001
,
00000220
00000000
00000000
00000330
,
00000010
00001000
00000010
00001000
00000010
00000100
00000010
00001000
,
00000001
00000100
00000010
00001000
00000100
00000000
00021000
00000000
,
00032000
01000000
00000100
01000000
,
00010000
00100000
00013000
01100000
,
00010000
01000000
00100000
10000000
00010000
01000000
00100000
01000000
,
00001000
00010000
00100000
01000000
00001000
00000000
00021000
00000000
,
00032000
00100000
00000010
00100000
,
00010000
01000000
00000200
00003300
,
00000001
00000000
00000100
00000000
00000010
00000000
00001000
00000000
00000001
00000000
00000100
00000000
,
00000010
00000000
00001000
00000000
00000100
00000000
00001000
00000000
00000000
00011000
00000000
00000000
,
10000000
00000000
01000000
00000000
00100000
00000000
00010000
00000000
10000000
00000000
01000000
00000000
,
00100000
00000000
00010000
00000000
01000000
00000000
00010000
00000000
00000000
00011000
00000000
00000000
,
00001000
00000000
00010000
00000000
00100000
00000000
00010000
00000000
00001000
00000000
00010000
00000000
,
00100000
00000000
00010000
00000000
00001000
00000000
00100000
00000000
00000000
01100000
00000000
00000000
,
00010000
00000000
00010000
00000000
00010000
00000000
00001000
00000000
00001000
00000000
00001000
00000000
,
01000000
00000000
01000000
00000000
01000000
00000000
00100000
00000000
00000000
00000000
00000000
00000000
,
20020000
00000000
00000000
00000000
,
30030000
00000000
00000000
00000000
;

//---------------dance-double - ----------------
#NOTES:
     dance-double:
     :
     Easy:
     9:
     0.350691,0.500445,0.236953,0.161128,0.000000,259.000000,234.000000,25.000000,17.000000,0.000000,0.000000,0.350691,0.500445,0.236953,0.161128,0.000000,259.000000,234.000000,25.000000,17.000000,0.000000,0.000000:
00000000
00000000
00000000
00000000
,
00000000
00000000
00000000
00000000
,
00000000
00000000
00000000
00000000
,
00000000
00000000
00000000
00000000
,
00000000
00000000
00000000
00000000
,
00010000
00001000
00010000
00000000
,
00000010
00001000
00000010
00000000
,
00100000
00010000
00100000
00000000
,
00001000
00010000
00001000
00000000
,
00100000
00100000
00000010
00000010
,
00001000
00001000
00010000
00010000
,
00000010
00000010
00100000
00100000
,
00010000
00010000
00001000
00001000
,
01000000
01000000
00001000
00001000
,
00100000
00100000
01000000
01000000
,
00010000
10000000
00100000
01000000
,
20020000
00000000
00000000
30030000
,
10010000
01000000
00010000
00100000
,
00001000
00010000
00001000
00200000
,
00010000
00010000
00010000
01000000
,
00010000
00010000
00301000
00010000
,
00100000
00010000
00100000
00010000
,
00001000
00000100
00001000
00000020
,
00001000
00001000
00001000
00000100
,
00010030
01000000
00100000
10010000
,
00010000
01000000
00010000
00100000
,
00001000
00010000
00000010
00011000
,
00001000
00000100
00001000
00000010
,
00010000
00001000
00100000
00011000
,
00000100
00001000
00010000
00001000
,
00010000
00100000
00001000
00010000
,
01001000
00010000
00010000
00101000
,
00010000
00010000
01100000
10010000
,
02200000
00000000
00000000
00000000
,
00000000
00000000
00000000
00000000
,
03300000
00010000
01000000
00100000
,
00010000
00001000
00010000
01000000
,
20020000
00000000
00000000
00000000
,
00000000
00000000
00000000
00000000
,
30030000
00001000
00010000
01000000
,
00010000
00001000
00010000
00100000
,
00011000
00010000
00001000
00010000
00001000
00000000
00001000
00000000
,
00001000
00010000
00001000
00010000
00001000
00000000
00001000
00000000
,
00011000
00001000
00010000
00001000
00010000
00000000
00010000
00000000
,
00010000
00001000
00010000
00001000
00010000
00000000
00010000
00000000
,
00000020
00000100
00001000
00010000
,
00020030
00001000
00000100
00000010
,
00030010
00000100
00010000
00001000
00000010
00000100
00010000
00000000
,
00000020
00000000
00000000
00000030
,
00010000
00001000
00010000
00001000
,
01000000
00010000
00100000
00010000
01000000
00000000
00011000
00000000
,
00001000
00010000
00001000
00010000
,
00000100
00001000
00000010
00001000
00000100
00010000
00001000
00000000
,
02000000
00100000
00010000
00001000
,
03002000
00010000
00103000
10010000
,
01000000
10010000
00100000
10010000
,
02200000
00000000
00000000
03300000
,
00010000
01100000
10000000
00100000
,
00010000
00001000
00011000
00010000
,
00001000
00000001
00001100
00000010
,
00001000
00000110
00001001
00000001
,
00001000
00000100
00010000
00001000
,
01000000
00010000
00100000
00011000
,
00010000
00001000
00010000
00001000
01000000
00010000
00100000
00010000
,
10000000
01000000
00100000
01000000
10000000
00000000
00010000
00000000
,
02200000
00000000
00000000
00000000
,
03300000
00000000
00000000
00000000
;

//---------------dance-double - ----------------
#NOTES:
     dance-double:
     :
     Hard:
     13:
     0.571396,0.563001,0.293822,0.246431,0.308039,422.000000,391.000000,31.000000,26.000000,0.000000,0.000000,0.571396,0.563001,0.293822,0.246431,0.308039,422.000000,391.000000,31.000000,26.000000,0.000000,0.000000:
00000000
00000000
00000000
00000000
,
00000000
00000000
00000000
00000000
,
00000000
00000000
00000000
00000000
,
00000000
00000000
00000000
00000000
,
00000000
00000000
00000000
00000000
,
00000010
00000100
00001000
00000100
00000020
00000000
00000030
00001000
,
00010000
00000100
00010000
00001000
00100000
00010000
01000000
00100000
,
10000000
00010000
00100000
01000000
00200000
00000000
00300000
00001000
,
00010000
00001000
01000000
00001000
00010000
01000000
10000000
00010000
,
00100000
01000000
00100000
00010000
00100000
01000000
00100000
00001000
,
00010000
00000010
00001000
00000010
00000100
00000010
00001000
00000001
,
00000010
00000100
00000010
00000001
00000010
00001000
00010000
00100000
,
10000000
00100000
01000000
00100000
00010000
00100000
10000000
00010000
,
00100000
00010000
10000000
00010000
00100000
01000000
00010000
00001000
,
00000100
00000001
00001000
00000001
00000010
00001000
00010000
01000000
,
00010000
00010000
00001000
00001000
00000010
00000010
00000100
00010000
,
00002000
00000000
00000000
00003000
,
00010000
00000000
00000000
00100000
00000000
00000000
10100000
00000000
10000000
00000000
00000000
01000000
00000000
00000000
01010000
00000000
,
00010000
00000000
00000000
00001000
00000000
00000000
00001100
00000000
00001000
00000000
00000100
00000000
00000001
00000000
00000010
00000000
,
00000100
00000000
00000000
00000010
00000000
00000000
00000011
00000000
00000001
00000000
00000000
00000100
00000000
00000000
00000110
00000000
,
00000010
00000000
00000000
00010000
00000000
00000000
00011000
00000000
00001000
00000000
00100000
00000000
00010000
00000000
01000000
00000000
,
00200000
00000000
00000000
10300000
00000000
00000000
10010000
00000000
00010000
00000000
00000000
00100000
00000000
00000000
01100000
00000000
,
01000000
00000000
00000000
10000000
00000000
00000000
11000000
00000000
10000000
00000000
00010000
00000000
01000000
00000000
00100000
00000000
,
10000000
00000000
00000000
00010000
00000000
00000000
10010000
00000000
00100000
00000000
00000000
01000000
00000000
00000000
01100000
00000000
,
20000000
30200000
02300000
03020000
00032000
00003020
00000200
00000330
,
00001001
00000000
00000000
00000000
00000001
00000000
00000010
00000000
00001000
00000000
00000000
00000110
00000000
00000000
00000100
00000000
,
00010000
00000000
00000000
00011000
00000000
00000000
00001000
00000000
01000000
00000000
00100000
00000000
10000000
00000000
00000000
00000000
,
10010000
00000000
00000000
00000000
10000000
00000000
01000000
00000000
00010000
00000000
00000000
01100000
00000000
00000000
00100000
00000000
,
00001000
00000000
00000000
00011000
00000000
00000000
00010000
00000000
00000010
00000000
00000100
00000000
00000020
00000000
00000030
00000000
,
00000001
00000000
00000010
00000000
00001000
00000000
00000001
00000000
00000100
00000000
00001000
00000000
,
00010000
00000000
00100000
00000000
10000000
00000000
00010000
00000000
00000000
01100000
00000000
00000000
,
10000000
00000000
00000000
01000000
00000000
00000000
01100000
00000000
00010000
00000000
00000000
00001000
00000000
00000000
00001100
00000000
,
00000010
00000000
00000000
00000001
00000000
00000000
00000101
00000000
00000010
00000000
00001000
00000000
00000100
00000000
00001000
00000000
,
00000010
00000100
00001000
00000100
00000020
00000000
00000030
00000100
,
00000001
00000010
00000100
00000010
00000001
00000100
00001000
00010000
,
00100000
10000000
00010000
10000000
02000000
00000000
03000000
10000000
,
00010000
00100000
01000000
10000000
00100000
01000000
00100000
10000000
,
01000000
00100000
00010000
00100000
02000000
00000000
03000000
00010000
,
00001000
00100000
00001000
00010000
00000100
00001000
00000010
00000100
,
00000001
00001000
00000100
00000010
00000200
00000000
00000300
00010000
,
00001000
00010000
00000010
00010000
00001000
00000010
00000001
00001000
,
00000100
00000010
00000100
00001000
00000100
00000010
00000100
00010000
,
00001000
01000000
00010000
01000000
00100000
01000000
00010000
10000000
,
01000000
00100000
01000000
10000000
01000000
00010000
00001000
00000100
,
00000001
00000100
00000010
00000100
00001000
00000100
00000001
00001000
,
00000100
00001000
00000001
00001000
00000100
00000010
00001000
00010000
,
00100000
10000000
00010000
10000000
01000000
00010000
00001000
00000010
,
00001000
00001000
00010000
00010000
01000000
01000000
00100000
00001000
,
00020000
00000000
00000000
00030000
,
00001010
00000000
00000000
00000010
00000000
00000010
00000000
00000000
00000101
00000000
00000000
00000001
00000000
00000000
00000010
00000000
,
00000100
00000000
00000000
00000100
00000000
00000000
00010000
00000000
00001000
00000000
00000000
00000000
00011000
00000000
00000000
00000000
,
00100000
00000000
00000000
00010000
00000000
00010000
00000000
00000000
11000000
00000000
00000000
00010000
00000000
00000000
01000000
00000000
,
00100000
00000000
00000000
10000000
00000000
00000000
00010000
00000000
00100000
00000000
01000000
00000000
10000000
00000000
00010000
00000000
,
10000000
00000000
00000000
01000000
00000000
01000000
00000000
00000000
00110000
00000000
00000000
00001000
00000000
00000000
00010000
00000000
,
00000010
00000000
00000000
00000010
00000000
00000000
00000100
00000000
00000001
00000000
00000000
00000000
00001001
00000000
00000000
00000000
,
00000001
00000000
00000000
00000010
00000000
00000010
00000000
00000000
00001100
00000000
00000000
00000001
00000000
00000000
00000010
00000000
,
00000200
00020300
00032000
00203000
00320000
02030000
00200000
03300000
,
10000000
00000000
10000000
00000000
10000000
00000000
01000000
00000000
01000000
00000000
01000000
00000000
,
00010000
00000000
00010000
00000000
00010000
00000000
00001000
00000000
00000000
00000110
00000000
00000000
,
00000001
00000000
00000001
00000000
00000001
00000000
00000100
00000000
00000100
00000000
00000100
00000000
,
00001000
00000000
00001000
00000000
00001000
00000000
00010000
00000000
01000000
00000000
10000000
00000000
,
00100000
00000000
00010000
00000000
00001000
00000000
00000010
00000000
00001000
00000000
00010000
00000000
,
01000000
00000000
00010000
00000000
00001000
00000000
00000100
00000000
00000000
00001001
00000000
00000000
,
00000001
00000000
00000001
00000000
00000001
00000000
00001000
00000000
00001000
00000000
00001000
00000000
,
00010000
00000000
00010000
00000000
00010000
00000000
10000000
00000000
00000000
00000000
00000000
00000000
,
02200000
00000000
00000000
00000000
,
03300000
00000000
00000000
00000000
;

//---------------dance-double - ----------------
#NOTES:
     dance-double:
     :
     Challenge:
     15:
     0.751481,0.813224,0.748773,0.255910,0.710860,555.000000,476.000000,79.000000,27.000000,8.000000,0.000000,0.751481,0.813224,0.748773,0.255910,0.710860,555.000000,476.000000,79.000000,27.000000,8.000000,0.000000:
00000000
00000000
00000000
00000000
,
00000000
00000000
00000000
00000000
,
00000000
00000000
00000000
00000000
,
00000000
00000000
00000000
00000000
,
00000000
00000000
00000000
00000000
,
00000001
00000100
00000010
00001000
00000002
00000000
00000003
00000010
,
00001000
00000000
00010000
00000000
00001000
00000000
00000010
00000000
00000001
00000000
00000010
00000100
00000010
00000000
00000001
00000000
,
00000100
00000010
00001000
00000001
00002000
00000000
00003000
00000100
,
00010000
00000000
00001000
00000000
00100000
00000000
00001000
00000000
00010000
00000000
00100000
01000000
00100000
00000000
10000000
00000000
,
00100000
00000000
10000000
00100000
00000000
10000000
00010000
00000000
00100000
00000000
01000000
10000000
00000000
00010000
01000000
00000000
,
00100000
00000000
00010000
00001000
00000000
00010000
00000010
00000000
00010000
00000000
00001000
00000000
00000010
00000000
00000001
00000000
,
00001000
00000000
00000001
00000100
00000000
00000010
00001000
00000000
00000100
00000000
00000010
00000001
00000000
00001000
00000001
00000000
,
00000100
00000000
00001000
00010000
00000000
00001000
00100000
00000000
00001000
00000000
00010000
00000000
01000000
00000000
10000000
00000000
,
00010000
00000000
00100000
01000000
00100000
00000000
00010000
00000000
10000000
00000000
00100000
01000000
00100000
00000000
10000000
00000000
,
01000000
00000000
00010000
00001000
00010000
00000000
00001000
00000000
00000100
00000000
00000010
00000000
00001000
00000000
00000100
00000000
,
00000010
00000001
00000010
00000001
00001000
00000100
00001000
00000100
00010000
00001000
00100000
00010000
10000000
00100000
01000000
00100000
,
20000000
00000000
00000000
30000000
,
10010000
00000000
00000000
00110000
00000000
00000000
11000000
00000000
00100000
00000000
00000000
10010000
00000000
00000000
10100000
00000000
,
01000000
00000000
00000000
00110000
00000000
00000000
00011000
00000000
00001000
00000000
00010000
00000000
00001000
00000000
00000010
00000000
,
00000001
00000000
00000000
00000011
00000000
00000000
00001001
00000000
00000010
00000000
00000000
00001010
00000000
00000000
00001001
00000000
,
00000010
00000000
00000000
00001010
00000000
00000000
00011000
00000000
00010000
00000000
00000100
00000000
00001000
00000000
00010000
00000000
,
00200000
00000000
00000000
01300000
00000000
00000000
10010000
00000000
00100000
00000000
00000000
10100000
00000000
00000000
10010000
00000000
,
00100000
00000000
00000000
11000000
00000000
00000000
01100000
00000000
00010000
00000000
01000000
00000000
00100000
00000000
00010000
00000000
,
00001000
00000000
00000000
00001100
00000000
00000000
00011000
00000000
00000010
00000000
00000000
00011000
00000000
00000000
00001100
00000000
,
00000020
00000032
00000203
00002300
00023000
02030000
00200000
03300000
,
10010000
00000000
00000000
00010000
00100000
01000000
10000000
01000000
00100000
00010000
01000000
00100000
,
00010000
00000000
00001000
00000000
00000100
00000000
00000010
00000000
00001000
00000000
00000100
00000000
00000010
00000000
00000000
00000001
00000000
00000000
00000200
00000000
00000000
00000300
00000000
00000000
,
00001001
00000000
00000000
00001000
00000100
00000010
00000001
00000010
00000100
00001000
00000010
00000100
,
00001000
00000000
00010000
00000000
00100000
00000000
01000000
00000000
00010000
00000000
00100000
00000000
01000000
00000000
10000000
00000000
01000000
00000000
00200000
00000000
00000000
00300000
00000000
00000000
,
10010000
00000000
01000000
00100000
01000000
00000000
10010000
00000000
10100000
00000000
00110000
00000000
,
00011000
00000000
00000010
00001000
00000010
00000000
00000011
00000000
00000000
00000110
00000000
00000000
,
00001001
00000000
00000000
00000011
00000000
00000000
00001100
00000000
00000110
00000000
00000000
00001010
00000000
00000000
00011000
00000000
,
00001100
00000000
00000000
00011000
00000000
00000000
00100000
01000000
00100000
00000000
00010000
00000000
01000000
00000000
00100000
00000000
,
10000000
01000000
00100000
00010000
20000000
00000000
30000000
00100000
,
00010000
00000000
00001000
00000000
00010000
00000000
00100000
00000000
10000000
00000000
00100000
01000000
00100000
00000000
10000000
00000000
,
01000000
00100000
00010000
10000000
00020000
00000000
00030000
01000000
,
00001000
00000000
00010000
00000010
00010000
00000000
00001000
00000000
00000010
00000000
00000100
00000000
00000010
00000000
00000010
00000000
,
00000001
00000100
00000010
00001000
00000002
00000000
00000003
00000010
,
00001000
00000000
00010000
00000000
00001000
00000000
00000010
00000000
00000001
00000000
00000010
00000100
00000010
00000000
00000001
00000000
,
00000100
00000010
00001000
00000001
00002000
00000000
00003000
00000100
,
00010000
00000000
00001000
00000000
00100000
00000000
00001000
00000000
00010000
00000000
00100000
01000000
00100000
00000000
10000000
00000000
,
00100000
00000000
10000000
01000000
00100000
00000000
01000000
00000000
10000000
00000000
00100000
01000000
10000000
00000000
01000000
00000000
,
00100000
00000000
00010000
00001000
00010000
00000000
00001000
00000000
00010000
00000000
00000100
00000000
00000010
00000000
00000001
00000000
,
00001000
00000000
00000001
00000010
00000100
00000000
00000010
00000000
00000001
00000000
00000100
00000010
00000001
00000000
00000010
00000000
,
00000100
00000000
00001000
00010000
00001000
00000000
00010000
00000000
00001000
00000000
00100000
00000000
01000000
00000000
10000000
00000000
,
00010000
00000000
00100000
01000000
00100000
00010000
00100000
00000000
01000000
00000000
10000000
00100000
01000000
00100000
00010000
00000000
,
00001000
00000000
00010000
00001000
00010000
00000100
00001000
00000000
00000100
00000000
00000010
00000000
00000001
00000000
00001000
00000000
,
00000010
00000010
00000100
00000100
00001000
00001000
00010000
01000000
,
00200000
00000000
00000000
00300000
,
10010000
00000000
00000000
00010000
00000000
00010000
00000000
00001000
00010000
00000000
00000000
10010000
00000000
10000000
01000000
00100000
,
00010000
00000000
00000000
00011000
00000000
00001000
00000100
00000010
00000001
00000000
00000000
00000000
00001001
00000000
00000000
00000000
,
00000110
00000000
00000000
00000001
00000000
00000001
00000000
00001000
00000001
00000000
00000000
00000110
00000000
00001000
00010000
00001000
,
00010000
00000000
00000000
01100000
00000000
00010000
10000000
00010000
10000000
00000000
01000000
00000000
00100000
00000000
00010000
00000000
,
10000000
00000000
00000000
11000000
00000000
01000000
00000000
10000000
00100000
00000000
00000000
10100000
00000000
00100000
01000000
00001000
,
00010000
00000000
00000000
00011000
00000000
00010000
00000100
00001000
00000010
00000000
00000000
00000000
00000110
00000000
00000000
00000000
,
00001001
00000000
00000000
00000010
00000000
00000010
00000000
00000100
00000010
00000000
00000000
00000110
00000000
00000001
00001000
00000100
,
00002000
00003002
00000023
00002030
00023000
00230000
20000000
30300000
,
10100000
00000000
10100000
00000000
00110000
00000000
10100000
00000000
10100000
00000000
11000000
00000000
,
01010000
00000000
01010000
00000000
00011000
00000000
00001100
00000000
00000000
00000110
00000000
00000000
,
00000011
00000000
00000011
00000000
00001010
00000000
00000011
00000000
00000011
00000000
00000101
00000000
,
00001100
00000000
00001100
00000000
00011000
00000000
01010000
00000000
10000000
01000000
00010000
00001000
,
00011000
00000000
00100000
00010000
00100000
00000000
00011000
00000000
00000010
00001000
00000010
00000000
,
00011000
00000000
01000000
00010000
01000000
00000000
00011000
00000000
00000000
00000110
00000000
00000000
,
00001000
00000010
00000100
00000010
00001000
00000001
00000010
00000100
00001000
00000100
00000010
00001000
,
00010000
00100000
10000000
01000000
00010000
00001000
00000100
00000000
00000000
MMMMMMMM
00000000
00000000
,
00000022
00000000
00000000
00000000
,
00000033
00000000
00000000
00000000
;
