#VERSION:0.83;
#TITLE:Gangsta;
#SUBTITLE:;
#ARTIST:Blastoise;
#TITLETRANSLIT:;
#SUBTITLETRANSLIT:;
#ARTISTTRANSLIT:;
#GENRE:World Music;
#ORIGIN:;
#CREDIT:;
#BANNER:Gangsta.png;
#BACKGROUND:Gangsta-bg.png;
#PREVIEWVID:;
#JACKET:Gangsta-jacket.png;
#CDIMAGE:;
#DISCIMAGE:;
#LYRICSPATH:;
#CDTITLE:../cdtitle.png;
#MUSIC:Gangsta.ogg;
#OFFSET:1.876000;
#SAMPLESTART:74.999001;
#SAMPLELENGTH:15.000000;
#SELECTABLE:YES;
#BPMS:0.000=128.000;
#STOPS:;
#DELAYS:;
#WARPS:;
#TIMESIGNATURES:0.000=4=4;
#TICKCOUNTS:0.000=4;
#COMBOS:0.000=1;
#SPEEDS:0.000=1.000=0.000=0;
#SCROLLS:0.000=1.000;
#FAKES:;
#LABELS:0.000=Song Start;
#BGCHANGES:-99.000=../bg.avi=1.000=0=0=1=====,
99999=-nosongbg-=1.000=0=0=0 // don't automatically add -songbackground-
;
#KEYSOUNDS:;
#ATTACKS:
;

//---------------dance-single - ----------------
#NOTEDATA:;
#CHARTNAME:;
#STEPSTYPE:dance-single;
#DESCRIPTION:;
#CHARTSTYLE:;
#DIFFICULTY:Challenge;
#METER:13;
#RADARVALUES:0.623566,0.719343,0.540146,0.459854,0.266423,598.000000,524.000000,74.000000,63.000000,24.000000,0.000000,0.000000,0.000000,0.000000,0.623566,0.719343,0.540146,0.459854,0.266423,598.000000,524.000000,74.000000,63.000000,24.000000,0.000000,0.000000,0.000000,0.000000;
#CREDIT:led_light;
#DISPLAYBPM:128.000000;
#NOTES:
// measure 0
0000
0000
0000
0000
,  // measure 1
0000
0000
0000
0000
,  // measure 2
0000
0000
0000
0000
,  // measure 3
0000
0000
0000
0000
,  // measure 4
0000
0000
0000
0000
,  // measure 5
2000
0100
0001
0100
,  // measure 6
0010
0100
0001
0100
,  // measure 7
3002
0100
1000
0100
,  // measure 8
0010
0100
1000
0100
,  // measure 9
1003
0100
1000
0001
1000
0100
1000
0001
,  // measure 10
0100
0000
0010
0000
0100
0000
0001
0000
0100
0000
0010
0000
1000
0000
0001
1000
,  // measure 11
0001
0010
0001
1000
0001
0010
0001
1000
,  // measure 12
0010
0000
0100
0000
1000
0000
0100
0000
0010
0100
0010
0000
0100
0000
0001
0000
,  // measure 13
1000
0010
1000
0001
1000
0010
1000
0001
,  // measure 14
0010
0000
0100
0000
0010
0000
0001
0000
0010
0000
0100
0000
1000
0000
0001
1000
,  // measure 15
0001
0100
0001
1000
0001
0100
0001
1000
,  // measure 16
0100
0000
0010
0000
1000
0000
0010
0000
0001
1000
0001
1000
0001
1000
0001
1000
,  // measure 17
0020
0000
0000
0000
,  // measure 18
0000
0000
0000
0000
,  // measure 19
0030
0000
0000
0000
,  // measure 20
0000
0000
0000
0000
,  // measure 21
2000
0000
0100
0000
0100
0000
3100
1000
0001
0000
0100
0000
0010
0000
1000
0000
,  // measure 22
0002
0000
0100
0000
0100
0000
0103
0001
1000
0000
0100
0000
0010
0000
0100
0000
,  // measure 23
2000
0000
0010
0000
0010
0000
3010
1000
0001
0000
0010
0000
0100
0000
1000
0000
,  // measure 24
0002
0000
0010
0000
0010
0000
0013
0001
1000
0000
0010
0000
0100
0010
0000
1000
,  // measure 25
0001
0000
0100
0000
0101
0000
0001
1000
0100
0000
1000
0000
1001
0000
0001
0000
,  // measure 26
1000
0000
0010
0000
1010
0000
0100
0001
1000
0000
0001
0000
0010
0000
0010
0000
,  // measure 27
0001
0000
0010
0000
0011
0000
0001
1000
0010
0000
1000
0000
1001
0000
0001
0000
,  // measure 28
1000
0000
0100
0000
1100
0000
0010
0001
1000
0000
0001
0000
0100
0010
0100
0010
,  // measure 29
1000
0000
0001
0000
1001
0000
0001
1000
0010
0000
1000
0000
0001
0000
0100
0000
,  // measure 30
0001
0000
1000
0000
1001
0000
1000
0001
0010
0000
0001
0000
1000
0000
0100
0000
,  // measure 31
1000
0000
1000
0000
1100
0000
0001
0100
0010
0000
1000
0000
0100
0000
0010
0000
,  // measure 32
0001
0000
0001
0000
0011
0000
1000
0010
0100
0000
0001
0000
0020
0000
0130
0000
,  // measure 33
1001
0000
0100
0000
1001
0000
0010
0000
0001
1000
0100
0000
1100
0000
0001
0000
,  // measure 34
0020
0100
0032
0100
2003
0100
3010
0100
,  // measure 35
0101
0000
0001
0000
1100
0000
1000
0001
0100
0000
0010
0000
1010
0000
0001
0000
,  // measure 36
2000
0100
0010
3020
0100
0001
0130
0001
,  // measure 37
1001
0000
0010
0000
1001
0000
0100
0000
1000
0001
0010
0000
0011
0000
1000
0000
,  // measure 38
0200
0010
2300
0010
3002
0010
0103
0010
,  // measure 39
1010
0000
1000
0000
0011
0000
0001
1000
0010
0000
0100
0000
0101
0000
1000
0000
,  // measure 40
0002
0010
0203
0010
0020
0330
MMMM
MMMM
,  // measure 41
1001
0000
0001
0000
0201
0000
0001
0000
0301
1000
0000
1000
0002
0000
1003
0000
,  // measure 42
0100
0000
1000
0000
0001
0000
0001
0100
0020
0000
0100
0000
0230
0000
0001
0000
,  // measure 43
0302
0000
1003
0000
1001
0000
0001
1000
0100
0000
0010
0000
0011
0000
0001
0000
,  // measure 44
1000
0001
1000
0010
0200
0000
0301
1000
0100
0010
0100
1000
0000
0001
1000
0000
,  // measure 45
1001
0000
0001
0000
0021
0000
0001
0000
0031
1000
0010
0000
2000
0000
0100
0000
,  // measure 46
3001
1000
0001
0010
0200
0010
0320
0000
,  // measure 47
0032
0000
1003
0000
1001
0000
0001
0000
1000
0010
1000
0010
0200
0000
0301
0000
,  // measure 48
0101
1000
2100
0000
0002
3003
MMMM
0000
,  // measure 49
1001
0000
1000
0000
1200
0000
1000
0000
1300
0001
0000
0001
2000
0000
3001
0000
,  // measure 50
0100
0000
0001
0000
1000
0000
1000
0100
0020
0000
0100
0000
0130
0000
1000
0000
,  // measure 51
1000
0001
1002
0000
0103
0010
1010
1000
,  // measure 52
0001
1000
0001
0010
0100
0000
1000
0000
0001
0000
0100
0000
0110
0000
1000
0000
,  // measure 53
1001
0000
1000
0000
0010
0100
0001
1000
0000
0001
1000
0000
0002
0000
0010
0000
,  // measure 54
2003
0100
3001
0100
0200
0010
0301
1000
,  // measure 55
2000
3001
2001
0001
3001
0010
0200
1000
,  // measure 56
1300
0001
0102
0000
0023
0000
0230
0000
,  // measure 57
1300
0000
0002
0000
0100
0000
0000
0000
1000
0000
0000
0000
0103
0001
0010
0100
,  // measure 58
2000
0000
0000
0000
3001
0000
0020
0000
0100
0000
0000
0000
0130
1000
0000
1000
,  // measure 59
0001
0000
2000
0000
0100
0000
0000
0000
0001
0000
0000
0000
3100
1000
0010
0100
,  // measure 60
0002
0000
0000
0000
1003
0010
0100
0000
MMMM
0000
0000
0000
0000
0000
0000
0000
,  // measure 61
0011
0000
0000
0110
0000
0000
1100
0000
1001
0000
0000
0101
0000
0000
1010
0000
,  // measure 62
1100
0000
0000
0110
0000
0000
0011
0000
1001
0000
0000
1010
0000
0000
0101
0000
,  // measure 63
1100
0000
0000
1100
0000
0000
1010
0000
0101
0000
0000
0101
0000
0000
0011
0000
,  // measure 64
1100
0000
0000
1100
0000
0000
1001
0000
0110
0000
MMMM
0000
MMMM
0000
0000
0000
,  // measure 65
1000
0010
1000
0001
0100
0000
0001
0000
2000
0000
3100
0000
1100
0000
0001
0000
,  // measure 66
0200
0000
0310
0000
0110
0000
0010
0000
1000
0001
0010
0000
1100
0000
0001
0000
,  // measure 67
2001
3001
0101
0002
1003
0100
0110
0001
,  // measure 68
1000
0010
1000
0001
0010
0000
0100
0000
1000
0000
0001
0000
1001
0000
0010
0000
,  // measure 69
0002
0000
0100
0000
1003
0010
1000
0001
0000
0010
0001
0000
0012
0000
1000
0000
,  // measure 70
1003
0000
0010
0000
0110
0000
0100
0001
1000
0100
0010
0001
0010
0000
0100
0000
,  // measure 71
1002
1003
2010
0001
3200
0310
0110
1000
,  // measure 72
0001
0010
0200
1000
0320
0001
0230
1300
,  // measure 73
1001
0000
0000
0000
;

//---------------dance-single - ----------------
#NOTEDATA:;
#CHARTNAME:;
#STEPSTYPE:dance-single;
#DESCRIPTION:;
#CHARTSTYLE:;
#DIFFICULTY:Beginner;
#METER:3;
#RADARVALUES:0.112617,0.159854,0.014599,0.116788,0.000000,108.000000,106.000000,2.000000,16.000000,0.000000,0.000000,0.000000,0.000000,0.000000,0.112617,0.159854,0.014599,0.116788,0.000000,108.000000,106.000000,2.000000,16.000000,0.000000,0.000000,0.000000,0.000000,0.000000;
#CREDIT:led_light;
#DISPLAYBPM:128.000000;
#NOTES:
0000
0000
0000
0000
,
0000
0000
0000
0000
,
0000
0000
0000
0000
,
0000
0000
0000
0000
,
0000
0000
0000
0000
,
2000
0000
0000
0000
,
3000
0000
0000
0000
,
0002
0000
0000
0000
,
0003
0000
0000
0000
,
0000
1000
0000
1000
,
0000
1000
0000
1000
,
0000
0001
0000
0001
,
0000
0001
0000
0001
,
0000
1000
0000
1000
,
0000
1000
0000
1000
,
0000
0001
0000
0001
,
0000
0001
0000
0000
,
2002
0000
0000
0000
,
0000
0000
0000
0000
,
3003
0000
0000
0000
,
0000
0000
0000
0000
,
0000
0000
0000
0000
,
0000
0000
0000
0000
,
0000
0000
0000
0000
,
0000
0000
0000
0000
,
2000
0000
3000
0000
,
0020
0000
0030
0000
,
0002
0000
0003
0000
,
0200
0000
0300
0000
,
2000
0000
3000
0000
,
0200
0000
0300
0000
,
0002
0000
0003
0000
,
0020
0000
0030
0000
,
1000
0000
1000
0000
,
1000
1000
1000
0000
,
0001
0000
0001
0000
,
0001
0000
0000
0000
,
0010
0000
0010
0000
,
0010
0010
0010
0000
,
0100
0000
0100
0000
,
0200
0300
0000
0000
,
1000
0000
0001
0000
,
0001
0001
0001
0000
,
1000
0000
0001
0000
,
0010
0000
0100
0100
,
0100
0000
0010
0000
,
0001
0000
1000
0000
,
1000
0000
0010
0000
,
0200
0000
0300
0000
,
0001
0000
1000
0000
,
1000
1000
1000
0000
,
0001
0000
1000
0000
,
0100
0000
0010
0010
,
0010
0000
0100
0000
,
1000
0000
0001
0000
,
0001
0000
0100
0000
,
0010
0000
0020
0000
,
0030
0000
0000
0000
,
0010
0000
0000
0000
,
1000
0000
0000
0000
,
1000
0000
0000
0000
,
0001
0000
1000
0000
,
0001
0000
1000
0000
,
0100
0000
0010
0000
,
0100
0000
0010
0000
,
0001
0001
0001
0000
,
0010
0000
1000
0000
,
0100
0000
0001
0000
,
0010
0000
0100
0100
,
0100
0000
0100
0000
,
1000
0000
0010
0000
,
0001
0000
0100
0000
,
2000
0000
3000
0000
,
1001
0000
0000
0000
;

//---------------dance-single - ----------------
#NOTEDATA:;
#CHARTNAME:;
#STEPSTYPE:dance-single;
#DESCRIPTION:;
#CHARTSTYLE:;
#DIFFICULTY:Easy;
#METER:6;
#RADARVALUES:0.251303,0.372993,0.197080,0.372263,0.000000,241.000000,214.000000,27.000000,51.000000,0.000000,0.000000,0.000000,0.000000,0.000000,0.251303,0.372993,0.197080,0.372263,0.000000,241.000000,214.000000,27.000000,51.000000,0.000000,0.000000,0.000000,0.000000,0.000000;
#CREDIT:led_light;
#DISPLAYBPM:128.000000;
#NOTES:
0000
0000
0000
0000
,
0000
0000
0000
0000
,
0000
0000
0000
0000
,
0000
0000
0000
0000
,
0000
0000
0000
0000
,
2000
0000
0000
0000
,
0200
0000
0000
3300
,
0002
0000
0000
0000
,
0020
0000
0000
0033
,
2000
0100
0000
0100
,
0000
0100
0000
0100
,
3002
0100
0000
0100
,
0000
0103
1000
0100
,
0002
0010
0000
0010
,
0000
0010
0000
0010
,
2003
0010
0000
0010
,
0000
0010
3200
0300
,
2002
0000
0000
0000
,
0000
0000
0000
0000
,
3003
0000
0000
0000
,
0000
0000
0000
0000
,
2000
0000
3100
0000
,
0200
0000
0301
0000
,
0002
0000
0013
0000
,
0020
0000
1030
0000
,
2000
3100
0002
0103
,
2000
3100
0002
0103
,
2000
3010
0002
0013
,
2000
3010
0002
0013
,
2000
3100
0200
0301
,
0002
0013
0020
1030
,
2000
3010
0020
0031
,
0002
0103
0200
1300
,
1100
0010
0101
0010
,
2000
3200
0320
0031
,
1010
0100
0011
0100
,
2000
3010
0002
0103
,
0101
0010
1100
0010
,
0002
0203
0320
1030
,
0011
0100
1010
0100
,
0002
0013
2000
3000
,
1001
1100
0001
1000
,
0010
0010
0100
0001
,
1000
0001
0001
1000
,
0100
1000
0010
0100
,
1001
1010
0001
1000
,
0100
0100
0010
0001
,
1000
0001
0001
1000
,
0010
1000
0200
0300
,
1001
0001
0010
0001
,
1000
0010
0100
0001
,
1000
1000
0100
0001
,
0100
0100
1000
0001
,
1001
1000
0100
1000
,
0001
0100
0010
1000
,
0001
0001
0010
1000
,
0010
0020
0002
0033
,
2000
0000
0100
0000
,
0010
0000
0100
0000
,
3002
0000
0100
0000
,
0010
0000
0103
0000
,
1100
0100
0101
0100
,
1100
0100
0101
0100
,
1010
0010
0011
0010
,
1010
0010
0011
0000
,
2001
3100
1002
0103
,
2001
3100
0010
0001
,
1000
0100
1000
1000
,
0001
0100
0010
1000
,
0001
0010
1000
0010
,
0001
0010
0100
1000
,
0001
0010
0001
0001
,
1000
0020
0200
0330
,
1001
0000
0000
0000
;

//---------------dance-single - ----------------
#NOTEDATA:;
#CHARTNAME:;
#STEPSTYPE:dance-single;
#DESCRIPTION:;
#CHARTSTYLE:;
#DIFFICULTY:Medium;
#METER:9;
#RADARVALUES:0.360792,0.479562,0.291971,0.437956,0.025547,346.000000,306.000000,40.000000,60.000000,0.000000,0.000000,0.000000,0.000000,0.000000,0.360792,0.479562,0.291971,0.437956,0.025547,346.000000,306.000000,40.000000,60.000000,0.000000,0.000000,0.000000,0.000000,0.000000;
#CREDIT:led_light;
#DISPLAYBPM:128.000000;
#NOTES:
0000
0000
0000
0000
,
0000
0000
0000
0000
,
0000
0000
0000
0000
,
0000
0000
0000
0000
,
0000
0000
0000
0000
,
2000
0100
0000
0100
,
0000
0100
0000
0100
,
3002
0100
0000
0100
,
0000
0100
0000
0100
,
2003
3100
0002
0103
,
2000
3100
0002
0103
,
2000
3010
0002
0013
,
2000
3010
0002
0013
,
2000
3200
0320
0032
,
2003
3200
0320
0032
,
2003
3020
0230
0302
,
2003
3020
0200
0330
,
2002
0000
0000
0000
,
0000
0000
0000
0000
,
3003
0000
0000
0000
,
0000
0000
0000
0000
,
0000
1000
0100
1000
0100
0010
0000
0010
,
0000
0001
0100
0001
0100
0010
1000
0010
,
0000
1000
0100
1000
0100
0010
0000
0010
,
0000
0001
0100
0001
0100
0010
1000
0010
,
0000
1000
0001
0100
0001
0001
1000
0100
,
0000
1000
0001
0010
0100
0100
1000
0010
,
0000
0100
0001
1000
0001
0001
0010
0100
,
0000
0010
0001
1000
0010
0010
0100
0010
,
0000
1000
0100
0010
0100
1000
0001
1000
,
0000
0001
0100
0010
0100
0001
1000
0001
,
0000
0010
0100
1000
0100
0010
0001
1000
,
0000
0010
0100
0001
0100
0010
1000
0000
,
1100
0100
0010
0000
1100
0100
0010
0000
,
1100
0101
1010
0011
,
1100
0100
0010
0000
1100
0100
0010
0000
,
2100
0000
3001
0200
0000
0310
1000
0000
,
0011
0010
0100
0000
0011
0010
0100
0000
,
0011
1010
0101
1100
,
0011
0010
0100
0000
0011
0010
0100
0000
,
0012
0000
1003
0020
0200
0000
0330
0000
,
1001
1100
1001
0101
,
1000
0100
0010
0000
0002
0000
2003
0000
,
3002
0013
2000
3010
,
0002
0000
0103
0000
1000
0100
0100
0000
,
1001
0011
1001
1010
,
0001
0000
0010
0100
2000
0000
3002
0000
,
2003
3100
0002
0103
,
2000
3020
0002
0033
,
0110
0101
1100
0110
,
1000
0001
0010
0000
0200
0000
1300
0000
,
0001
0000
0002
0000
1003
0010
0100
0010
,
1000
0001
0010
0010
,
0110
1100
0101
0110
,
0001
1000
0010
0000
0200
0000
0301
1000
,
0001
0000
2000
0000
3001
0010
0100
0010
,
0001
2000
0010
3010
,
0200
0001
0001
0000
,
1000
0000
0001
0000
,
0320
1000
1000
0000
,
0001
0000
1030
0000
,
0001
0000
0000
0100
0000
0000
0010
0000
1000
0000
0000
0100
0000
0000
0010
0000
,
0100
0000
0000
1000
0000
0000
0010
0000
0100
0000
0000
0001
0000
0000
0010
0000
,
0100
0000
0000
0100
0000
0000
0100
0000
1000
0000
0000
1000
0000
0000
1000
0000
,
0010
0000
0000
0010
0000
0000
0010
0000
0001
0000
0000
0000
0000
0000
0000
0000
,
1001
0110
0002
0013
,
2000
0000
3100
0000
0001
1000
0001
0000
,
2000
0000
3100
0000
1000
0010
0010
0000
,
0100
0001
0001
0000
0020
0000
0130
0000
,
1001
0110
2000
3100
,
0002
0000
0013
0000
1000
0000
0001
1000
,
0002
0013
0001
0100
,
0010
2000
3200
0310
,
1001
0000
0000
0000
;

//---------------dance-single - ----------------
#NOTEDATA:;
#CHARTNAME:;
#STEPSTYPE:dance-single;
#DESCRIPTION:;
#CHARTSTYLE:;
#DIFFICULTY:Hard;
#METER:11;
#RADARVALUES:0.452555,0.532847,0.357664,0.518248,0.091241,434.000000,385.000000,49.000000,71.000000,0.000000,0.000000,0.000000,0.000000,0.000000,0.452555,0.532847,0.357664,0.518248,0.091241,434.000000,385.000000,49.000000,71.000000,0.000000,0.000000,0.000000,0.000000,0.000000;
#CREDIT:led_light;
#DISPLAYBPM:128.000000;
#NOTES:
0000
0000
0000
0000
,
0000
0000
0000
0000
,
0000
0000
0000
0000
,
0000
0000
0000
0000
,
0000
0000
0000
0000
,
2000
0100
0010
0100
,
0001
0100
0010
0100
,
3002
0100
0010
0100
,
1000
0100
0010
0100
,
2003
0000
0100
0000
3001
0100
0020
0000
,
0230
0000
1000
0000
0301
1000
0010
0000
,
2000
0000
0010
0000
3001
0010
0200
0000
,
0320
1000
0032
2003
,
3002
0000
0010
0000
1003
0010
0200
0000
,
0320
0000
0001
0000
1030
0001
0100
0000
,
0001
0100
0001
1000
0100
0010
0001
0010
,
0200
0000
0001
0000
1300
0001
1000
0001
,
2002
0000
0000
0000
,
0000
0000
0000
0000
,
3003
0000
0000
0000
,
0000
0000
0000
0000
,
2000
0100
0100
3100
1000
0001
0000
1000
,
0020
0100
0100
0130
0010
1000
0001
0100
,
0002
0100
0100
0103
0001
1000
0000
0001
,
0020
0100
0100
0130
0010
0001
1000
0100
,
1000
1000
1100
1000
0001
0100
0010
1000
,
0001
0001
0101
0001
1000
0100
0010
0001
,
0010
0010
0110
0100
1000
0001
0100
0010
,
0100
0100
0110
0010
1000
0001
0010
0100
,
1000
1000
1001
0001
0010
1000
0010
0001
,
0010
0010
0011
0001
1000
0100
0010
0010
,
0001
0001
1001
1000
0010
0001
0010
1000
,
0010
0010
1010
1000
0001
0100
0020
0030
,
0101
0010
1010
0000
1100
0010
0011
0000
,
2001
3200
0320
0031
,
1100
0100
0101
0000
1010
0010
0011
0000
,
2001
0000
3010
0200
0000
0302
2000
3003
,
1100
0010
0011
0000
0101
0010
1010
0000
,
1002
0203
0320
1030
,
0101
0100
1100
0000
0011
0010
1010
0000
,
1002
0000
0013
0200
2000
0000
3300
0000
,
1100
0000
0000
0000
1010
0000
0000
0000
0001
0010
0000
0010
0100
0000
0010
0000
,
0001
1000
0100
1000
0020
0000
0230
0000
,
0302
0000
0000
0000
1003
0000
0000
0001
0010
0000
0100
0000
0010
0000
0001
0000
,
1000
0100
1000
0001
1000
0010
0100
0010
,
1010
0000
0000
0000
1100
0000
0000
0000
0001
0100
0010
0000
0200
0000
0000
0000
,
0301
1000
0010
1000
0200
0000
0320
0000
,
0032
0000
0000
0000
2003
0000
0000
0000
3001
0100
0010
0100
0002
0000
0000
0000
,
1003
0020
0200
0330
,
0101
0000
0000
0000
0011
0000
0000
0000
1000
0010
0000
0010
0100
0000
0010
0000
,
1000
0000
0001
0000
0100
0000
0001
0000
0020
0000
0000
0000
0130
0000
0000
0100
,
1000
0000
0002
0000
1003
0010
0100
0010
,
1000
0001
0100
0001
2000
3000
0100
0010
,
0011
0000
0101
1000
0100
0010
0200
0000
,
1300
0001
0010
0001
1000
0010
0100
0010
,
2000
0000
3002
0000
1003
0100
0020
0000
,
0031
2000
0002
3000
,
2003
0000
0100
0000
0000
0000
0000
0000
0100
0000
0000
0000
3000
0001
1000
0001
,
2000
0000
0000
0000
0000
0000
0100
0000
0000
0000
0000
0000
3000
0001
0000
0002
,
0000
0000
0100
0000
0000
0000
0000
0000
0100
0000
0000
0000
0003
1000
0001
1000
,
0002
0000
0000
0000
0003
2000
0200
0000
3300
0000
0000
0000
0000
0000
0000
0000
,
1100
0000
0000
1000
0000
0000
0100
0000
0101
0000
0000
0001
0000
0000
0100
0000
,
1010
0000
0000
1000
0000
0000
0010
0000
0011
0000
0000
0001
0000
0000
0010
0000
,
0110
0000
0000
1000
0000
0000
0100
0000
0110
0000
0000
0001
0000
0000
0100
0000
,
0110
0000
0000
1000
0000
0000
0001
0000
1001
0000
0000
0000
0000
0000
0000
0000
,
1000
0001
0100
0001
2000
0000
3100
0000
,
0002
0000
0103
0000
1000
0100
1100
1000
,
0002
0000
1003
0010
0001
0010
1000
0001
,
0010
0100
0110
0001
1000
0010
0100
0010
,
2000
0000
0000
0000
3001
0000
0010
0100
0000
0100
1000
0000
0020
0000
0000
0000
,
0032
0000
0013
0000
1000
0010
0110
1000
,
0002
0000
2003
0000
3100
0001
0100
1000
,
0001
0010
0200
0000
2300
0000
0002
3003
,
1001
0000
0000
0000
;
