#VERSION:0.83;
#TITLE:GOOD BOY;
#SUBTITLE:;
#ARTIST:GD X TAEYANG;
#TITLETRANSLIT:;
#SUBTITLETRANSLIT:;
#ARTISTTRANSLIT:;
#GENRE:K-Pop;
#ORIGIN:;
#CREDIT:;
#BANNER:GOOD BOY.png;
#BACKGROUND:GOOD BOY-bg.png;
#PREVIEWVID:;
#JACKET:GOOD BOY-jacket.png;
#CDIMAGE:;
#DISCIMAGE:;
#LYRICSPATH:;
#CDTITLE:../cdtitle.png;
#MUSIC:GOOD BOY.ogg;
#OFFSET:2.513000;
#SAMPLESTART:90.956001;
#SAMPLELENGTH:15.000000;
#SELECTABLE:YES;
#BPMS:0.000=95.000;
#STOPS:;
#DELAYS:;
#WARPS:;
#TIMESIGNATURES:0.000=4=4;
#TICKCOUNTS:0.000=4;
#COMBOS:0.000=1;
#SPEEDS:0.000=1.000=0.000=0;
#SCROLLS:0.000=1.000;
#FAKES:;
#LABELS:0.000=Song Start;
#BGCHANGES:3.750=GOOD BOY.avi=1.000=0=0=0=StretchNoLoop====,
99999=-nosongbg-=1.000=0=0=0 // don't automatically add -songbackground-
;
#KEYSOUNDS:;
#ATTACKS:
;

//---------------dance-single - ----------------
#NOTEDATA:;
#CHARTNAME:;
#STEPSTYPE:dance-single;
#DESCRIPTION:;
#CHARTSTYLE:;
#DIFFICULTY:Beginner;
#METER:2;
#RADARVALUES:0.082729,0.115820,0.000000,0.000000,0.000000,66.000000,66.000000,0.000000,0.000000,0.000000,0.000000,0.000000,0.000000,0.000000,0.082729,0.115820,0.000000,0.000000,0.000000,66.000000,66.000000,0.000000,0.000000,0.000000,0.000000,0.000000,0.000000,0.000000;
#CREDIT:led_light;
#NOTES:
0000
0000
0000
0000
,
0000
0000
0000
0000
,
0000
0000
0000
0000
,
0000
0000
0000
0000
,
0000
0000
0000
0000
,
0001
0000
0000
0000
,
1000
0000
0000
0000
,
0001
0000
0000
0000
,
1000
0000
0000
0000
,
0010
0000
0010
0000
,
0100
0000
0100
0000
,
0010
0010
0010
0010
,
0000
0000
0000
0000
,
1000
0000
1000
0000
,
0001
0000
0001
0000
,
0100
0000
0100
0000
,
0010
0000
0010
0010
,
0010
0000
0010
0000
,
1000
0000
1000
0000
,
0100
0000
0100
0000
,
0010
0000
0000
0000
,
0001
0000
1000
0000
,
0001
0000
0000
0000
,
0010
0000
0100
0000
,
0010
0000
0000
0000
,
1000
0000
0001
0000
,
1000
0000
0000
0000
,
0100
0000
0010
0000
,
0100
0000
0000
0000
,
0001
0000
0000
0000
,
1000
0000
0000
0000
,
0001
0000
0000
0000
,
1000
0000
0000
0000
,
0010
0000
0010
0000
,
0100
0000
0100
0000
,
0010
0000
0010
0000
,
0000
0000
0000
0000
,
1000
0000
1000
0000
,
0001
0000
0001
0000
,
0100
0000
0100
0000
,
0010
0000
0010
0010
,
0010
0000
0010
0000
,
1000
0000
1000
0000
,
0100
0000
0100
0000
,
0010
0000
0000
0000
;

//---------------dance-single - ----------------
#NOTEDATA:;
#CHARTNAME:;
#STEPSTYPE:dance-single;
#DESCRIPTION:;
#CHARTSTYLE:;
#DIFFICULTY:Challenge;
#METER:14;
#RADARVALUES:0.661828,0.709726,0.798456,0.157936,0.614197,528.000000,437.000000,91.000000,18.000000,52.000000,0.000000,0.000000,0.000000,0.000000,0.661828,0.709726,0.798456,0.157936,0.614197,528.000000,437.000000,91.000000,18.000000,52.000000,0.000000,0.000000,0.000000,0.000000;
#CREDIT:led_light;
#NOTES:
// measure 0
0000
0000
0000
0000
,  // measure 1
0000
0000
0000
0000
,  // measure 2
0000
0000
0000
0000
,  // measure 3
0000
0000
0000
0000
,  // measure 4
0000
0000
0000
0000
,  // measure 5
1010
0000
1000
0001
1001
0000
1000
0001
0010
1000
0010
0000
0011
0000
0110
0100
,  // measure 6
1100
0000
1000
0001
1001
0000
1000
0001
0100
1000
0100
0000
0101
0000
0110
0010
,  // measure 7
1010
0000
1000
0001
1001
0000
1000
0001
0010
1000
0010
0000
0011
0000
1000
0001
,  // measure 8
0100
0010
1000
0000
1010
0000
0001
1000
0100
0010
0001
0000
0011
0000
0110
0000
,  // measure 9
1000
0010
1000
0010
0001
0010
0001
0010
0100
1000
0100
1000
0100
0001
0100
0001
,  // measure 10
1000
0100
1000
0100
0001
0100
0001
0100
0010
1000
0010
1000
0010
0001
0010
0001
,  // measure 11
1000
0000
1000
0000
0100
0000
0100
0000
0001
0000
0001
0000
0010
0000
0010
0000
1000
0000
1000
0000
0001
0000
0001
0000
0010
0100
0010
0100
1000
0001
1000
0001
,  // measure 12
0000
MMMM
MMMM
MMMM
MMMM
0000
MMMM
0000
,  // measure 13
2001
0000
3010
0100
0101
0000
1010
0000
0100
0001
0001
0000
1010
0000
1000
0100
,  // measure 14
0110
0000
1000
0001
1001
0000
0011
0000
0001
1000
0010
0000
0101
0000
0110
0000
,  // measure 15
1001
0000
0010
0100
0110
0000
1001
0000
0001
1000
0010
0000
1010
0000
0100
0001
,  // measure 16
0101
0000
0100
0010
0110
0000
1000
0000
2010
0000
3010
0000
0012
0000
0013
0000
,  // measure 17
1002
0000
0103
0010
1010
0000
0101
0000
0010
1000
1000
0000
0101
0000
0001
0010
,  // measure 18
0110
0000
0001
1000
1001
0000
1100
0000
1000
0001
0100
0000
1010
0000
0110
0000
,  // measure 19
1001
0000
0010
0100
0110
0000
1001
0000
0001
1000
0010
0000
1010
0000
0100
0001
,  // measure 20
1000
0100
1000
0000
0100
0000
0010
0000
0001
0100
0001
0000
0100
0000
0010
0000
1000
0000
1000
0000
0100
0000
0100
0000
0001
0000
0000
0000
0100
0000
1000
0000
,  // measure 21
1001
0000
0001
0001
0010
1000
0010
0010
0001
0000
0001
0000
0110
0000
0001
1000
,  // measure 22
0010
0100
0010
0001
0010
0100
1000
0100
0001
0000
0001
0000
0110
0000
MMMM
0000
,  // measure 23
1001
0000
1000
1000
0100
0001
0100
0000
1000
0000
1000
0000
0110
0000
1000
0001
,  // measure 24
0100
0010
0100
1000
0100
0010
0001
0010
1000
0000
1000
0000
0110
0000
MMMM
0000
,  // measure 25
1001
0000
0001
0001
0010
1000
0010
0000
0001
0000
0001
0000
0011
0001
0100
0010
,  // measure 26
1010
0000
0010
0100
0101
0000
0001
0000
1100
0000
1000
0000
0011
0000
0001
0000
,  // measure 27
1001
0000
1000
0010
1000
0000
0001
0100
0001
0000
1000
0100
1000
0001
0010
0100
,  // measure 28
1000
0000
0000
2000
0000
0000
3001
0000
0000
0002
0000
0000
1003
0000
0000
1000
0000
0000
0001
0000
0002
0000
0003
0000
,  // measure 29
1001
0000
0000
0001
1000
0000
1000
0000
0010
0000
0010
0000
0001
0000
0010
0000
,  // measure 30
1000
0000
1000
0000
0100
0000
0100
0000
0010
0000
0010
0000
0011
0000
0001
1000
,  // measure 31
0001
0000
0000
1000
0001
0000
0001
0000
0010
0000
0010
0000
1000
0000
0010
0000
,  // measure 32
0001
0001
0100
0100
0010
0010
1010
1001
,  // measure 33
1000
0100
1000
0100
1000
0100
1000
0100
0001
0100
0001
0100
0001
0100
0001
0100
,  // measure 34
0001
0010
0001
0010
0001
0010
0001
0010
1000
0010
1000
0010
1000
0010
1000
0010
,  // measure 35
1000
0100
1000
0100
0010
0001
0010
0001
1000
0010
0100
0010
2000
3200
0320
0032
,  // measure 36
0003
MMMM
MMMM
MMMM
MMMM
0000
MMMM
0000
,  // measure 37
2001
0000
3010
0100
0101
0000
1010
0000
0100
0001
0001
0000
1010
0000
1000
0100
,  // measure 38
0110
0000
1000
0001
1001
0000
0011
0000
0001
1000
0010
0000
0101
0000
0110
0000
,  // measure 39
1001
0000
0010
0100
0110
0000
1001
0000
0001
1000
0010
0000
1010
0000
0100
0001
,  // measure 40
0101
0000
0100
0010
0110
0000
1000
0000
2010
0000
3010
0000
0011
0000
MMMM
0000
,  // measure 41
1002
0000
0103
0010
1010
0000
0101
0000
0010
1000
1000
0000
0101
0000
0001
0010
,  // measure 42
0110
0000
0001
1000
1001
0000
1100
0000
1000
0001
0100
0000
1010
0000
0110
0000
,  // measure 43
1001
0000
0010
0100
0110
0000
1001
0000
0001
1000
0010
0000
1010
0000
0100
0001
,  // measure 44
2000
0000
3100
0000
0002
0000
0103
0000
2000
0000
3000
0000
0002
0000
0103
0010
;

//---------------dance-single - ----------------
#NOTEDATA:;
#CHARTNAME:;
#STEPSTYPE:dance-single;
#DESCRIPTION:;
#CHARTSTYLE:;
#DIFFICULTY:Easy;
#METER:5;
#RADARVALUES:0.219356,0.274853,0.078968,0.035097,0.000000,175.000000,166.000000,9.000000,4.000000,0.000000,0.000000,0.000000,0.000000,0.000000,0.219356,0.274853,0.078968,0.035097,0.000000,175.000000,166.000000,9.000000,4.000000,0.000000,0.000000,0.000000,0.000000,0.000000;
#CREDIT:led_light;
#NOTES:
0000
0000
0000
0000
,
0000
0000
0000
0000
,
0000
0000
0000
0000
,
0000
0000
0000
0000
,
0000
0000
0000
0000
,
0001
0001
0001
0001
,
1000
1000
1000
1000
,
0001
0001
0001
0001
,
1000
1000
0001
0001
,
1000
0100
0010
0001
,
1000
0100
0010
0001
,
1000
1000
1000
0000
0001
0001
0002
0000
,
0003
0000
0000
0000
,
1001
1000
0001
0001
,
1000
0001
1000
1000
,
0100
0100
0010
0010
,
0001
1000
0001
0001
,
0100
0010
0100
0100
,
0010
0100
0010
0010
,
1000
1000
0001
0001
,
0010
0100
1000
1000
,
1001
0000
0010
0010
0010
0000
0110
0000
,
1000
0010
0001
0110
,
1001
0000
0100
0100
0100
0000
0110
0000
,
0001
0100
1000
0110
,
1001
0000
0010
0010
0010
0000
1000
0100
,
0001
0000
0010
0000
1000
1000
1000
0000
,
1000
0000
0100
0000
0010
0010
0010
0000
,
0002
0013
2000
3100
,
0001
0100
0010
1000
,
0001
0100
0010
1000
,
0100
0010
0001
1000
,
0100
0010
0001
1000
,
0001
0001
0001
0000
0001
0001
0001
0000
,
1000
1000
1000
0000
1000
1000
1000
0000
,
0001
0001
0001
0000
1000
1000
2000
0000
,
3000
0000
0000
0000
,
1001
0001
1000
1000
,
0001
1000
0001
0001
,
0010
0010
0100
0100
,
1000
0001
1000
1000
,
0010
0100
0010
0010
,
0100
0010
0100
0100
,
0001
0001
1000
1000
,
0100
0010
0001
0001
;

//---------------dance-single - ----------------
#NOTEDATA:;
#CHARTNAME:;
#STEPSTYPE:dance-single;
#DESCRIPTION:;
#CHARTSTYLE:;
#DIFFICULTY:Medium;
#METER:7;
#RADARVALUES:0.274508,0.333750,0.043871,0.052645,0.000000,219.000000,214.000000,5.000000,6.000000,0.000000,0.000000,0.000000,0.000000,0.000000,0.274508,0.333750,0.043871,0.052645,0.000000,219.000000,214.000000,5.000000,6.000000,0.000000,0.000000,0.000000,0.000000,0.000000;
#CREDIT:led_light;
#NOTES:
0000
0000
0000
0000
,
0000
0000
0000
0000
,
0000
0000
0000
0000
,
0000
0000
0000
0000
,
0000
0000
0000
0000
,
0001
0001
0001
0001
0001
0001
0001
0001
,
1000
1000
1000
1000
1000
1000
1000
1000
,
0001
0001
0001
0001
0001
0001
0001
0001
,
1000
1000
2000
3000
0001
0001
0002
0003
,
1000
0100
0001
0010
,
1000
0100
0001
0010
,
1000
1000
0100
0100
0001
0001
0010
0010
,
2000
0000
0001
3001
,
1001
0000
0001
0000
1000
0010
0001
0000
,
0001
0000
1000
0000
0001
0100
1000
0000
,
1000
0000
0001
0000
1000
0010
0001
0000
,
0001
0000
1000
0100
0001
0000
0001
0000
,
1000
0000
0001
0000
1000
0010
0001
0000
,
0001
0000
1000
0000
0001
0100
1000
0000
,
1000
0000
0001
0000
1000
0010
0001
0000
,
0001
0000
1000
0000
0100
0100
0100
0000
,
1001
0000
0001
0100
1000
0000
0010
0000
,
0001
0100
1000
0010
0001
0000
0110
0000
,
0001
0000
1000
0010
0001
0000
0100
0000
,
1000
0010
0001
0100
1000
0010
0110
0000
,
1000
0000
0100
0100
0001
0000
0010
0010
,
1000
0000
0100
0000
0001
0001
0001
0000
,
0001
0000
0010
0000
1000
1000
1000
0000
,
2000
3100
0002
0103
,
1000
0100
0001
0010
,
1000
0100
0001
0010
,
1000
0010
0001
0100
,
1000
0010
0001
0100
,
1000
1000
1000
1000
1000
1000
1000
1000
,
0001
0001
0001
0001
0001
0001
0001
0001
,
1000
1000
0001
0001
1000
1000
0001
0001
,
2000
0000
0001
3001
,
1001
0000
0001
0000
1000
0010
0001
0000
,
0001
0000
1000
0000
0001
0100
1000
0000
,
1000
0000
0001
0000
1000
0010
0001
0000
,
0001
0000
1000
0100
0001
0000
0001
0000
,
1000
0000
0001
0000
1000
0010
0001
0000
,
0001
0000
1000
0000
0001
0100
1000
0000
,
1000
0000
0001
0000
1000
0010
0001
0000
,
0001
1000
0100
0100
;

//---------------dance-single - ----------------
#NOTEDATA:;
#CHARTNAME:;
#STEPSTYPE:dance-single;
#DESCRIPTION:;
#CHARTSTYLE:;
#DIFFICULTY:Hard;
#METER:12;
#RADARVALUES:0.531468,0.551242,0.640519,0.166711,0.289550,424.000000,351.000000,73.000000,19.000000,0.000000,0.000000,0.000000,0.000000,0.000000,0.531468,0.551242,0.640519,0.166711,0.289550,424.000000,351.000000,73.000000,19.000000,0.000000,0.000000,0.000000,0.000000,0.000000;
#CREDIT:led_light;
#NOTES:
0000
0000
0000
0000
,
0000
0000
0000
0000
,
0000
0000
0000
0000
,
0000
0000
0000
0000
,
0000
0000
0000
0000
,
2100
0000
3001
0100
0002
0000
1003
0100
0000
0100
0010
0000
0110
0000
0001
0000
,
0012
0000
1003
0010
2000
0000
3001
0010
0000
0010
0100
0000
0110
0000
1000
0000
,
2100
0000
3001
0100
0002
0000
1003
0100
0000
0100
0010
0000
0110
0000
0001
0100
,
0000
0100
0010
0000
1010
0000
1000
0100
0000
0100
0010
0000
0011
0000
1001
0000
,
0001
0100
0001
0000
0100
1000
0100
0000
1000
0010
1000
0000
0010
0001
0010
0000
,
0001
0100
0001
0000
0100
1000
0100
0000
1000
0010
1000
0000
0010
0001
0010
0000
,
0001
0000
0110
0000
1000
0000
0110
0000
0001
0100
0001
0100
0010
1000
0010
1000
,
0002
0000
0000
0003
,
1001
0000
0100
0000
1001
0000
0110
0000
0001
1000
0100
0000
0110
0000
0001
0000
,
0110
0000
1000
0000
1001
0000
0011
0000
0001
1000
0010
0000
1010
0000
0100
0000
,
1001
0000
0100
0000
0101
0000
1100
0000
0001
0100
0010
0000
1010
0000
1000
0000
,
1100
0001
1001
0110
0200
0300
0200
0300
,
1001
0000
0010
0000
1001
0000
0110
0000
0001
1000
0010
0000
0110
0000
0001
0000
,
0110
0000
1000
0000
1001
0000
0101
0000
0001
1000
0100
0000
1100
0000
0010
0000
,
1001
0000
0010
0000
0011
0000
1010
0000
0001
0010
0100
0000
1100
0000
1000
0000
,
0001
0010
0001
0000
1000
0100
1000
0000
0010
0100
0010
0100
0010
0000
0010
0000
,
1001
0000
0100
0000
0001
1000
0100
0000
1000
0000
1000
0000
0011
0000
0001
0000
,
0100
0001
0100
0000
0010
1000
0010
0000
0200
0000
1000
0000
0301
0000
0110
0000
,
1001
0000
0100
0000
1000
0001
0100
0000
0001
0000
0001
0000
1010
0000
1000
0000
,
0100
1000
0100
0000
0010
0001
0010
0000
0200
0000
0001
0000
1300
0000
0110
0000
,
1001
0000
0100
0000
0001
1000
0100
0000
0010
0000
0010
0000
0001
1000
0010
0000
,
0100
0100
0010
0010
0200
1000
0001
0301
,
1001
0000
0100
0010
0001
0000
1000
0100
0010
0000
0100
0010
0001
0000
1000
0000
,
2000
3100
0002
0013
,
1000
0000
0000
1000
0100
0000
0001
0000
0100
0000
0000
0000
1000
0000
1000
0000
,
0010
0001
0010
1000
0001
0000
0001
1000
,
0001
0000
0000
0001
0100
0000
1000
0000
0100
0000
0000
0000
0001
0000
0001
0000
,
0010
1000
0010
0001
1000
0000
1000
0001
,
1000
0100
1000
0000
0100
0001
0100
0000
0001
0010
0001
0000
0010
1000
0010
0000
,
1000
0100
1000
0000
0100
0001
0100
0000
0001
0010
0001
0000
0010
1000
0010
0000
,
0100
1000
0100
0000
0001
0100
0001
0000
0010
1000
0010
0000
0001
0010
0001
0000
,
2000
0000
0000
3000
,
1001
0000
0010
0000
1001
0000
0110
0000
0001
1000
0010
0000
0110
0000
0001
0000
,
0110
0000
1000
0000
1001
0000
0101
0000
0001
1000
0100
0000
1100
0000
0010
0000
,
1001
0000
0010
0000
0011
0000
1010
0000
0001
0010
0100
0000
1100
0000
1000
0000
,
1010
0001
1001
0110
0020
0030
0020
0030
,
1001
0000
0100
0000
1001
0000
0110
0000
0001
1000
0100
0000
0110
0000
0001
0000
,
0110
0000
1000
0000
1001
0000
0011
0000
0001
1000
0010
0000
1010
0000
0100
0000
,
1001
0000
0100
0000
0101
0000
1100
0000
0001
0100
0010
0000
1010
0000
1000
0000
,
0001
0001
1000
0100
0020
0030
0020
0030
;
