#VERSION:0.83;
#TITLE:GOD SEES ALL;
#SUBTITLE:ver. Nina Kosaka feat Ike Eveland;
#ARTIST:Ethyria;
#TITLETRANSLIT:;
#SUBTITLETRANSLIT:;
#ARTISTTRANSLIT:;
#GENRE:にじさんじ;
#ORIGIN:;
#CREDIT:;
#BANNER:GOD SEES ALL ver. Nina Kosaka feat Ike Eveland.png;
#BACKGROUND:../bg.png;
#PREVIEWVID:;
#JACKET:GOD SEES ALL ver. Nina Kosaka feat Ike Eveland-jacket.png;
#CDIMAGE:;
#DISCIMAGE:;
#LYRICSPATH:;
#CDTITLE:../cdtitle.png;
#MUSIC:GOD SEES ALL ver. Nina Kosaka feat Ike Eveland.ogg;
#OFFSET:-0.110000;
#SAMPLESTART:76.959000;
#SAMPLELENGTH:15.000000;
#SELECTABLE:YES;
#BPMS:0.000=153.000;
#STOPS:;
#DELAYS:;
#WARPS:;
#TIMESIGNATURES:0.000=4=4;
#TICKCOUNTS:0.000=4;
#COMBOS:0.000=1;
#SPEEDS:0.000=1.000=0.000=0;
#SCROLLS:0.000=1.000;
#FAKES:;
#LABELS:0.000=Song Start;
#BGCHANGES:0.000=GOD SEES ALL ver. Nina Kosaka feat Ike Eveland.avi=1.000=0=0=0=StretchNoLoop====,
99999=-nosongbg-=1.000=0=0=0 // don't automatically add -songbackground-
;
#KEYSOUNDS:;
#ATTACKS:
;

//---------------dance-single - ----------------
#NOTEDATA:;
#CHARTNAME:;
#STEPSTYPE:dance-single;
#DESCRIPTION:;
#CHARTSTYLE:;
#DIFFICULTY:Beginner;
#METER:1;
#RADARVALUES:0.066518,0.154418,0.057016,0.123534,0.000000,49.000000,43.000000,6.000000,13.000000,0.000000,0.000000,0.000000,0.000000,0.000000,0.066518,0.154418,0.057016,0.123534,0.000000,49.000000,43.000000,6.000000,13.000000,0.000000,0.000000,0.000000,0.000000,0.000000;
#CREDIT:led_light;
#NOTES:
0000
0000
0000
0000
,
0000
0000
0000
0000
,
0000
0000
0000
0000
,
0000
0000
0000
0000
,
0000
0000
0000
0000
,
1001
0000
0000
0000
,
0000
0000
0000
0000
,
0001
0000
0000
0000
,
0000
0000
0000
0000
,
1000
0000
0000
0000
,
0000
0000
0000
0000
,
1000
0000
0000
0000
,
0000
0000
0000
0000
,
0001
0000
0000
0000
,
0000
0000
0000
0000
,
0001
0000
0000
0000
,
0000
0000
0000
0000
,
0100
0000
0000
0000
,
0100
0000
0000
0000
,
0010
0000
0000
0000
,
0000
0000
0000
0000
,
1000
0000
0000
0000
,
1000
0000
0000
0000
,
0001
0000
0000
0000
,
0000
0000
0000
0000
,
0020
0000
0000
0000
,
0030
0000
0000
0000
,
0002
0000
0000
0000
,
0003
0000
0000
0000
,
2000
0000
0000
0000
,
3000
0000
0000
0000
,
0200
0000
0000
0000
,
0300
0000
0000
0000
,
1000
0000
0000
0000
,
1000
0000
0000
0000
,
0010
0000
0000
0000
,
0000
0000
0000
0000
,
0100
0000
0000
0000
,
0100
0000
0000
0000
,
0001
0000
0000
0000
,
0000
0000
0000
0000
,
1001
0000
0000
0000
,
0000
0000
0000
0000
,
0000
0000
0000
0000
,
0000
0000
0000
0000
,
1000
0000
0000
0000
,
1000
0000
0000
0000
,
0001
0000
0001
0000
,
0000
0000
0000
0000
,
2002
0000
0000
0000
,
0000
3003
0000
0000
,
0220
0000
0000
0000
,
0000
0330
0000
0000
,
0100
0000
0100
0000
,
0000
0000
0001
0000
,
0010
0000
0010
0000
,
0000
0000
1000
0000
,
2002
0000
0000
0000
,
0000
3003
0000
0000
,
0220
0000
0000
0000
,
0000
0330
0000
0000
,
0010
0000
0010
0000
,
0000
0000
1000
0000
,
0100
0000
0100
0000
,
0000
0000
0002
0000
,
0003
0000
0000
0000
;

//---------------dance-single - ----------------
#NOTEDATA:;
#CHARTNAME:;
#STEPSTYPE:dance-single;
#DESCRIPTION:;
#CHARTSTYLE:;
#DIFFICULTY:Easy;
#METER:5;
#RADARVALUES:0.211773,0.308836,0.171047,0.418116,0.000000,156.000000,138.000000,18.000000,44.000000,0.000000,0.000000,0.000000,0.000000,0.000000,0.211773,0.308836,0.171047,0.418116,0.000000,156.000000,138.000000,18.000000,44.000000,0.000000,0.000000,0.000000,0.000000,0.000000;
#CREDIT:led_light;
#NOTES:
0000
0000
0000
0000
,
0000
0000
0000
0000
,
0000
0000
0000
0000
,
0000
0000
0000
0000
,
0000
0000
0000
0000
,
1000
0000
0001
0001
,
1000
0100
0010
0000
,
0001
0000
1000
1000
,
0001
0010
0100
1000
,
0002
0000
1003
0000
,
0020
0000
2030
0000
,
3200
0000
0310
0000
,
0020
0000
0130
0000
,
2000
0000
3001
0000
,
0020
0000
0032
0000
,
0203
0000
0310
0000
,
0020
0000
0130
0010
,
0110
0000
1001
0000
,
0010
0010
0100
0001
,
0011
1000
0001
0001
,
2000
0000
0020
3030
,
0110
0000
1001
0000
,
0100
0100
0010
1000
,
2100
0000
0000
3002
0000
0000
0103
0000
,
0020
1000
2000
3030
,
1002
0000
0000
0000
,
2003
0000
0000
0000
,
0200
0000
0000
0000
,
3000
0000
0000
0000
,
0320
0000
0000
0000
,
0032
0000
0000
0000
,
2003
0000
0000
0000
,
0002
0000
0000
3003
,
0101
0000
0010
0100
,
0020
0000
0100
0030
,
2000
0000
3100
1000
,
0100
0020
0001
0030
,
1100
0000
0010
0100
,
0020
0000
0100
0030
,
0002
0000
0103
0001
,
0010
0010
0001
1000
,
2001
0001
0001
3000
,
0002
0100
0100
0003
,
0200
0010
0010
0300
,
0020
1000
1000
0030
,
1000
1000
1000
0000
,
0001
0001
0001
0000
,
0010
0010
0100
0020
,
0030
0000
0000
0000
,
0022
0000
0000
0000
,
0000
0033
0000
0000
,
2200
0000
0000
0000
,
0000
3300
0000
0000
,
0001
0100
0001
0110
,
0000
1000
0100
2000
,
3001
0010
0001
0110
,
0000
1000
0001
0100
,
2200
0000
0000
0000
,
0000
3300
0000
0000
,
0022
0000
0000
0000
,
0000
0033
0000
0000
,
1000
0010
1000
0110
,
0000
0001
0010
0002
,
1003
0100
1000
0110
,
0000
0001
1000
0020
,
0030
0000
0000
0000
;

//---------------dance-single - ----------------
#NOTEDATA:;
#CHARTNAME:;
#STEPSTYPE:dance-single;
#DESCRIPTION:;
#CHARTSTYLE:;
#DIFFICULTY:Medium;
#METER:7;
#RADARVALUES:0.301369,0.432370,0.199555,0.456126,0.000000,222.000000,201.000000,21.000000,48.000000,0.000000,0.000000,0.000000,0.000000,0.000000,0.301369,0.432370,0.199555,0.456126,0.000000,222.000000,201.000000,21.000000,48.000000,0.000000,0.000000,0.000000,0.000000,0.000000;
#CREDIT:led_light;
#NOTES:
0000
0000
0000
0000
,
0000
0000
0000
0000
,
0000
0000
0000
0000
,
0000
0000
0000
0000
,
0000
0000
0000
0000
,
2002
0000
3003
0000
0001
0100
0001
0000
,
1000
0010
1000
0000
0001
0100
0010
1000
,
0001
0100
0001
0000
0010
0100
1000
0001
,
0000
1000
0100
0000
1000
0001
1000
0000
,
0020
0000
0100
0000
,
2030
0000
0100
0000
,
3002
0000
0010
0000
,
2003
0000
3100
1000
,
0002
0000
1000
0000
,
0023
0000
1000
0000
,
0230
0000
0001
0000
,
0320
0000
0031
1000
,
2002
3003
0101
1000
,
0010
0000
0010
0000
1000
0100
0010
0000
,
0120
0000
0031
0000
1000
0100
1000
0000
,
0020
0000
0200
0330
,
2002
3003
1010
0001
,
0100
0000
0100
0000
0001
0010
0100
0000
,
0210
0000
0000
2300
0000
0000
3001
0000
,
0200
0010
0020
0330
,
2001
0000
0000
0000
,
3000
0100
0010
0010
,
0002
0000
0000
0000
,
0003
0010
0100
1000
,
0020
0000
0000
0000
,
0030
1000
0001
0001
,
0200
0000
0000
0000
,
0300
0001
1000
0010
,
0110
0000
0001
1000
,
0200
0000
0010
0000
,
1300
0000
0000
0000
0001
0100
0010
0000
,
0100
0010
2000
0000
0002
0000
3003
0000
,
0110
0000
1000
0001
,
0020
0000
0100
0000
,
0031
0000
0000
0000
1000
0001
0100
0000
,
0010
0010
1000
0001
,
1100
0100
0100
0100
,
0001
0001
0001
0001
,
0010
0010
0010
0010
,
1000
1000
1000
1000
,
0002
0103
2000
3100
,
0002
0103
0020
1030
,
0001
0010
0001
0000
1000
0100
1000
0010
,
0000
0000
0000
0000
,
2100
0100
3100
0200
,
0010
0020
0330
0000
,
0012
0010
0013
0020
,
0100
0200
0330
0010
,
0011
1000
0001
0110
,
0000
0001
0100
0000
0010
0000
0020
0000
,
1030
1000
0001
0011
,
0000
0010
0100
0000
1000
0000
1000
0000
,
2010
0010
3010
0020
,
0100
0200
0330
0000
,
0102
0100
0103
0200
,
0010
0020
0330
0000
,
0101
1000
0001
0110
,
0000
0001
0010
0000
0100
0000
0200
0000
,
1300
1000
0001
0101
,
0000
0100
0010
0000
1000
0000
1000
0002
,
0003
0000
0000
0000
;

//---------------dance-single - ----------------
#NOTEDATA:;
#CHARTNAME:;
#STEPSTYPE:dance-single;
#DESCRIPTION:;
#CHARTSTYLE:;
#DIFFICULTY:Hard;
#METER:12;
#RADARVALUES:0.513142,0.617671,0.218561,0.494137,0.099778,378.000000,355.000000,23.000000,52.000000,0.000000,0.000000,0.000000,0.000000,0.000000,0.513142,0.617671,0.218561,0.494137,0.099778,378.000000,355.000000,23.000000,52.000000,0.000000,0.000000,0.000000,0.000000,0.000000;
#CREDIT:led_light;
#NOTES:
0000
0000
0000
0000
,
0000
0000
0000
0000
,
0000
0000
0000
0000
,
0000
0000
0000
0000
,
0000
0000
0000
0000
,
2100
0000
3010
1000
0001
0100
0001
0100
,
0010
1000
0001
0001
0100
0001
0010
0100
,
1000
1000
0100
1000
0001
0001
0010
0001
,
1000
0000
0100
0000
0010
0000
0001
0000
1000
0010
1000
0000
1000
0001
0010
0100
,
2000
0000
3000
0100
0010
0100
1000
0000
,
0002
0000
0003
0000
0100
0002
2000
0003
,
3020
0000
0030
0100
0001
1000
0002
0000
,
2000
0000
3003
0100
2000
0000
3001
0000
,
1002
0000
0003
0010
0100
0010
0001
0000
,
2000
0000
3000
0000
2010
0000
0002
3000
,
0203
0000
0300
0010
1000
0001
2000
0000
,
0002
0000
0000
0000
3003
0000
0010
0000
0002
0000
0000
0000
1003
0100
1000
0000
,
1002
0000
0013
0001
1000
0010
1000
0010
,
0100
0000
0000
0000
0110
0000
0001
0000
0010
0001
0010
0000
0001
1000
0001
0000
,
0201
0000
0310
0010
1000
2000
0002
3003
,
0011
0001
1000
0100
1100
1000
0001
0100
,
0120
0000
0030
1000
0010
0000
0010
0000
0100
0000
0001
0000
0100
0000
0010
0000
,
0100
0001
1000
0100
1000
0001
0010
0100
,
2000
0000
3100
0002
0000
0103
2000
0000
,
3020
0000
1030
0000
0002
0000
0103
0001
,
2000
0000
0002
0003
0000
0000
0002
0003
,
3000
0000
0001
0000
0010
0000
0100
1000
,
0002
0000
2000
3000
0000
0000
2000
3000
,
0003
1000
0100
0010
0001
0000
0100
0000
,
0020
0000
0200
0300
0000
0000
0200
0300
,
0030
0000
0001
0000
0010
0000
1000
0100
,
0020
0000
0200
0300
0000
0000
0200
0300
,
0030
0000
1000
0000
0010
0001
0010
0001
,
1000
0000
0000
1000
0000
0000
1100
0000
0001
0000
0100
0000
0010
0000
1000
0000
,
0001
0100
0000
0100
0000
0010
0000
0000
0110
0000
0000
0000
1000
0000
0000
0000
,
0101
0000
0000
0001
0000
0000
1000
0000
0010
0000
0001
0000
0010
0000
1000
0000
,
0010
1000
0000
1000
0001
0000
0100
0000
0110
0000
0001
0000
2000
0000
3000
0000
,
0001
0000
0000
0001
0000
0000
0101
0000
1000
0000
0100
0000
0010
0000
0001
0000
,
1000
0100
0000
0100
0000
0010
0000
0000
0110
0000
0000
0000
0001
0000
0000
0000
,
1100
0000
0000
1000
0000
0000
0001
0000
0010
0000
1000
0000
0010
0000
0001
0000
,
0100
0010
0100
0010
1000
0001
1000
0000
,
2100
0100
0100
0100
,
0010
0010
0100
0001
,
3002
0100
0100
0100
,
0010
0000
0000
0000
0010
0000
0000
0000
0103
0000
0001
0000
1000
0100
1000
0000
,
0001
0010
0001
0010
0100
0010
0100
0010
,
0100
1000
0100
1000
0001
0100
0001
0100
,
0010
0010
0100
0100
0001
1000
0200
0320
,
0030
0000
0000
0000
,
1000
0100
0001
0100
1000
0000
1000
0100
,
0001
0100
2000
0000
3000
0000
0000
0000
,
0001
0010
1000
0010
0001
0000
0001
0010
,
1000
0010
0002
0000
0003
0010
0100
1000
,
1100
0000
0001
0100
0101
0010
1000
0001
,
0000
0001
0100
0001
1000
0100
0020
0000
,
0031
0001
0010
1000
1010
0010
0001
1000
,
0000
0100
0010
0100
1000
0001
0020
0000
,
0031
0100
1000
0100
0001
0000
0001
0100
,
1000
0100
0002
0000
0003
0000
0000
0000
,
1000
0010
0001
0010
1000
0000
1000
0010
,
0001
0000
0010
0000
2000
0000
0000
0000
3000
0000
0000
0010
0000
0000
0100
0000
,
0101
0000
1000
0100
1100
0010
0001
1000
,
0000
1000
0100
1000
0001
0100
0020
0000
,
1030
1000
0010
0001
0011
0010
1000
0001
,
0000
0100
0010
0100
0001
1000
0010
0020
,
0030
0000
0000
0000
;

//---------------dance-double - ----------------
#NOTEDATA:;
#CHARTNAME:;
#STEPSTYPE:dance-double;
#DESCRIPTION:;
#CHARTSTYLE:;
#DIFFICULTY:Easy;
#METER:5;
#RADARVALUES:0.206343,0.308836,0.171047,0.408613,0.000000,152.000000,134.000000,18.000000,43.000000,0.000000,0.000000,0.000000,0.000000,0.000000,0.206343,0.308836,0.171047,0.408613,0.000000,152.000000,134.000000,18.000000,43.000000,0.000000,0.000000,0.000000,0.000000,0.000000;
#CREDIT:led_light;
#NOTES:
00000000
00000000
00000000
00000000
,
00000000
00000000
00000000
00000000
,
00000000
00000000
00000000
00000000
,
00000000
00000000
00000000
00000000
,
00000000
00000000
00000000
00000000
,
00010000
00000000
00001000
00001000
,
00100000
00010000
01000000
00000000
,
00100000
00000000
10000000
10000000
,
00010000
10000000
01000000
00010000
,
00002000
00000000
00013000
00000000
,
00020000
00000000
00030100
00000000
,
00002000
00000000
00003010
00000000
,
00000020
00000000
00010030
00000000
,
00020000
00000000
00031000
00000000
,
00002000
00000000
01003000
00000000
,
00020000
00000000
00130000
00000000
,
00200000
00000000
01300000
00100000
,
01100000
00000000
10010000
00000000
,
00100000
00100000
00001000
00010000
,
00011000
00010000
00001000
00000010
,
00000002
00000000
00002000
00003003
,
00000110
00000000
00001001
00000000
,
00000100
00000100
00010000
00001000
,
00021000
00000000
00000000
00032000
00000000
00000000
00013000
00000000
,
00020000
02030000
23000000
30000000
,
10020000
00000000
00000000
00000000
,
00230000
00000000
00000000
00000000
,
00002000
00000000
00000000
00000000
,
00300000
00000000
00000000
00000000
,
00023000
00000000
00000000
00000000
,
00030020
00000000
00000000
00000000
,
00002030
00000000
00000000
00000000
,
00000002
00000000
00000000
00003003
,
00000011
00000000
00000100
00001000
,
00000200
00000000
00010000
00000300
,
00020000
00000000
00031000
00001000
,
01000000
00020000
10000000
00030000
,
11000000
00000000
00100000
00010000
,
00200000
00000000
00001000
00300000
,
00002000
00000000
00013000
00010000
,
00000010
00001000
00000010
00000100
,
00001002
00000000
00000103
00000000
,
00002000
00000000
00013000
00000000
,
00200000
00000000
10300000
00000000
,
02000000
00000000
03100000
00000000
,
00001000
00001000
00001000
00001000
,
00010000
00010000
00010000
00010000
,
00001000
00000100
00000001
00000020
,
00000030
00000000
00000000
00000000
,
00000220
00000000
00000000
00000000
,
00000000
00000330
00000000
00000000
,
00022000
00000000
00000000
00000000
,
00000000
00033000
00000000
00000000
,
00001000
01000000
00001000
00011000
,
00000000
00010000
00002000
00003000
,
01000000
00001000
00010000
00110000
,
00000000
10000000
00010000
01000000
,
02200000
00000000
00000000
00000000
,
00000000
03300000
00000000
00000000
,
00022000
00000000
00000000
00000000
,
00000000
00033000
00000000
00000000
,
00010000
00000100
00010000
00011000
,
00000000
00001000
00020000
00030000
,
00000100
00010000
00001000
00001010
,
00000000
00000001
00001000
00000200
,
00000300
00000000
00000000
00000000
;

//---------------dance-double - ----------------
#NOTEDATA:;
#CHARTNAME:;
#STEPSTYPE:dance-double;
#DESCRIPTION:;
#CHARTSTYLE:;
#DIFFICULTY:Medium;
#METER:7;
#RADARVALUES:0.295939,0.401486,0.199555,0.475132,0.000000,218.000000,197.000000,21.000000,50.000000,0.000000,0.000000,0.000000,0.000000,0.000000,0.295939,0.401486,0.199555,0.475132,0.000000,218.000000,197.000000,21.000000,50.000000,0.000000,0.000000,0.000000,0.000000,0.000000;
#CREDIT:led_light;
#NOTES:
00000000
00000000
00000000
00000000
,
00000000
00000000
00000000
00000000
,
00000000
00000000
00000000
00000000
,
00000000
00000000
00000000
00000000
,
00000000
00000000
00000000
00000000
,
00000022
00000000
00000033
00000000
00001000
00000010
00001000
00000000
,
00000100
00000000
00000100
00000000
00000010
00000001
00000100
00000000
,
00001000
00001000
00001000
00000000
00010000
00010000
00010000
00001000
,
00000000
01000000
00010000
00000000
00100000
01000000
10000000
00000000
,
00020000
00000000
00100000
00000000
,
20030000
00000000
01000000
00000000
,
30200000
00000000
01000000
00000000
,
00320000
00000000
00031000
00001000
,
00020000
00000000
00000100
00000000
,
00030020
00000000
00001000
00000000
,
00000230
00000000
00000001
00000000
,
00000320
00000000
00001030
00000001
,
00002002
00003003
00000101
00000001
,
00000010
00000000
00000010
00000000
00000100
00001000
00000100
00000000
,
00021000
00000000
00030010
00000000
00010000
00001000
00010000
00000000
,
02000000
00000000
00200000
03300000
,
20020000
30030000
10100000
10000000
,
01000000
00000000
01000000
00000000
00100000
00010000
00100000
00000000
,
00021000
00000000
00000000
00030200
00000000
00000000
00000310
00000000
,
00000002
00001000
00002000
00003003
,
00002001
00000000
00000000
00000000
,
00003000
00000001
00000100
00001000
,
00020000
00000000
00000000
00000000
,
00030000
00001000
00010000
01000000
,
20000000
00000000
00000000
00000000
,
30000000
00010000
00100000
01000000
,
20000000
00000000
00000000
00000000
,
30000000
00100000
00010000
00001000
,
00011000
00000000
00000000
00000000
00001000
00100000
00010000
00000000
,
20000000
00000000
00200000
00000000
,
30300000
00000000
00000000
00000000
10000000
01000000
00100000
00000000
,
00002000
00020000
00000000
00033000
,
00011000
00000000
00000000
00000000
00010000
00000100
00001000
00000000
,
00000002
00000000
00000200
00000000
,
00000303
00000000
00000000
00000000
00000001
00000010
00000100
00000000
,
00010000
00010000
00001000
00010000
,
00101000
00100000
00100000
00100000
,
00001000
00001000
00001000
00001000
,
00010000
00010000
00010000
00010000
,
00000010
00000010
00000010
00000010
,
00002000
00003100
00000002
00000103
,
00002000
00003100
00020000
00031000
,
00100000
01000000
00100000
00000000
00010000
10000000
00010000
10000000
,
00000000
00000000
00000000
00000000
,
21000000
01000000
31000000
02000000
,
00010000
00020000
03030000
00000000
,
00120000
00100000
00130000
00200000
,
00001000
00002000
00303000
00010000
,
00011000
00001000
00010000
00000110
,
00000000
00001000
00000001
00000000
00000100
00000000
00000200
00000000
,
00000310
00000010
00010000
00011000
,
00000000
00000100
00000010
00000000
00000001
00000000
00000001
00000000
,
00000012
00000010
00000013
00000020
,
00001000
00002000
00003030
00000000
,
00002100
00000100
00003100
00000200
,
00010000
00020000
00030300
00000000
,
00011000
00010000
00001000
01100000
,
00000000
00010000
10000000
00000000
00100000
00000000
00200000
00000000
,
01300000
01000000
00001000
00011000
,
00000000
00100000
01000000
00000000
10000000
00000000
10000000
00020000
,
00030000
00000000
00000000
00000000
;

//---------------dance-double - ----------------
#NOTEDATA:;
#CHARTNAME:;
#STEPSTYPE:dance-double;
#DESCRIPTION:;
#CHARTSTYLE:;
#DIFFICULTY:Hard;
#METER:12;
#RADARVALUES:0.503640,0.648555,0.199555,0.522645,0.080772,371.000000,350.000000,21.000000,55.000000,0.000000,0.000000,0.000000,0.000000,0.000000,0.503640,0.648555,0.199555,0.522645,0.080772,371.000000,350.000000,21.000000,55.000000,0.000000,0.000000,0.000000,0.000000,0.000000;
#CREDIT:led_light;
#NOTES:
// measure 0
00000000
00000000
00000000
00000000
,  // measure 1
00000000
00000000
00000000
00000000
,  // measure 2
00000000
00000000
00000000
00000000
,  // measure 3
00000000
00000000
00000000
00000000
,  // measure 4
00000000
00000000
00000000
00000000
,  // measure 5
00000012
00000000
00001003
00000001
00000100
00000010
00000100
00000010
,  // measure 6
00001000
00000100
00010000
00001000
01000000
00001000
00010000
00010000
,  // measure 7
00001000
00010000
00000100
00010000
00000010
00010000
00001000
00001000
,  // measure 8
00100000
00000000
00010000
00000000
10000000
00000000
01000000
00000000
10000000
00010000
10000000
00000000
00100000
00000000
01000000
00000000
,  // measure 9
00200000
00000000
00300000
10000000
01000000
00100000
00010000
00000000
,  // measure 10
20000000
00000000
30000000
00000000
01000000
20000000
00020000
30000000
,  // measure 11
00230000
00000000
00300000
00001000
00010000
00000100
00020000
00000000
,  // measure 12
00002000
00000000
00033000
00010000
00000020
00000000
00000130
00000000
,  // measure 13
00002010
00000000
00003000
00000001
00000010
00000100
00001000
00000000
,  // measure 14
00000002
00000003
00002100
00003020
,  // measure 15
00020030
00000000
00030000
00001000
00100000
00001000
00020000
00000000
,  // measure 16
00002000
00000000
00000000
00000000
00033000
00000000
00100000
00000000
02000000
00000000
00000000
00000000
13000000
00010000
10000000
00000000
,  // measure 17
10020000
00000000
00130000
00010000
01000000
00100000
01000000
00100000
,  // measure 18
10000000
00000000
00000000
00000000
11000000
00000000
00010000
00000000
10000000
01000000
10000000
00000000
00010000
00000000
00100000
00000000
,  // measure 19
00210000
00000000
00301000
00001000
00010000
00020000
00002000
00033000
,  // measure 20
00011000
00010000
00000010
00001000
00001010
00000001
00001000
00000100
,  // measure 21
00001200
00000000
00010300
00001000
00010000
00000000
00001000
00000000
00100000
00000000
00010000
00000000
01000000
00000000
00100000
00000000
,  // measure 22
01000000
00010000
10000000
01000000
10000000
00010000
00100000
01000000
,  // measure 23
20000000
00000000
31000000
00200000
00000000
00301000
00020000
00000000
,  // measure 24
00032000
00000000
00003100
00000000
00000002
00000000
00000013
00000100
,  // measure 25
00002000
00000000
00000002
00000003
00000000
00000000
00000002
00000003
,  // measure 26
00003000
00000000
00001000
00000000
00000010
00000000
00010000
00100000
,  // measure 27
20000000
00000000
00020000
00030000
00000000
00000000
00020000
00030000
,  // measure 28
30000000
10000000
01000000
00000000
00100000
00000000
00010000
00000000
,  // measure 29
02000000
00000000
00200000
00300000
00000000
00000000
00200000
00300000
,  // measure 30
03000000
01000000
00010000
00100000
,  // measure 31
00002000
00000000
00000020
00000030
00000000
00000000
00000020
00000030
,  // measure 32
00003000
00000000
00000001
00000000
00001000
00000010
00001000
00000010
,  // measure 33
00000100
00000000
00000000
00000100
00000000
00000000
00000101
00000000
00000001
00000000
00000100
00000000
00000010
00000000
00001000
00000000
,  // measure 34
00000100
00010000
00000000
00010000
00001000
00000000
00010000
00000000
00011000
00000000
00000000
00001000
00000000
00000000
00100000
00000000
,  // measure 35
00110000
00000000
00000000
00010000
00000000
00000000
10000000
00000000
00100000
00000000
00010000
00000000
00100000
00000000
10000000
00000000
,  // measure 36
00100000
10000000
00000000
10000000
01000000
00000000
00100000
00000000
01100000
00000000
00010000
00000000
20000000
00000000
30000000
00000000
,  // measure 37
01000000
00000000
00000000
01000000
00000000
00000000
11000000
00000000
10000000
00000000
01000000
00000000
00100000
00000000
00010000
00000000
,  // measure 38
01000000
00001000
00000000
00001000
00010000
00000000
00001000
00000000
00011000
00000000
00000000
00000010
00000000
00000000
00000000
00000000
,  // measure 39
00001010
00000000
00000000
00001000
00000000
00000000
00000001
00000000
00000010
00000000
00000100
00000000
00000010
00000000
00000001
00000000
,  // measure 40
00002000
00003002
00000203
00001300
,  // measure 41
00021000
00001000
00001000
00001000
,  // measure 42
00000010
00000010
00001000
00000100
,  // measure 43
00032000
00010000
00010000
00010000
,  // measure 44
00100000
00000000
00100000
00000000
00013000
00001000
01000000
00010000
,  // measure 45
10000000
00100000
10000000
00100000
01000000
00010000
01000000
00010000
,  // measure 46
00100000
00001000
00100000
00001000
00010000
00001000
00010000
00001000
,  // measure 47
00000010
00000010
00000001
00000001
00001000
00000001
00000200
00000320
,  // measure 48
00000030
00000000
00000000
00000000
,  // measure 49
00010000
00001000
00000100
00001000
00010000
00000000
00010000
00001000
,  // measure 50
00000100
00001000
00020000
00000000
00030000
00000000
00000000
00000000
,  // measure 51
00001000
00010000
01000000
00010000
00001000
00000000
00001000
00010000
,  // measure 52
00100000
00010000
00002000
00000000
00003000
01000000
00010000
01000000
,  // measure 53
01100000
00000000
10000000
00010000
00110000
00010000
10000000
01000000
,  // measure 54
00000000
00100000
00001000
00010000
00001000
01000000
00020000
00000000
,  // measure 55
10030000
10000000
01000000
00010000
00001000
00001000
00010000
00100000
,  // measure 56
00000000
00100000
10000000
00010000
00100000
01000000
00200000
00000000
,  // measure 57
00301000
00010000
01000000
00010000
00001000
00000000
00001000
00010000
,  // measure 58
01000000
00010000
00002000
00000000
00003000
00000000
00000000
00000000
,  // measure 59
00010000
00001000
00000100
00001000
00010000
00000000
00010000
00001000
,  // measure 60
00000010
00000000
00001000
00000000
00020000
00000000
00000000
00000000
00030000
00000000
00000000
00000100
00000000
00000000
00001000
00000000
,  // measure 61
00001100
00000000
00000001
00001000
00001010
00001000
00000001
00000100
,  // measure 62
00000000
00000010
00010000
00001000
00010000
00000100
00002000
00000000
,  // measure 63
00003001
00000001
00000100
00001000
00010000
00010000
00001000
00000010
,  // measure 64
00000000
00000010
00000001
00001000
00000010
00000100
00000010
00000020
,  // measure 65
00000030
00000000
00000000
00000000
;
