#VERSION:0.83;
#TITLE:Fresh;
#SUBTITLE:;
#ARTIST:Kawai Sprite;
#TITLETRANSLIT:;
#SUBTITLETRANSLIT:;
#ARTISTTRANSLIT:;
#GENRE:Friday Night Funkin';
#ORIGIN:;
#CREDIT:;
#BANNER:Fresh.png;
#BACKGROUND:../bg.png;
#PREVIEWVID:;
#JACKET:Fresh-jacket.png;
#CDIMAGE:;
#DISCIMAGE:;
#LYRICSPATH:;
#CDTITLE:../cdtitle.png;
#MUSIC:Fresh.ogg;
#OFFSET:1.396000;
#SAMPLESTART:8.603000;
#SAMPLELENGTH:15.000000;
#SELECTABLE:YES;
#BPMS:0.000=120.000;
#STOPS:;
#DELAYS:;
#WARPS:;
#TIMESIGNATURES:0.000=4=4;
#TICKCOUNTS:0.000=4;
#COMBOS:0.000=1;
#SPEEDS:0.000=1.000=0.000=0;
#SCROLLS:0.000=1.000;
#FAKES:;
#LABELS:0.000=Song Start;
#BGCHANGES: -1.000=Fresh.avi=1.000=0=0=0=StretchNoLoop====,
99999=-nosongbg-=1.000=0=0=0 // don't automatically add -songbackground-
;
#KEYSOUNDS:;
#ATTACKS:
;

//---------------dance-single - ----------------
#NOTEDATA:;
#CHARTNAME:;
#STEPSTYPE:dance-single;
#DESCRIPTION:;
#CHARTSTYLE:;
#DIFFICULTY:Hard;
#METER:10;
#RADARVALUES:0.428917,0.493341,0.338983,0.000000,0.048426,248.000000,220.000000,28.000000,0.000000,0.000000,0.000000,0.000000,0.000000,0.000000,0.428917,0.493341,0.338983,0.000000,0.048426,248.000000,220.000000,28.000000,0.000000,0.000000,0.000000,0.000000,0.000000,0.000000;
#CREDIT:led_light;
#NOTES:
0000
0000
0000
0000
,
0000
0000
0000
0000
,
0000
0000
0000
0000
,
0000
0000
0000
0000
,
0000
0000
0000
0000
,
1000
1000
0100
0000
0001
0000
1100
0000
,
1000
1000
0010
0000
0001
0000
1010
0000
,
0010
0100
0010
0010
0100
0000
0101
0000
,
1000
0100
1000
1000
0001
0000
1100
0000
,
0010
0001
1000
0001
0001
0000
0110
0000
,
0000
1000
0001
1000
1000
0000
0110
0000
,
0001
0100
0000
0010
1000
1000
0000
0100
,
0010
0010
0000
0100
1000
1000
0000
0010
,
1010
0000
0110
0000
1010
1000
0100
0000
,
1000
0001
0010
0010
1000
0001
0100
0000
,
0011
0000
0110
0000
0011
0001
0100
0000
,
0001
1000
0010
0010
0001
1000
0100
0000
,
0000
0000
0001
1000
0010
0100
0010
1000
,
0000
0001
0010
0100
1000
0000
0101
0000
,
0000
0000
1000
0001
0010
0100
0010
0001
,
0000
1000
0010
0100
0001
0000
1100
0000
,
1000
0001
0100
0000
0010
0000
0010
0010
,
1000
0001
0010
0000
0100
0000
0100
0100
,
0010
0001
1000
0001
0100
0000
0000
0100
,
0010
1000
0001
1000
0100
0000
0000
0100
,
1000
0001
1000
0001
0101
0000
0000
0100
,
0001
1000
0001
1000
1100
0000
0000
1000
,
0001
0001
0100
0100
0010
1000
0000
0010
,
1000
1000
0100
0100
0010
0001
0100
0001
,
1001
0000
1100
0000
1000
0001
0101
0000
,
1000
0010
0100
0100
1000
0010
0100
0000
,
1001
0000
0011
0000
0001
1000
1010
0000
,
0001
0100
0010
0010
0001
0100
0010
0000
,
1000
0000
1000
0100
0010
0001
1000
0010
,
0000
0100
0001
1000
0001
0000
0011
0000
,
0000
0000
0001
0010
0100
1000
0001
0100
,
0000
0010
1000
0001
1000
0000
1100
0000
,
0010
0000
0010
0000
0011
0000
0000
1000
0000
0100
0010
0000
0001
0000
0100
0000
,
0010
0000
0010
0000
1010
0000
0000
0001
0000
0100
0010
0000
1000
0000
0100
0000
,
0010
0000
0010
0000
1001
0000
0000
0100
0000
0010
0001
0000
0100
0000
0010
0000
,
0100
0000
0100
0000
1001
0000
0000
0100
0000
0010
1000
0000
0100
0000
0000
0000
;

//---------------dance-single - ----------------
#NOTEDATA:;
#CHARTNAME:;
#STEPSTYPE:dance-single;
#DESCRIPTION:;
#CHARTSTYLE:;
#DIFFICULTY:Medium;
#METER:7;
#RADARVALUES:0.287098,0.320672,0.048426,0.000000,0.000000,166.000000,162.000000,4.000000,0.000000,0.000000,0.000000,0.000000,0.000000,0.000000,0.287098,0.320672,0.048426,0.000000,0.000000,166.000000,162.000000,4.000000,0.000000,0.000000,0.000000,0.000000,0.000000,0.000000;
#CREDIT:led_light;
#NOTES:
0000
0000
0000
0000
,
0000
0000
0000
0000
,
0000
0000
0000
0000
,
0000
0000
0000
0000
,
0000
0000
0000
0000
,
0000
0010
1000
0000
0100
0000
0100
0000
,
0000
0010
1000
0000
0100
0000
0100
0000
,
0000
0010
0001
0000
0100
0000
0100
0000
,
0000
0010
0001
0000
0100
0000
0100
0000
,
0001
1000
0001
0000
1000
0000
1000
0000
,
0001
1000
0001
0000
1000
0000
1000
0000
,
0100
0001
0000
0100
1000
0000
1000
0000
,
0010
0001
0000
0010
1000
0000
1000
0000
,
0001
0000
0001
0000
0001
0100
0001
0000
,
1000
0010
0100
0000
0001
0000
1001
0000
,
1000
0000
1000
0000
1000
0100
1000
0000
,
0001
0010
0100
0000
1000
0000
1001
0000
,
0000
0000
0001
0100
0010
0000
1000
0000
,
0000
0100
0010
0100
,
0000
0000
1000
0100
0010
0000
0001
0000
,
0000
0100
0010
0100
,
0001
0100
0001
0000
0001
0000
0001
0000
,
0001
0100
0001
0000
0001
0000
0001
0000
,
1000
0100
1000
0000
1000
0000
0000
0000
,
1000
0100
1000
0000
1000
0000
0000
0000
,
0010
0100
0010
0000
0100
0000
0000
0000
,
0010
0100
0010
0000
0100
0000
0000
0000
,
0100
0100
0100
0000
0001
0000
0000
0000
,
0010
0010
0010
0000
1000
0000
0000
0000
,
1000
0000
1000
0000
1000
0100
0001
0000
,
0001
0100
1000
0000
1000
0000
1010
0000
,
0001
0000
0001
0000
0001
0100
1000
0000
,
1000
0100
0001
0000
0001
0000
0011
0000
,
0000
0000
0100
0010
0100
0000
0100
0000
,
0000
0100
1000
0001
,
0000
0000
0100
0010
0100
0000
0100
0000
,
0000
0100
0001
1000
,
0100
0100
0100
0000
0001
0100
1000
0000
,
0010
0010
0010
0000
0001
0010
1000
0000
,
0001
0001
0001
0000
0100
0010
1000
0000
,
1000
1000
1000
0000
0100
0010
0001
0000
;

//---------------dance-single - ----------------
#NOTEDATA:;
#CHARTNAME:;
#STEPSTYPE:dance-single;
#DESCRIPTION:;
#CHARTSTYLE:;
#DIFFICULTY:Easy;
#METER:5;
#RADARVALUES:0.204082,0.222004,0.000000,0.000000,0.000000,118.000000,118.000000,0.000000,0.000000,0.000000,0.000000,0.000000,0.000000,0.000000,0.204082,0.222004,0.000000,0.000000,0.000000,118.000000,118.000000,0.000000,0.000000,0.000000,0.000000,0.000000,0.000000,0.000000;
#CREDIT:led_light;
#NOTES:
0000
0000
0000
0000
,
0000
0000
0000
0000
,
0000
0000
0000
0000
,
0000
0000
0000
0000
,
0000
0000
0000
0000
,
1000
1000
1000
0000
,
0001
0001
0001
0000
,
0010
0100
0010
0000
,
0100
0010
0100
0000
,
1000
1000
1000
0010
,
0000
0001
0001
0010
,
1000
0000
0100
0000
,
0001
0000
0010
0000
,
1000
1000
1000
1000
,
0100
0001
0100
1000
,
0001
0001
0001
0001
,
0010
1000
0010
0001
,
0000
1000
0100
0010
,
0000
0001
1000
1000
,
0000
0001
0100
0010
,
0000
1000
0001
0001
,
1000
0100
1000
1000
,
0001
0100
0001
0001
,
1000
0010
0100
0000
,
0001
0010
0100
0000
,
1000
1000
0010
0000
,
0001
0001
0010
0000
,
1000
1000
0100
0000
,
0001
0001
0100
0100
,
1000
0001
1000
0001
,
0100
0010
1000
1000
,
0001
1000
0001
1000
,
0100
0010
0001
0001
,
0000
1000
0100
0010
,
0000
0001
1000
1000
,
0000
0001
0100
0010
,
0000
1000
0001
0001
,
0010
0100
0000
0100
,
0010
0100
0000
0100
,
1000
0001
0000
0001
,
1000
0001
0000
0001
;

//---------------dance-single - ----------------
#NOTEDATA:;
#CHARTNAME:;
#STEPSTYPE:dance-single;
#DESCRIPTION:;
#CHARTSTYLE:;
#DIFFICULTY:Beginner;
#METER:2;
#RADARVALUES:0.093393,0.148002,0.012107,0.000000,0.000000,54.000000,53.000000,1.000000,0.000000,0.000000,0.000000,0.000000,0.000000,0.000000,0.093393,0.148002,0.012107,0.000000,0.000000,54.000000,53.000000,1.000000,0.000000,0.000000,0.000000,0.000000,0.000000,0.000000;
#CREDIT:led_light;
#NOTES:
0000
0000
0000
0000
,
0000
0000
0000
0000
,
0000
0000
0000
0000
,
0000
0000
0000
0000
,
0000
0000
0000
0000
,
0010
0000
0000
0000
,
0010
0000
0000
0000
,
0100
0000
0000
0000
,
0100
0000
0000
0000
,
1000
0000
0000
0000
,
0010
0000
0000
0000
,
0001
0000
0000
0000
,
0010
0000
0000
0000
,
1000
0000
1000
0000
,
1000
1000
1000
0000
,
0001
0000
0001
0000
,
0001
0001
0001
0000
,
0000
0010
0010
0000
,
0010
0000
0000
0000
,
0000
0100
0100
0000
,
0100
0000
0000
0000
,
1000
0000
0000
0000
,
1000
0000
0000
0000
,
0001
0000
0000
0000
,
0001
0000
0000
0000
,
0100
0000
0000
0000
,
1000
0000
0000
0000
,
0010
0000
0000
0000
,
1000
0000
0000
0000
,
1000
0000
1000
0000
,
1000
1000
1000
0000
,
0001
0000
0001
0000
,
0001
0001
0001
0000
,
0000
0100
0100
0000
,
0100
0000
0000
0000
,
0000
0010
0010
0000
,
0010
0000
0000
0000
,
1000
0000
0000
0000
,
1000
0000
0000
0000
,
0001
0000
0000
0000
,
0001
0000
0000
1001
;

//---------------dance-single - FNF Hard----------------
#NOTEDATA:;
#CHARTNAME:;
#STEPSTYPE:dance-single;
#DESCRIPTION:FNF Hard;
#CHARTSTYLE:;
#DIFFICULTY:Edit;
#METER:11;
#RADARVALUES:0.425458,0.542676,0.096852,0.169492,0.121065,246.000000,238.000000,8.000000,14.000000,0.000000,0.000000,0.000000,0.000000,0.000000,0.425458,0.542676,0.096852,0.169492,0.121065,246.000000,238.000000,8.000000,14.000000,0.000000,0.000000,0.000000,0.000000,0.000000;
#CREDIT:led_light (FNF Hard);
#NOTES:
// measure 0
0000
0000
0000
0000
,  // measure 1
0100
0000
0000
0000
0100
0000
0000
0000
0001
0000
0000
0000
0000
0000
0001
0000
0000
0000
0100
0000
1000
0000
0000
0000
0011
0000
0000
0000
0100
0000
2000
3000
,  // measure 2
0100
0000
0000
0000
0100
0000
0000
0000
0001
0000
0000
0000
0000
0000
0001
0000
0000
0000
0100
0000
1000
0000
0000
0000
0011
0000
0000
0000
0100
0000
2000
3000
,  // measure 3
0100
0000
0000
0000
0100
0000
0000
0000
0001
0000
0000
0000
0000
0000
0001
0000
0000
0000
0100
0000
1000
0000
0000
0000
0011
0000
0000
0000
0002
0003
0000
0000
,  // measure 4
0100
0000
0000
0000
0100
0000
0000
0000
0001
0000
0000
0000
0000
0000
0001
0000
0000
0000
0100
0000
1000
0000
0000
0000
0011
0000
0000
0000
0002
0003
0000
0000
,  // measure 5
0000
1000
0100
0000
0010
0000
0000
0000
,  // measure 6
0000
1000
0100
0000
0010
0000
0000
0000
,  // measure 7
0000
1000
0010
0001
1000
0000
0000
0000
,  // measure 8
0000
1000
0010
0001
1000
0000
0000
0000
,  // measure 9
0000
1000
0100
0001
1000
0000
0010
0000
,  // measure 10
0000
1000
0100
0001
1000
0000
0010
0000
,  // measure 11
0001
0100
0000
0010
0001
0100
0000
1000
,  // measure 12
0001
0100
0000
0010
0001
0100
0000
1000
,  // measure 13
0001
0000
1000
0000
0100
0100
1000
0000
,  // measure 14
0100
0010
0001
1000
0010
0001
0100
0000
,  // measure 15
0001
0000
1000
0000
0100
0100
1000
0000
,  // measure 16
0100
0010
0001
1000
0010
0001
0100
0000
,  // measure 17
0000
0000
1000
0001
0100
0001
0100
0010
,  // measure 18
0000
0000
1000
0000
0001
0000
1000
0000
0020
0000
0000
0030
0200
0000
0000
0300
,  // measure 19
0000
0000
1000
0001
0100
0001
0100
0010
,  // measure 20
0000
0000
1000
0000
0001
0000
1000
0000
0020
0000
0000
0030
0200
0000
0000
0300
,  // measure 21
0000
1000
0100
0000
0010
0000
0010
0010
,  // measure 22
0000
1000
0100
0000
0010
0000
0010
0010
,  // measure 23
0000
1000
0010
0001
1000
0000
0000
1000
,  // measure 24
0000
1000
0010
0001
1000
0000
0000
1000
,  // measure 25
0000
1000
0100
0001
1000
0000
0000
0010
,  // measure 26
0000
1000
0100
0001
1000
0000
0000
0010
,  // measure 27
0001
0100
0100
0010
0001
0100
0000
1000
,  // measure 28
0001
0100
0100
0010
0001
0100
0000
1000
,  // measure 29
0001
0000
1000
0000
0100
0100
1000
0000
,  // measure 30
0100
0010
0001
1000
0010
0001
0100
0000
,  // measure 31
0001
0000
1000
0000
0100
0100
1000
0000
,  // measure 32
0100
0010
0001
1000
0010
0001
0100
0000
,  // measure 33
0000
0000
1000
0001
0100
0001
0100
0010
,  // measure 34
0000
0000
1000
0000
0001
0000
1000
0000
0020
0000
0000
0030
0200
0000
0000
0300
,  // measure 35
0000
0000
1000
0001
0100
0001
0100
0010
,  // measure 36
0000
0000
1000
0000
0001
0000
1000
0000
0020
0000
0000
0030
0200
0000
0000
0300
,  // measure 37
0100
0000
0000
0000
0100
0000
0000
0000
0001
0000
0000
0000
0000
0000
0001
0000
0000
0000
0100
0000
1000
0000
0000
0000
0011
0000
0000
0000
0100
0000
2000
3000
,  // measure 38
0100
0000
0000
0000
0100
0000
0000
0000
0001
0000
0000
0000
0000
0000
0001
0000
0000
0000
0100
0000
1000
0000
0000
0000
0011
0000
0000
0000
0100
0000
2000
3000
,  // measure 39
0100
0000
0100
0000
0001
0000
0000
0001
0000
0100
1000
0000
0011
0000
0000
0000
,  // measure 40
0100
0000
0100
0000
0001
0000
0000
0001
0000
0100
1000
0000
0011
0000
0000
0000
;
