#TITLE:Fresh;
#SUBTITLE:[B-Side Remix];
#ARTIST:Rozebud;
#TITLETRANSLIT:;
#SUBTITLETRANSLIT:;
#ARTISTTRANSLIT:;
#GENRE:Friday Night Funkin';
#CREDIT:;
#BANNER:Fresh [B-Side Remix].png;
#BACKGROUND:../bg.png;
#LYRICSPATH:;
#CDTITLE:../cdtitle.png;
#MUSIC:Fresh [B-Side Remix].ogg;
#OFFSET:1.787000;
#SAMPLESTART:7.303000;
#SAMPLELENGTH:15.000000;
#LASTBEATHINT:1.731400;
#SELECTABLE:YES;
#BPMS:0.000000=132.000000
;
#STOPS:
;
#BGCHANGES: -1.000=Fresh [B-Side Remix].avi=1.000=0=0=0=StretchNoLoop====,
99999=-nosongbg-=1.000=0=0=0 // don't automatically add -songbackground-
;
#KEYSOUNDS:;
#ATTACKS:;

//---------------dance-single - FNF Hard----------------
#NOTES:
     dance-single:
     :
     Edit:
     13:
     0.602894,0.545954,0.000000,0.000000,0.602894,315.000000,315.000000,0.000000,0.000000,0.000000,0.000000,0.602894,0.545954,0.000000,0.000000,0.602894,315.000000,315.000000,0.000000,0.000000,0.000000,0.000000:
0000
0000
0000
0000
,
0100
0000
0100
0000
0010
0000
0000
0010
0000
0100
0100
0000
0010
0000
1000
0001
,
0010
0000
0010
0000
0100
0000
0000
0100
0000
0010
0010
0000
0100
0000
0001
1000
,
0100
0000
0100
0000
0010
0000
0000
0010
0000
0100
0100
0000
0010
0000
1000
0001
,
0010
0000
0010
0000
0100
0000
0000
0100
0000
0010
0010
0000
0100
0000
1000
0000
,
0000
0010
1000
0000
0001
0000
0001
0001
,
0000
0100
0001
0000
1000
0000
1000
1000
,
0000
0000
0010
0000
0100
0000
0001
0000
1000
0000
0000
0000
0010
0000
0000
1000
,
0000
0000
0100
0000
0010
0000
1000
0000
0001
0000
0000
0000
0100
0000
0000
0001
,
0000
0000
0001
0000
0100
1000
0010
0000
1000
0000
0000
0000
0001
0000
0000
0001
,
0000
0000
1000
0000
0010
0001
0100
0000
0001
0000
0000
0000
1000
0000
0000
1000
,
0010
0000
0100
0000
1000
0000
1000
0001
0100
0000
1000
0000
0000
0000
0010
0000
,
0100
0000
0010
0000
0001
0000
0001
1000
0010
0000
0001
0000
0000
0000
0100
0000
,
0001
0000
0000
1000
0000
0000
1000
0000
0000
0001
0100
0010
1000
0000
0000
0000
,
0010
0000
1000
0001
0100
1000
0010
0000
0100
1000
0010
0000
1000
0000
0000
0000
,
1000
0000
0000
0001
0000
0000
0001
0000
0000
1000
0010
0100
0001
0000
0000
0000
,
0100
0000
0001
1000
0010
0001
0100
0000
0010
0001
0100
0000
0001
0000
0000
0000
,
0000
0000
0000
0000
0001
0001
0100
0000
0010
0000
0001
1000
0010
0000
0001
0000
,
0000
0000
0001
0001
0100
0000
1000
0000
0100
0000
0000
0010
0000
0000
0000
0000
,
0000
0000
0000
0000
1000
1000
0010
0000
0100
0000
1000
0001
0100
0000
1000
0000
,
0000
0000
1000
1000
0010
0000
0001
0000
1000
0000
0000
0010
0000
0000
0001
0000
,
0000
0000
0010
0100
0001
0000
1000
0000
0100
0000
0000
0000
0100
0001
0100
0000
,
0000
0000
0100
0010
1000
0000
0001
0000
0010
0000
0000
0000
0010
1000
0010
0000
,
0000
0000
0100
1000
0010
0010
1000
0000
0001
0000
0001
1000
0000
0000
0001
0000
,
0000
0000
0010
0001
0100
0100
0001
0000
1000
0000
1000
0001
0000
0000
1000
0000
,
0000
0000
0010
0000
1000
0100
0010
0000
1000
0000
0001
0100
0000
0000
0010
0000
,
0000
0000
0100
0000
0001
0010
0100
0000
0001
0000
1000
0010
0000
0000
0100
0000
,
0010
0000
0000
1000
0000
1000
0001
0000
0001
0100
1000
0000
1000
0000
0001
0000
,
0100
0000
0000
0001
0000
0001
1000
0000
1000
0010
0001
0000
0001
0000
1000
0000
,
0001
0000
0000
1000
0000
0000
1000
0000
0000
0001
0100
0010
1000
0000
0000
0000
,
0010
0000
1000
0001
0100
1000
0010
0000
0100
1000
0010
0000
1000
0000
0000
0000
,
1000
0000
0000
0001
0000
0000
0001
0000
0000
1000
0010
0100
0001
0000
0000
0000
,
0100
0000
0001
1000
0010
0001
0100
0000
0010
0001
0100
0000
0001
0000
0000
0000
,
0000
0000
0000
0000
0001
0001
0100
0000
0010
0000
0001
1000
0010
0000
0001
0000
,
0000
0000
0001
0001
0100
0000
1000
0000
0100
0000
0000
0010
0000
0000
0000
0000
,
0000
0000
0000
0000
1000
1000
0010
0000
0100
0000
1000
0001
0100
0000
1000
0000
,
0000
0000
1000
1000
0010
0000
0001
0000
1000
0000
0000
0010
0000
0000
0001
0000
,
0100
0000
0100
0000
0010
0000
0000
0010
0000
0100
0100
0000
0010
0000
1000
0001
,
0010
0000
0010
0000
0100
0000
0000
0100
0000
0010
0010
0000
0100
0000
0001
1000
,
0100
0000
0100
0000
0010
0000
0000
0010
0000
0100
0100
0000
0010
0000
1000
0001
,
0010
0000
0010
0000
0100
0000
0000
0100
0000
0010
0010
0000
0100
0000
0000
0000
;

//---------------dance-single - ----------------
#NOTES:
     dance-single:
     :
     Hard:
     12:
     0.537820,0.545954,0.254555,0.000000,0.375134,281.000000,262.000000,19.000000,0.000000,0.000000,0.000000,0.537820,0.545954,0.254555,0.000000,0.375134,281.000000,262.000000,19.000000,0.000000,0.000000,0.000000:
0000
0000
0000
0000
,
0000
0000
0000
0000
,
0000
0000
0000
0000
,
0000
0000
0000
0000
,
0000
0000
0000
0000
,
0100
0001
1000
0000
0010
0000
0010
0010
,
1000
0001
0010
0000
0100
0000
0100
0100
,
0001
0000
0100
0000
1000
0000
0010
0000
0001
0000
0000
0000
0010
0000
0000
0110
,
0000
0000
0100
0000
0001
0000
0010
0000
1000
0000
0000
0000
0010
0000
0000
0110
,
0000
0000
0100
0000
1000
0100
1000
0000
0010
0000
0000
0000
0100
0000
0000
0110
,
0000
0000
0100
0000
0001
0100
0001
0000
0010
0000
0000
0000
0100
0000
0000
0100
,
0010
0000
0001
0000
0010
0000
0100
1000
0100
0000
1000
0000
0001
0000
0100
0000
,
0010
0000
1000
0000
0010
0000
0100
0001
0100
0000
0001
0000
1000
0000
0100
0000
,
0010
0000
0000
0010
0000
0000
1100
0000
0000
0001
0100
0000
0100
0000
0000
0000
,
0001
0000
1000
0100
0010
0001
0010
0000
0100
0000
0010
0000
0110
0000
0000
0000
,
0100
0000
0000
0100
0000
0000
0011
0000
0000
1000
0010
0000
0010
0000
0000
0000
,
1000
0000
0001
0010
0100
1000
0100
0000
0010
0000
0100
0000
0110
0000
0000
0000
,
0001
0000
0000
0000
1000
0100
0010
0000
0001
0000
0010
0100
1000
0000
0010
0000
,
0000
0000
0100
0000
0010
0000
1000
0000
0010
0000
0000
1100
0000
0000
0000
0000
,
1000
0000
0000
0000
0001
0100
0010
0000
1000
0000
0010
0100
0001
0000
0010
0000
,
0000
0000
0100
0000
0010
0000
0100
0000
0100
0000
0000
1000
0000
0000
0101
0000
,
0000
0001
0100
0100
0001
0000
0010
0010
,
0000
0100
1000
1000
0100
0000
0010
0010
,
0000
0000
0001
0000
0100
0000
0010
0000
1000
0000
0000
0100
0000
0000
0101
0000
,
0000
0000
1000
0000
0100
0000
0010
0000
0001
0000
0000
0100
0000
0000
1100
0000
,
0000
0000
0001
0000
0001
0100
0001
0000
1000
0000
0000
0100
0000
0000
0011
0000
,
0000
0000
1000
0000
1000
0010
1000
0000
0001
0000
0000
0010
0000
0000
1100
0000
,
0010
0000
0000
0001
0000
0001
0010
0000
0100
1000
0100
0000
1000
0000
0001
0000
,
0100
0000
0000
0001
0000
0001
0100
0000
0010
1000
0010
0000
1000
0000
0001
0000
,
0010
0000
0000
0010
0000
0000
1100
0000
0000
0001
0100
0000
0100
0000
0000
0000
,
0001
0000
1000
0100
0010
0001
0010
0000
0100
0000
0010
0000
0110
0000
0000
0000
,
0100
0000
0000
0100
0000
0000
0011
0000
0000
1000
0010
0000
0010
0000
0000
0000
,
1000
0000
0001
0010
0100
1000
0100
0000
0010
0000
0100
0000
0110
0000
0000
0000
,
0001
0000
0000
0000
1000
0100
0010
0000
0001
0000
0010
0100
1000
0000
0010
0000
,
0000
0000
0100
0000
0010
0000
1000
0000
0010
0000
0000
1100
0000
0000
0000
0000
,
1000
0000
0000
0000
0001
0100
0010
0000
1000
0000
0010
0100
0001
0000
0010
0000
,
0000
0000
0100
0000
0010
0000
0100
0000
0100
0000
0000
1000
0000
0000
0101
0000
,
0001
0000
0001
0000
1000
0000
0000
0100
0000
0010
0100
0000
1000
0000
0100
0000
,
1000
0000
1000
0000
0001
0000
0000
0010
0000
0100
0010
0000
0001
0000
0010
0000
,
0001
0000
0001
0000
1000
0000
0000
0010
0000
0100
0010
0000
1000
0000
0010
0000
,
1000
0000
1000
0000
0001
0000
0000
0100
0000
0010
0100
0000
0001
0000
0000
0000
;

//---------------dance-single - ----------------
#NOTES:
     dance-single:
     :
     Medium:
     8:
     0.329199,0.354870,0.093783,0.000000,0.026795,172.000000,165.000000,7.000000,0.000000,0.000000,0.000000,0.329199,0.354870,0.093783,0.000000,0.026795,172.000000,165.000000,7.000000,0.000000,0.000000,0.000000:
// measure 0
0000
0000
0000
0000
,  // measure 1
0000
0000
0000
0000
,  // measure 2
0000
0000
0000
0000
,  // measure 3
0000
0000
0000
0000
,  // measure 4
0000
0000
0000
0000
,  // measure 5
0000
0001
1000
0000
0010
0000
0010
0000
,  // measure 6
0000
1000
0001
0000
0010
0000
0010
0000
,  // measure 7
0000
0100
1000
0000
0001
0000
0010
0000
,  // measure 8
0000
0001
0100
0000
0010
0000
1000
0000
,  // measure 9
0000
0010
0001
0000
0010
0000
0010
0000
,  // measure 10
0000
0100
0001
0000
0010
0000
0010
0000
,  // measure 11
1000
0010
0001
0000
0010
0000
0010
0000
,  // measure 12
0100
1000
0010
0000
0001
0001
0001
0000
,  // measure 13
0010
0000
0000
0010
0000
0000
0010
0000
0000
0000
1000
0000
0001
0000
0000
0000
,  // measure 14
0010
0100
0010
0000
0100
0000
0110
0000
,  // measure 15
0100
0000
0000
0100
0000
0000
0100
0000
0000
0000
1000
0000
0001
0000
0000
0000
,  // measure 16
0100
0010
0100
0000
0010
0000
0110
0000
,  // measure 17
0000
0000
0001
0010
1000
0000
0010
0000
,  // measure 18
0000
0010
0001
1010
,  // measure 19
0000
0000
1000
0100
0001
0000
0100
0000
,  // measure 20
0000
0100
0001
1100
,  // measure 21
0000
0001
1000
0000
0010
0000
0010
0010
,  // measure 22
0000
1000
0001
0000
0010
0000
0010
0010
,  // measure 23
0000
0100
1000
0000
0001
0000
0010
0000
,  // measure 24
0000
0001
0100
0000
0010
0000
1000
0000
,  // measure 25
0000
0010
0001
0000
0010
0000
0010
0000
,  // measure 26
0000
0100
0001
0000
0010
0000
0010
0000
,  // measure 27
1000
0010
0001
0000
0010
0100
0010
0000
,  // measure 28
0100
1000
0010
0000
0001
0001
0001
0000
,  // measure 29
0010
0000
0000
0010
0000
0000
0010
0000
0000
0000
1000
0000
0001
0000
0000
0000
,  // measure 30
0010
0100
0010
0000
0100
0000
0110
0000
,  // measure 31
0100
0000
0000
0100
0000
0000
0100
0000
0000
0000
1000
0000
0001
0000
0000
0000
,  // measure 32
0100
0010
0100
0000
0010
0000
0110
0000
,  // measure 33
0000
0000
0001
0010
1000
0000
0010
0000
,  // measure 34
0000
0010
0001
1010
,  // measure 35
0000
0000
1000
0100
0001
0000
0100
0000
,  // measure 36
0000
0100
0001
0100
,  // measure 37
1000
1000
1000
0000
1000
0100
0001
0000
,  // measure 38
0100
0100
0100
0000
0010
0100
0010
0000
,  // measure 39
0001
0001
0001
0000
0001
0100
1000
0000
,  // measure 40
0100
0100
0100
0000
0010
0100
0010
0000
;

//---------------dance-single - ----------------
#NOTES:
     dance-single:
     :
     Easy:
     5:
     0.231588,0.300275,0.133976,0.000000,0.000000,121.000000,111.000000,10.000000,0.000000,0.000000,0.000000,0.231588,0.300275,0.133976,0.000000,0.000000,121.000000,111.000000,10.000000,0.000000,0.000000,0.000000:
0000
0000
0000
0000
,
0000
0000
0000
0000
,
0000
0000
0000
0000
,
0000
0000
0000
0000
,
0000
0000
0000
0000
,
0000
0100
0100
0100
,
0000
0001
0001
0001
,
0000
0010
0100
0100
,
0000
1000
0010
0010
,
0000
1000
1000
1100
,
0000
0001
0001
0011
,
0010
0100
0010
0000
,
0100
0010
0100
0100
,
1000
1000
0000
0101
,
1000
0010
0010
0110
,
0001
0001
0000
1100
,
0001
0010
0010
0110
,
0000
0001
0001
0001
,
0000
1000
0100
0001
,
0000
1000
1000
1000
,
0000
0001
0100
1000
,
0000
0100
0100
0100
,
0000
0010
0010
0010
,
0000
0100
1000
0010
,
0000
0100
0001
0010
,
0000
0100
0100
0100
,
0000
0010
0010
0010
,
0001
0100
0010
0000
,
1000
0100
0010
0010
,
0001
0001
0000
1100
,
0001
0010
0010
0110
,
1000
1000
0000
0101
,
1000
0010
0010
0110
,
0000
1000
1000
1000
,
0000
0001
0100
1000
,
0000
0001
0001
0001
,
0000
1000
0100
0001
,
0010
0000
0010
0000
,
1000
0000
1000
0000
,
0100
0000
0100
0000
,
0001
0000
0001
1000
;

//---------------dance-single - ----------------
#NOTES:
     dance-single:
     :
     Beginner:
     1:
     0.080386,0.107181,0.000000,0.000000,0.000000,42.000000,42.000000,0.000000,0.000000,0.000000,0.000000,0.080386,0.107181,0.000000,0.000000,0.000000,42.000000,42.000000,0.000000,0.000000,0.000000,0.000000:
0000
0000
0000
0000
,
0000
0000
0000
0000
,
0000
0000
0000
0000
,
0000
0000
0000
0000
,
0000
0000
0000
0000
,
0001
0000
0000
0000
,
0001
0000
0000
0000
,
1000
0000
0000
0000
,
1000
0000
0000
0000
,
0010
0000
0000
0000
,
0010
0000
0000
0000
,
0100
0000
0000
0000
,
0100
0000
0100
0000
,
0100
0000
0000
0000
,
1000
0000
0000
0000
,
0100
0000
0000
0000
,
0010
0000
0000
0000
,
0001
0000
0001
0000
,
0001
0000
0000
0000
,
1000
0000
1000
0000
,
1000
0000
0000
0000
,
0001
0000
0000
0000
,
0001
0000
0000
0000
,
0100
0000
0000
0000
,
0100
0000
0000
0000
,
1000
0000
0000
0000
,
1000
0000
0000
0000
,
0010
0000
0000
0000
,
0010
0000
0010
0000
,
0010
0000
0000
0000
,
0001
0000
0000
0000
,
0010
0000
0000
0000
,
0100
0000
0000
0000
,
1000
0000
1000
0000
,
1000
0000
0000
0000
,
0001
0000
0001
0000
,
0001
0000
0000
0000
,
0100
0000
0000
0000
,
0100
0000
0000
0000
,
0010
0000
0000
0000
,
0010
0000
0000
0000
;
