#TITLE:Force of Ra;
#SUBTITLE:;
#ARTIST:Memme;
#TITLETRANSLIT:;
#SUBTITLETRANSLIT:;
#ARTISTTRANSLIT:;
#GENRE:Crossover;
#CREDIT:;
#BANNER:Force of Ra.png;
#BACKGROUND:Force of Ra-bg.png;
#LYRICSPATH:;
#CDTITLE:../cdtitle.png;
#MUSIC:Force of Ra.ogg;
#OFFSET:-0.116000;
#SAMPLESTART:23.781000;
#SAMPLELENGTH:15.000000;
#SELECTABLE:YES;
#BPMS:0.000000=180.000000
;
#STOPS:
;
#BGCHANGES:-1.000=Force of Ra.avi=1.000=0=0=0=StretchNoLoop====,
99999=-nosongbg-=1.000=0=0=0 // don't automatically add -songbackground-
;
#KEYSOUNDS:;
#ATTACKS:;

//---------------dance-single - ----------------
#NOTES:
     dance-single:
     :
     Hard:
     13:
     0.627728,0.655215,0.208005,0.468011,0.013000,507.000000,483.000000,24.000000,54.000000,0.000000,0.000000,0.627728,0.655215,0.208005,0.468011,0.013000,507.000000,483.000000,24.000000,54.000000,0.000000,0.000000:
0000
0000
0000
0000
,
0000
0000
0000
0000
,
0000
0000
0000
0000
,
0000
0000
0000
0000
,
0000
0000
0000
0000
,
1000
1000
0010
0010
,
0100
0000
0001
1000
0100
0000
1000
0001
,
1001
0000
0000
1010
0000
0000
1100
0000
,
0000
0101
0000
0000
0011
0000
0110
0000
,
2002
0000
0000
3003
,
1000
0000
0001
1000
0020
0000
0130
0001
,
1000
0100
1000
0010
1000
0001
0010
0100
,
1000
0010
0001
0010
2000
0000
3001
1000
,
0100
0100
0010
0010
0001
1000
0010
0100
,
0001
0010
1000
0010
0002
0000
1003
0010
,
0001
0010
1000
0001
0020
0000
0130
1000
,
0001
0010
0001
1000
0010
1000
0001
0010
,
0100
0100
0010
0100
0010
0001
2000
0000
,
3002
0000
1003
0010
0100
1000
0100
0010
,
0100
1000
0100
0001
1000
0000
1001
0000
,
0001
0100
0001
1000
0001
0010
0100
2000
,
0000
3001
0100
0001
1000
0100
0010
0001
,
2000
0000
3001
0010
0100
0010
0001
2000
,
0000
3010
0100
0010
1000
0100
0010
0001
,
1000
0010
0100
0002
0000
1003
0100
0010
,
0100
0100
1000
0001
0100
0010
1000
0001
,
2000
0000
3001
0010
0100
0001
0100
0010
,
0100
0001
0100
1000
0001
0000
1001
0000
,
1000
0100
1000
0001
1000
0010
0100
0002
,
0000
1003
0100
1000
0001
0100
0010
1000
,
0002
0000
1003
0010
0100
0010
1000
0002
,
0000
0013
0100
0010
0001
0100
0010
1000
,
1010
0000
0000
0101
0000
0000
0011
0000
,
0000
1100
0000
0000
0001
1000
0020
0000
,
1030
0100
1000
0001
1000
0010
1000
0100
,
0001
0100
1000
0001
0100
1000
0100
0001
,
1000
0001
0020
0000
0031
1000
0010
1000
,
0001
0000
0010
0000
0100
0000
0010
0000
0001
0000
0000
0001
0000
0000
0001
0000
,
2000
0000
3001
0100
0020
0000
0130
0001
,
0020
0000
0031
0100
0020
0000
0130
0001
,
1000
0010
0100
0010
0001
0010
0100
0010
,
1000
0000
0001
0000
0010
0000
0100
1000
0000
1000
0010
0000
0100
0000
0001
0000
,
2000
0000
0100
0000
,
3002
0000
0100
0000
,
2003
0000
0010
0000
,
3002
0000
0010
0000
,
2003
0100
3002
0100
,
2003
0010
3002
0010
,
1003
0010
0100
0001
0010
0100
1000
0020
,
0000
1030
0001
0010
0001
0100
0010
2000
,
0000
0100
0100
0100
,
0100
0000
0100
0000
0100
0000
3010
0100
,
0002
0010
0010
0010
,
0010
0000
0010
0000
0010
0000
0103
0020
,
0000
0000
0100
0000
0100
0000
1030
0001
,
0020
0000
0100
0000
0130
0000
1000
0001
,
0100
0010
0100
0001
0100
0010
1000
0100
,
0001
0100
1000
0010
0001
0010
2000
0000
,
3001
0010
0100
0010
1000
0010
0001
2000
,
0000
3010
0001
0010
0100
0010
1000
0001
,
0010
0100
1000
0100
0010
0100
1000
0001
,
1000
0010
0100
0001
0010
0100
1000
0001
,
1000
0010
0100
0010
0001
0010
1000
0002
,
0000
0013
1000
0010
0100
0010
0001
1000
,
0010
0100
0001
0100
0010
0100
0001
1000
,
0001
0010
0100
1000
0010
0100
0002
0000
,
0103
0010
0100
0001
0010
0100
1000
0200
,
0000
1300
0010
0100
0010
1000
0100
0010
,
0001
1000
0100
1000
0010
0100
0001
0010
,
0001
0100
1000
0100
0010
1000
0001
0010
,
0200
0000
0310
0100
1000
0010
0100
0002
,
0000
0013
0100
0010
0001
0100
0010
1000
,
1001
0100
0000
1001
0010
0000
0110
1000
,
0000
0110
0001
0000
0010
0001
2000
0000
,
3002
0023
0230
2300
,
3020
0230
0302
2003
,
3100
0001
0100
1000
0002
0000
1003
0010
,
0001
0010
1000
0001
0010
0100
1000
0010
,
0100
1000
0100
0010
1000
0100
0010
0001
,
0100
0010
0001
0010
0100
0001
0010
0100
,
1100
0010
0000
0011
0100
0000
1010
0100
,
0000
0101
0010
0000
1000
0001
0010
0100
,
0110
0000
0000
1001
0000
0000
0220
0000
,
0000
0000
0000
0000
,
0330
0000
0000
0000
;

//---------------dance-single - ----------------
#NOTES:
     dance-single:
     :
     Beginner:
     4:
     0.195623,0.291207,0.225338,0.086669,0.000000,158.000000,132.000000,26.000000,10.000000,0.000000,0.000000,0.195623,0.291207,0.225338,0.086669,0.000000,158.000000,132.000000,26.000000,10.000000,0.000000,0.000000:
0000
0000
0000
0000
,
0000
0000
0000
0000
,
0000
0000
0000
0000
,
0000
0000
0000
0000
,
0000
0000
0000
0000
,
1001
0000
0000
0000
,
0000
0000
0000
0000
,
1001
0000
0000
0110
,
0000
0000
0110
0000
,
2002
0000
3003
0000
,
0010
0000
0100
0000
,
0010
0000
0100
0000
,
0001
0000
0010
0000
,
0001
0000
0010
0000
,
0100
0000
1000
0000
,
0100
0000
1000
0000
,
0001
0000
1000
0000
,
0001
0000
0000
0000
,
0010
0000
0100
0000
,
0010
0010
0010
0000
,
0001
0000
1000
0000
,
0001
0000
1000
0000
,
0010
0000
0100
0000
,
0010
0000
0100
0000
,
0001
0000
2000
0000
,
3000
0000
0000
0000
,
0010
0000
0100
0000
,
0010
0010
0010
0000
,
1000
0000
0001
0000
,
1000
0000
0001
0000
,
0010
0000
0100
0000
,
0010
0000
0100
0000
,
1001
0000
0000
0110
,
0000
0000
0110
0000
,
0001
0000
0001
0000
,
1000
0000
1000
0000
,
0001
0000
0001
0000
,
1000
0000
1001
0000
,
1000
0000
1000
0000
,
0001
0000
0001
0000
,
1000
0000
1000
0000
,
1001
0000
0000
0000
,
2000
0000
0000
0000
,
3000
0000
0000
0000
,
0200
0000
0000
0000
,
0300
0000
0000
0000
,
0020
0000
0000
0000
,
0030
0000
0000
0000
,
0002
0000
0000
0000
,
0003
0000
0000
0000
,
1000
0000
1000
0000
,
1000
0000
1000
0000
,
0001
0000
0001
0000
,
0001
0000
0001
0000
,
0100
0100
0100
0000
,
0100
0100
0100
0000
,
0010
0010
0010
0010
,
0010
0000
0000
0000
,
1001
0000
0000
0000
,
0110
0000
0000
0000
,
1000
0000
0001
0000
,
1000
1000
1000
0000
,
1001
0000
0000
0000
,
0110
0000
0000
0000
,
1000
0000
0001
0000
,
2000
0000
3000
0000
,
1001
0000
0000
0000
,
0110
0000
0000
0000
,
0001
0000
1000
0000
,
0001
0001
0001
0000
,
1001
0000
0000
0000
,
0110
0000
0000
0000
,
1001
0000
0000
0110
,
0000
0000
0110
0000
,
1000
0000
0001
0000
,
1000
0000
0001
0000
,
0010
0000
0100
0000
,
0010
0000
0100
0000
,
1000
1000
1000
0000
,
0001
0001
0001
0000
,
1001
0000
0000
0110
,
0000
0000
0110
0000
,
1001
0000
0000
0220
,
0000
0000
0000
0000
,
0330
0000
0000
0000
;

//---------------dance-single - ----------------
#NOTES:
     dance-single:
     :
     Easy:
     8:
     0.360294,0.509612,0.260006,0.216672,0.000000,291.000000,261.000000,30.000000,25.000000,0.000000,0.000000,0.360294,0.509612,0.260006,0.216672,0.000000,291.000000,261.000000,30.000000,25.000000,0.000000,0.000000:
0000
0000
0000
0000
,
0000
0000
0000
0000
,
0000
0000
0000
0000
,
0000
0000
0000
0000
,
0000
0000
0000
0000
,
1000
0100
0001
0100
,
1000
0010
0001
0010
,
0110
0000
0000
0110
0000
0000
1001
0000
,
0000
1001
0000
0000
0110
0000
1001
0000
,
0220
0000
0000
0330
,
1000
0100
0020
0030
,
0001
0100
0010
0100
,
0001
0001
1000
1000
,
0001
0010
0100
1000
,
0001
0100
0020
0030
,
1000
0100
0010
0100
,
1000
1000
0001
0001
,
2002
0000
0000
3003
,
1000
0010
0001
0010
,
1000
0100
0010
1001
,
0001
0100
1000
0100
,
0001
0010
0100
1000
,
0010
0100
0001
0010
,
0100
0010
0001
0100
,
0010
1000
0002
0003
,
1001
0000
0000
0000
,
0001
0010
1000
0010
,
0001
0100
0010
1001
,
1000
0100
0001
0100
,
1000
0010
0100
0001
,
0010
0100
1000
0010
,
0100
0010
1000
0100
,
0110
0000
0000
0110
0000
0000
1001
0000
,
0000
1001
0000
0000
0110
0000
1001
0000
,
0001
1000
0010
0100
,
0001
1000
0010
0100
,
0001
0010
0100
1000
,
0001
0010
0110
0000
,
1001
0001
0010
0100
,
1000
0001
0010
0100
,
1000
0010
0100
0001
,
0010
0100
1000
0001
,
2000
0000
0000
0000
,
3020
0000
0000
0000
,
0032
0000
0000
0000
,
0203
0000
0000
0000
,
2300
0000
0000
0000
,
3020
0000
0000
0000
,
0230
0000
0000
0000
0000
0000
0000
0300
,
0000
0000
0100
0000
0001
0000
0001
2000
,
0000
0100
0100
0100
,
0100
0100
0100
3100
,
0002
0010
0010
0010
,
0010
0000
0010
0000
0013
0000
0001
2000
,
0000
0010
0010
0010
,
0010
0010
0010
3010
,
0001
0010
0100
1000
,
1001
0000
0000
0000
,
0001
0000
1000
0000
0010
0000
0100
0002
,
0000
0003
1000
0000
1000
0000
0001
0000
,
0010
0000
0010
0000
0100
0000
0100
2000
,
0000
0000
0002
3003
,
1000
0000
0001
0000
0010
0000
0100
2000
,
0000
3000
0001
0000
0001
0000
1000
0000
,
0010
0000
0010
0000
0100
0000
0100
0002
,
0000
0000
2000
3003
,
0001
0100
0010
1000
,
0100
0010
0001
1000
,
0001
0001
1000
1000
,
0010
0100
0001
0001
,
1000
0100
0010
0001
,
0100
0010
1000
0001
,
0010
0000
0000
0010
0000
0000
0100
0000
,
0000
0100
0000
0000
0010
0000
1001
0000
,
1000
0010
0001
0010
,
1000
0100
0001
0100
,
1000
1000
0001
0001
,
1000
1000
0001
0001
,
1000
0100
0001
0100
,
1000
0010
0001
0010
,
0110
0000
0000
0110
0000
0000
1001
0000
,
0000
1001
0000
0000
0110
0000
1001
0000
,
0110
0000
0000
0110
0000
0000
2002
0000
,
0000
0000
0000
0000
,
3003
0000
0000
0000
;

//---------------dance-single - ----------------
#NOTES:
     dance-single:
     :
     Medium:
     11:
     0.501440,0.546012,0.251339,0.416009,0.008667,405.000000,376.000000,29.000000,48.000000,0.000000,0.000000,0.501440,0.546012,0.251339,0.416009,0.008667,405.000000,376.000000,29.000000,48.000000,0.000000,0.000000:
0000
0000
0000
0000
,
0000
0000
0000
0000
,
0000
0000
0000
0000
,
0000
0000
0000
0000
,
0000
0000
0000
0000
,
1000
1000
0001
0001
,
0010
0100
1000
0001
,
0011
0000
0000
1100
0000
0000
1010
0000
,
0000
0101
0000
0000
1001
0000
1001
0000
,
0220
0000
0000
0330
,
1000
0000
0001
0010
0200
0000
0310
0001
,
1000
0100
1000
0000
0001
0010
0001
0000
,
1000
0010
0100
0000
0001
0100
0010
0000
,
1000
0100
0010
0100
1000
0100
0010
0000
,
0001
0000
1000
0010
0200
0000
0310
1000
,
0002
0000
0013
0100
2000
0000
3100
0010
,
0001
1000
0010
0000
1000
0001
0010
0000
,
0100
0100
1000
0001
1000
0010
0200
0000
,
0302
0000
1003
0100
0001
0000
0001
0000
,
0200
0000
0310
0001
1000
0000
1001
0000
,
0002
0000
0103
0010
2000
0000
3100
0020
,
0000
0130
1000
0001
0010
0100
1000
0000
,
0002
0000
1003
0010
0100
0000
0001
0020
,
0000
0130
0010
0002
0000
1003
0010
0100
,
0002
0000
1003
0100
0020
0000
0130
0000
,
0010
0010
0001
1000
0001
0100
0020
0000
,
2030
0000
3001
0010
1000
0000
1000
0000
,
0020
0000
0130
1000
0001
0000
1001
0000
,
2000
0000
3010
0100
0002
0000
0013
0200
,
0000
0310
0001
1000
0100
0010
0001
0000
,
2000
0000
3001
0100
0010
0000
1000
0200
,
0000
0310
0100
2000
0000
3001
0100
0010
,
1010
0000
0000
0101
0000
0000
0011
0000
,
0000
1100
0000
0000
0001
0000
1001
0000
,
1000
0000
1000
0000
0010
0000
0010
0100
,
0002
0100
0100
1003
,
0001
0010
0100
0000
1000
0100
0010
0000
,
0001
0000
0100
0000
0010
0000
1000
0000
0001
0000
0000
0001
0000
0000
0001
0000
,
1000
0000
0001
0010
0002
0000
1003
0010
,
2000
0000
3001
0100
0002
0000
1003
0100
,
2000
0001
0010
3010
,
0100
0000
0001
0000
0010
0000
0000
0100
0000
0000
0100
0000
0010
0000
0001
0000
,
2000
0000
0000
0000
,
3200
0000
0000
0000
,
0302
0000
0000
0000
,
0023
0000
0000
0000
,
2030
0000
3200
0000
,
0320
0000
0032
0000
,
0103
0000
0010
0000
1000
0000
0001
0010
,
0000
0100
0010
0001
1000
0001
0100
0020
,
0000
0030
0100
0000
0100
0000
0100
0000
,
0010
0010
0010
0010
,
1000
1000
1000
1000
,
0001
0000
0001
0000
0001
0000
0001
0020
,
0000
0030
0100
0000
0100
0000
0100
0000
,
0010
0010
0010
0010
,
0001
0100
0001
0100
0010
1000
0010
1000
,
0002
0000
0003
1001
,
0001
0000
0010
0000
0100
1000
0100
0010
,
0000
0010
0001
0000
1000
0010
0100
0000
,
0001
0100
0001
0000
1000
0100
1000
0002
,
0000
0203
0010
0310
,
1000
0000
0100
0000
0010
0001
0010
0100
,
0000
0100
1000
0000
0001
0100
0010
0000
,
1000
0010
1000
0000
0001
0010
0001
2000
,
0000
3020
0100
0130
,
0001
0100
0001
0000
0010
0100
1000
0100
,
0000
0100
0010
0000
0001
1000
0001
0000
,
1000
0010
0100
0000
0001
0100
0010
0000
,
1000
0100
0010
0001
0010
0100
1000
0000
,
0001
0010
0001
0000
0100
0010
1000
0010
,
0000
0010
0100
0000
0001
1000
0001
0000
,
1001
0000
0000
0011
0000
0000
1001
0000
,
0000
1010
0000
0000
1001
0000
0110
0000
,
0001
0001
1000
1000
,
0010
0010
0100
0100
,
0001
0010
0100
0000
1000
0100
0010
0000
,
0001
0100
0010
1000
0010
0100
0001
0000
,
1000
0100
1000
0000
0001
0010
0001
0000
,
1000
0010
1000
0000
0001
0100
0001
0000
,
1001
0000
0000
1100
0000
0000
1010
0000
,
0000
0101
0000
0000
0011
0000
0100
0000
,
1100
0000
0000
0101
0000
0000
2002
0000
,
0000
0000
0000
0000
,
3003
0000
0000
0000
;

//---------------dance-single - ----------------
#NOTES:
     dance-single:
     :
     Challenge:
     17:
     0.832019,0.982822,0.381342,1.074691,0.546012,672.000000,628.000000,44.000000,124.000000,0.000000,0.000000,0.832019,0.982822,0.381342,1.074691,0.546012,672.000000,628.000000,44.000000,124.000000,0.000000,0.000000:
// measure 0
0000
0000
0000
0000
0000
0000
0000
0100
,  // measure 1
2002
0000
0000
0000
,  // measure 2
0000
0000
0000
0000
0000
0000
3003
0100
,  // measure 3
0110
0000
2002
0000
0000
0000
3003
0021
,  // measure 4
0000
0130
1000
0020
0000
0130
0001
0010
,  // measure 5
2002
0000
0000
0000
,  // measure 6
0000
0000
0000
0000
0000
0000
3003
0010
,  // measure 7
0202
0000
0303
2200
0000
3300
2020
0000
,  // measure 8
3030
0022
0000
0033
2200
3300
2002
3003
,  // measure 9
0220
0000
0000
0000
0330
0001
1001
0000
,  // measure 10
1000
0001
0100
0010
2000
0000
3001
0010
,  // measure 11
0100
0000
0010
0001
0010
0000
0001
1000
0002
0000
2003
0000
3020
0000
0230
0000
,  // measure 12
0301
0000
1000
0100
1000
0000
0001
0100
0001
0000
1000
0010
1000
0000
0001
0010
,  // measure 13
0001
2000
3020
0230
0302
0023
0230
2300
,  // measure 14
3001
1000
0010
0100
0002
0000
0103
0010
,  // measure 15
1000
0000
0100
0010
0002
0000
0000
0000
2003
0000
0000
0000
3002
0000
0203
0000
,  // measure 16
0310
0000
0100
0001
0100
0000
0001
0010
0001
0000
1000
0100
1000
0000
0010
1000
,  // measure 17
0010
0000
0010
0000
0100
0000
0100
0001
1000
0100
1000
0001
0200
0000
0000
0000
,  // measure 18
0320
0000
0000
0000
1030
0000
0100
0000
0002
0000
0103
1000
0002
0000
1003
0010
,  // measure 19
0002
0000
0013
1000
0002
0000
0013
0000
0100
0000
0000
0000
1001
0000
0000
0000
,  // measure 20
2000
0000
3020
0000
0032
0000
0023
0000
2030
0000
3001
0010
0200
0000
2300
0000
,  // measure 21
3002
0023
2030
3002
0203
2300
3002
0203
,  // measure 22
0310
0000
1000
0000
0001
0000
0010
0000
0100
1000
0001
0000
1000
0000
0200
0000
,  // measure 23
0010
0000
0310
0000
0001
0000
1000
0010
0100
0000
0001
0100
0010
0000
1000
0000
,  // measure 24
0001
0000
0010
0100
1000
0000
0002
0000
1000
0000
0000
0000
1003
0000
0000
0000
,  // measure 25
0110
0000
0001
0000
1000
0000
0010
0000
0100
0000
0001
1000
0100
0000
1100
0000
,  // measure 26
0020
0000
0000
0000
0031
0000
0100
0000
2000
0000
3100
0001
2000
0000
3001
0010
,  // measure 27
2000
0000
3010
0001
2000
0000
3010
0000
0100
0000
0000
0000
1001
0000
0000
0000
,  // measure 28
0002
0000
0023
0000
2030
0000
3020
0000
0032
0000
1003
0010
0200
0000
0302
0000
,  // measure 29
2003
3020
0032
2003
3200
0302
2003
3200
,  // measure 30
0310
0000
0001
0000
1000
0000
0010
0000
0100
0001
1000
0000
0001
0000
0200
0000
,  // measure 31
0010
0000
0310
0000
1000
0000
0001
0010
0100
0000
1000
0100
0010
0000
0001
0000
,  // measure 32
1000
0010
1000
0010
1000
0000
0001
0100
0001
0100
0001
0000
1000
0100
1000
0100
,  // measure 33
1000
0000
0001
0010
0001
0010
0001
0000
1000
0010
0100
0001
2000
0000
0000
0000
,  // measure 34
3100
1000
0001
1000
0010
0100
0001
1000
,  // measure 35
0100
1000
0001
0010
0001
0100
0010
1000
,  // measure 36
0001
0000
0010
0001
0010
0000
0100
1000
0100
0000
1000
0010
1000
0000
0001
0100
,  // measure 37
0001
0000
1000
0100
1000
0100
1000
0000
1100
0000
0000
1001
0000
0000
0101
0000
,  // measure 38
0010
1000
0001
1000
0100
0010
0001
1000
,  // measure 39
0010
1000
0001
0100
0001
0010
0100
1000
,  // measure 40
0001
0000
0010
0100
0010
0000
0001
1000
0001
0000
0100
0010
0100
0000
0001
0000
,  // measure 41
1000
0000
0010
0000
0001
0000
0010
1000
0000
1000
0001
0000
0010
0000
0100
0000
,  // measure 42
2000
0100
3200
0001
,  // measure 43
0302
0010
0023
1000
,  // measure 44
2030
0100
3200
0001
,  // measure 45
0302
0010
0023
1000
,  // measure 46
2030
0010
3020
0001
,  // measure 47
0032
0000
0100
0000
0203
0000
1300
0001
,  // measure 48
0000
0000
2000
0000
3002
0000
0203
0310
,  // measure 49
0000
0100
0001
0010
1000
0010
0002
2000
,  // measure 50
0000
3003
1001
0000
1010
0000
0101
0000
,  // measure 51
1100
1001
1010
0110
,  // measure 52
1100
0011
0110
0101
,  // measure 53
1010
0000
1001
0000
1000
0100
0020
0002
,  // measure 54
0000
0033
0011
0000
0110
0000
0101
0000
,  // measure 55
0110
0011
1001
1010
,  // measure 56
1000
0100
1000
0100
0010
0001
0010
0001
,  // measure 57
0100
0000
0010
0100
0010
0100
0010
0100
0010
0000
0100
0000
1001
0000
0000
0000
,  // measure 58
0001
0010
1000
0010
0001
0001
1000
0020
,  // measure 59
0000
0000
0130
0000
0001
0000
1000
0000
0010
0000
1000
0000
0001
0000
0010
0100
,  // measure 60
0002
0000
0100
0010
0000
0000
0100
0010
0000
0000
0010
0100
0000
0000
1003
0100
,  // measure 61
0010
0001
0010
0100
1000
0001
0100
0010
1000
0010
0100
0001
0010
0100
1000
0001
,  // measure 62
1000
0010
0001
0010
1000
1000
0001
0020
,  // measure 63
0000
0000
0130
0000
1000
0000
0001
0000
0010
0000
0001
0000
1000
0000
0010
0100
,  // measure 64
2000
0000
0100
0010
0000
0000
0100
0010
0000
0000
0010
0100
0000
0000
3001
0100
,  // measure 65
0010
1000
0010
0100
0001
1000
0100
0010
0001
0010
0100
2000
0002
0000
3003
0000
,  // measure 66
1000
0100
0001
0100
1000
1000
0001
0200
,  // measure 67
0000
0000
0310
0000
1000
0000
0001
0000
0100
0000
0001
0000
1000
0000
0100
0010
,  // measure 68
2000
0000
0010
0100
0000
0000
0010
0100
0000
0000
0100
0010
0000
0000
3001
0010
,  // measure 69
0100
1000
0100
0010
0001
1000
0010
0100
0001
0100
0010
1000
0100
0010
0001
1000
,  // measure 70
0001
0100
1000
0100
0001
0001
1000
0200
,  // measure 71
0000
0310
0001
1000
0100
1000
0001
0100
,  // measure 72
0020
0000
1030
0100
0010
0001
0000
0000
0001
0010
0100
1000
0000
0000
0001
0100
,  // measure 73
0010
1000
0000
0000
1000
0010
0100
0001
0010
0100
1000
0001
0020
0000
0000
0000
,  // measure 74
0032
2003
3020
0032
,  // measure 75
0023
2030
3002
0023
,  // measure 76
0130
1000
0001
1000
0010
1000
0001
0010
,  // measure 77
0100
0000
1000
0000
0010
0000
0100
0001
1000
0010
0100
0010
1000
0001
0010
0100
,  // measure 78
1000
0000
0001
0010
0001
0000
1000
0100
1000
0000
0001
0100
0001
0000
1000
0010
,  // measure 79
1000
0000
0010
0100
0001
0000
0100
0010
1000
0000
0001
0010
0100
0000
1000
0100
,  // measure 80
0010
0001
0100
0010
0000
0000
0100
0001
0010
0100
0000
0000
0100
1000
0010
0100
,  // measure 81
0000
0000
0010
1000
0100
0010
0100
1000
0001
0100
0010
1000
0001
0000
0000
0000
,  // measure 82
1001
0000
0000
1100
0000
0000
0022
0000
,  // measure 83
0000
0000
0000
0000
,  // measure 84
0033
0000
0000
0000
;

//---------------dance-double - ----------------
#NOTES:
     dance-double:
     :
     Challenge:
     18:
     0.851829,1.055624,0.381342,1.074691,0.546012,688.000000,644.000000,44.000000,124.000000,0.000000,0.000000,0.851829,1.055624,0.381342,1.074691,0.546012,688.000000,644.000000,44.000000,124.000000,0.000000,0.000000:
00000000
00000000
00000000
00000000
00000000
00000000
00000000
01000000
,
02200000
00000000
00000000
00000000
,
00000000
00000000
00000000
00000000
00000000
00000000
03300000
00001000
,
00011000
00000000
00022000
00000000
00000000
00000000
00033000
00000120
,
00000000
00000031
00001000
00000020
00000000
00000130
00000001
00000010
,
00000220
00000000
00000000
00000000
,
00000000
00000000
00000000
00000000
00000000
00000000
00000330
00010000
,
00022000
00000000
00033000
00020020
00000000
00030030
00202000
00000000
,
00303000
00022000
00000000
00033000
02002000
03003000
00020200
00030300
,
00022000
00000000
00000000
00000000
00033000
00000001
00001001
00000000
,
00001000
00000001
00000100
00000010
00002000
00000001
00003001
00000010
,
00000100
00000000
00010000
00001000
00010000
00000000
00000010
00001000
00000020
00000000
00020030
00000000
00032000
00000000
00203000
00000000
,
00310000
00000000
10000000
00100000
01000000
00000000
00010000
01000000
00100000
00000000
01000000
00001000
00010000
00000000
00001000
00010000
,
00000100
00000002
00000203
00002300
00003002
00000023
00002030
00023000
,
00130000
01000000
00010000
10000000
00200000
00010000
00310000
00001000
,
00000010
00000000
00000001
00001000
00000200
00000000
00000310
00000000
00000200
00000000
00000301
00000000
00000200
00000000
00020300
00000000
,
00031000
00000000
00100000
01000000
00100000
00000000
00001000
00100000
00001000
00000000
00010000
00001000
00010000
00000000
00000010
00001000
,
00000010
00000000
00000010
00000000
00000100
00000000
00000100
00000001
00001000
00000100
00000010
00001000
00020000
00000000
00000000
00000000
,
00032000
00000000
00000000
00000000
00013000
00000000
00100000
00000000
10000000
00000000
10000000
01000000
00010000
00000000
00001000
00000100
,
00000001
00000000
00000001
00000010
00001000
00000000
00010000
00000000
00100000
00000000
00000000
00000000
10010000
00000000
00000000
00000000
,
20000000
00000000
32000000
00000000
03020000
00000000
02030000
00000000
23000000
00000000
30010000
00100000
20000000
00000000
30200000
00000000
,
00302000
00023000
00030020
00000032
00000023
00002030
00003002
00000023
,
00000130
00000000
00001000
00000000
00000001
00000000
00000010
00000000
00000100
00001000
00000001
00000000
00001000
00000000
00000020
00000000
,
00000100
00000000
00000130
00000000
00000001
00000000
00000100
00001000
00010000
00000000
00001000
00010000
01000000
00000000
10000000
00000000
,
00010000
00000000
00100000
01000000
10000000
00000000
01000000
00000000
00010000
00000000
00001000
00000000
00010000
00000000
00001000
00000000
,
00011000
00000000
00010000
00000000
00001000
00000000
00000010
00000000
00000001
00000000
00000100
00001000
00010000
00000000
00011000
00000000
,
00020000
00000000
00000000
00000000
00031000
00000000
00000100
00000000
00000001
00000000
00000001
00000010
00001000
00000000
00010000
00100000
,
10000000
00000000
10000000
01000000
00010000
00000000
00001000
00000000
00000100
00000000
00000000
00000000
00001001
00000000
00000000
00000000
,
00000002
00000000
00000023
00000000
00002030
00000000
00003020
00000000
00000032
00000000
00001003
00000100
00000002
00000000
00000203
00000000
,
00020300
00032000
02003000
23000000
32000000
03020000
20030000
32000000
,
03100000
00000000
00010000
00000000
10000000
00000000
01000000
00000000
00100000
00010000
10000000
00000000
00010000
00000000
02000000
00000000
,
00100000
00000000
03100000
00000000
10000000
00000000
00100000
00010000
00001000
00000000
00010000
00001000
00000010
00000000
00000001
00000000
,
00001000
00000100
00001000
00000100
00010000
00000000
00001000
00010000
00001000
00010000
00000010
00000000
00010000
00001000
00010000
00001000
,
01000000
00000000
00010000
00100000
00010000
00100000
00001000
00000000
00010000
00000010
00001000
00000001
00000020
00000000
00000000
00000000
,
00000130
00010000
00001000
00010000
00000010
00001000
00000100
00010000
,
00001000
00100000
00010000
01000000
00001000
00010000
00001000
00100000
,
00010000
00000000
01000000
00100000
10000000
00000000
00100000
01000000
00010000
00000000
00100000
01000000
10000000
00000000
01000000
00100000
,
00010000
00000000
10000000
00100000
10000000
00100000
10000000
00000000
10100000
00000000
00000000
10010000
00000000
00000000
11000000
00000000
,
00100000
00001000
00010000
00001000
01000000
00010000
00100000
00001000
,
00010000
00000100
00001000
00000010
00010000
00001000
00010000
00000100
,
00001000
00000000
00000010
00000100
00000001
00000000
00000100
00000010
00001000
00000000
00000001
00000010
00000100
00000000
00001000
00000000
,
00000001
00000000
00000100
00000000
00001000
00000000
00010000
01000000
00000000
01000000
10000000
00000000
00100000
00000000
00010000
00000000
,
00002000
00000010
00003020
00010000
,
00020030
00001000
00032000
00000010
,
00003020
00010000
00020030
00001000
,
00032000
00000010
00003020
00010000
,
00020030
00100000
00230000
00001000
,
00302000
00000000
00010000
00000000
00023000
00000000
00130000
10000000
,
00000000
10000000
00020000
00000000
00230000
00000000
02300000
13000000
,
00000000
00100000
01000000
00001000
00010000
00000100
00000020
00000002
,
00000000
00000033
00000011
00000000
00001100
00000000
00011000
00000000
,
00010010
00001001
00010100
00011000
,
00110000
11000000
10010000
01001000
,
00011000
00000000
00101000
00000000
00001000
01000000
00200000
20000000
,
00000000
30300000
10100000
00000000
01010000
00000000
00011000
00000000
,
00101000
10010000
01001000
00011000
,
00100000
00010000
00100000
00010000
00001000
00000100
00001000
00000100
,
00010000
00000000
00001000
00010000
00001000
00010000
00001000
00010000
00001000
00000000
00010000
00000000
00011000
00000000
00000000
00000000
,
00000010
00001000
00000001
00000010
00000100
00000100
00000010
00000002
,
00000000
00000000
00001003
00000000
00000010
00000000
00000100
00000000
00000010
00000000
00010000
00000000
00001000
00000000
00010000
01000000
,
00200000
00000000
01300000
00010000
00002000
00000000
00013000
00001000
00000200
00000000
00000310
00000100
00002000
00000000
00013000
00000010
,
00001000
00000100
00000010
00000001
00001000
00000100
00010000
00001000
00100000
00010000
01000000
00100000
10000000
00010000
10000000
01000000
,
00100000
00010000
10000000
00100000
01000000
01000000
00100000
20000000
,
00000000
00000000
30010000
00000000
00100000
00000000
01000000
00000000
00100000
00000000
00001000
00000000
00010000
00000000
00001000
00000100
,
00000020
00000000
00000130
00001000
00020000
00000000
00031000
00010000
02000000
00000000
03100000
01000000
00020000
00000000
00031000
00100000
,
00010000
01000000
00100000
10000000
00010000
01000000
00001000
00010000
00000010
00001000
00000100
00000020
00000002
00000000
00000033
00000000
,
00000100
00001000
00000001
00000100
00000010
00000010
00000100
00000002
,
00000000
00000000
00001003
00000000
00000100
00000000
00000010
00000000
00000100
00000000
00010000
00000000
00001000
00000000
00010000
00100000
,
02000000
00000000
03100000
00010000
00002000
00000000
00013000
00001000
00000020
00000000
00000130
00000010
00002000
00000000
00013000
00000100
,
00001000
00000010
00000100
00000001
00001000
00000010
00010000
00001000
01000000
00010000
00100000
01000000
10000000
00010000
10000000
00100000
,
01000000
00010000
10000000
01000000
00100000
00100000
01000000
20000000
,
00000000
30010000
01000000
00100000
01000000
00001000
00010000
00001000
,
00000020
00000000
00000031
00000010
00000100
00001000
00000000
00000000
00010000
01000000
00100000
10000000
00000000
00000000
10000000
01000000
,
00100000
00010000
00000000
00000000
00001000
00000010
00000100
00000001
00000010
00000100
00001000
00000001
00000020
00000000
00000000
00000000
,
00002030
00023000
00230000
20300000
,
32000000
03020000
00032000
00003200
,
00000301
00000010
00001000
00010000
00001000
00000010
00000001
00000100
,
00001000
00000000
00010000
00000000
00100000
00000000
00010000
00001000
00100000
00010000
01000000
00100000
10000000
00010000
00100000
01000000
,
10000000
00000000
01000000
00100000
00010000
00000000
01000000
00100000
00010000
00000000
00001000
00000100
00000010
00000000
00001000
00000100
,
00000010
00000000
00000100
00001000
00000010
00000000
00000100
00001000
00010000
00000000
00100000
01000000
00010000
00000000
00100000
01000000
,
00010000
00001000
00000010
00000100
00000000
00000000
00000100
00000010
00001000
00010000
00000000
00000000
00001000
00010000
00100000
01000000
,
00000000
00000000
01000000
00100000
00010000
00001000
00100000
01000000
00010000
00001000
00000010
00000100
00000001
00000000
00000000
00000000
,
00000110
00000000
00000000
00011000
00000000
00000000
02200000
00000000
,
00000000
00000000
00000000
00000000
,
03300000
00000000
00000000
00000000
;

//---------------dance-double - ----------------
#NOTES:
     dance-double:
     :
     Hard:
     13:
     0.610395,0.655215,0.208005,0.494011,0.013000,493.000000,469.000000,24.000000,57.000000,0.000000,0.000000,0.610395,0.655215,0.208005,0.494011,0.013000,493.000000,469.000000,24.000000,57.000000,0.000000,0.000000:
00000000
00000000
00000000
00000000
,
00000000
00000000
00000000
00000000
,
00000000
00000000
00000000
00000000
,
00000000
00000000
00000000
00000000
,
00000000
00000000
00000000
00000000
,
10000000
10000000
00010000
00010000
,
00001000
00000000
00000001
00001000
00000100
00000000
00000010
00000001
,
00001001
00000000
00000000
00000101
00000000
00000000
00001010
00000000
,
00000000
00011000
00000000
00000000
00110000
00000000
11000000
00000000
,
20020000
00000000
00000000
30030000
,
10000000
00000000
00010000
10000000
00200000
00000000
01300000
00001000
,
00010000
00000100
00010000
00001000
00010000
00000010
00001000
00000001
,
00000010
00000100
00010000
00001000
00020000
00000000
00031000
00000010
,
00000001
00000001
00001000
00001000
00000001
00000010
00000100
00001000
,
00000001
00000100
00001000
00000100
00000002
00000000
00001003
00000010
,
00000001
00000010
00001000
00000001
00000020
00000000
00000130
00010000
,
00001000
00010000
00100000
01000000
00100000
00010000
00001000
00100000
,
01000000
01000000
10000000
00010000
00100000
01000000
20000000
00000000
,
30020000
00000000
10030000
00100000
00010000
00001000
00000010
00000001
,
00000010
00001000
00010000
00100000
10000000
00000000
10100000
00000000
,
00010000
00100000
01000000
00100000
00001000
00010000
00000010
00002000
,
00000000
00003001
00000010
00000001
00000100
00000010
00010000
00001000
,
00200000
00000000
00301000
00010000
00000010
00001000
00000100
00000020
,
00000000
00000130
00010000
00002000
00000000
01003000
00100000
20000000
,
00000000
30010000
00100000
02000000
00000000
00000000
13000000
00000000
,
00010000
00010000
00100000
01000000
00010000
00001000
00000010
00000001
,
00002000
00000000
00003001
00000100
00001000
00010000
01000000
10000000
,
01000000
00010000
00001000
00000100
00000001
00000000
00000101
00000000
,
00001000
00000100
00000010
00000100
00010000
00001000
01000000
00020000
,
00000000
10030000
01000000
10000000
00100000
01000000
00001000
00010000
,
00000200
00000000
00010300
00001000
01000000
00010000
00100000
02000000
,
00000000
03100000
00001000
00020000
00000000
00030010
00000100
00000010
,
00001010
00000000
00000000
00011000
00000000
00000000
00110000
00000000
,
00000000
00011000
00000000
00000000
00000010
00000100
00000002
00000000
,
00001003
00000100
00000010
00000100
00001000
00000100
00000010
00001000
,
00010000
00100000
01000000
00010000
01000000
00001000
00010000
00001000
,
00100000
00010000
20000000
00000000
30010000
10000000
01000000
00100000
,
00010000
00000000
10000000
00000000
00100000
00000000
01000000
00000000
00010000
00000000
00000000
00010000
00000000
00000000
00010000
00000000
,
20000000
00000000
31000000
00010000
02000000
00000000
03100000
00001000
,
00200000
00000000
00301000
00010000
00002000
00000000
01003000
00010000
,
01000000
00100000
01000000
00010000
01000000
00001000
00010000
00001000
,
00000010
00000000
00000100
00000000
00001000
00000000
00000100
00000010
00000000
00000010
00000001
00000000
00000100
00000000
00001000
00000000
,
00020000
00000000
01000000
00000000
,
00032000
00000000
00000100
00000000
,
00023000
00000000
00100000
00000000
,
00032000
00000000
00000010
00000000
,
00023000
01000000
00032000
00000100
,
00023000
00000000
00100000
00000000
00032000
00000000
00003010
00001000
,
00000000
00001000
00020000
00000000
02030000
00000000
13000000
00100000
,
00000000
00010000
00001000
00000010
00000001
00000100
00001000
00020000
,
00000000
00100000
00100000
00100000
,
00100000
00000000
00100000
00000000
00100000
00000000
00130000
00010000
,
00002000
00000010
00000010
00000010
,
00000010
00000000
00000010
00000000
00000010
00000000
00003010
00000002
,
00000000
00000000
00001000
00000000
00001003
00000000
00000001
00000100
,
00002000
00000000
00010000
00000000
00010000
00000000
00013000
00001000
,
00100000
00010000
01000000
00001000
00010000
00000010
00001000
00000100
,
00000010
00000001
00000100
00001000
00010000
01000000
20000000
00000000
,
30010000
01000000
10000000
01000000
00100000
01000000
00001000
00020000
,
00000000
00030100
00000010
00000100
00000001
00000100
00001000
00000001
,
00001000
00000010
00000100
00000010
00000001
00000010
00001000
00000001
,
00000010
00001000
00010000
01000000
00010000
00001000
00000100
00000001
,
00001000
00000100
00000001
00000100
00000010
00000100
00010000
00002000
,
00000000
01003000
00100000
01000000
10000000
01000000
00010000
10000000
,
00010000
00100000
01000000
00100000
10000000
00100000
00010000
10000000
,
00100000
00010000
00001000
00000100
00000001
00000010
00000200
00000000
,
00001300
00000010
00000001
00000010
00000100
00000010
00010000
00002000
,
00000000
00103000
01000000
00100000
10000000
00100000
00010000
10000000
,
00010000
01000000
00100000
01000000
10000000
01000000
00010000
10000000
,
01000000
00010000
00001000
00000010
00001000
00010000
00100000
10000000
,
00010000
00100000
10000000
00100000
01000000
00100000
00001000
00020000
,
00000000
00030010
00000100
00000010
00000001
00000010
00001000
00000001
,
00001001
00000000
00000000
00011000
00000000
00000000
10010000
00000000
,
00000000
00011000
00000000
00000000
00000001
00001000
00000020
00000000
,
00000230
00000302
00000023
00002030
,
00023000
00230000
20300000
30020000
,
00130000
01000000
10000000
01000000
00200000
00000000
00310000
10000000
,
00100000
00010000
00001000
00000010
00000001
00000010
00000100
00001000
,
00000010
00000100
00001000
00000100
00000010
00010000
00001000
00100000
,
01000000
00010000
01000000
00100000
00010000
10000000
00100000
01000000
,
01100000
00000000
00000000
00011000
00000000
00000000
00000110
00000000
,
00000000
00011000
00000000
00000000
01000000
00100000
00010000
00001000
,
00011000
00000000
00000000
00010100
00000000
00000000
02002000
00000000
,
00000000
00000000
00000000
00000000
,
03003000
00000000
00000000
00000000
;

//---------------dance-double - ----------------
#NOTES:
     dance-double:
     :
     Medium:
     11:
     0.491535,0.546012,0.251339,0.416009,0.008667,397.000000,368.000000,29.000000,48.000000,0.000000,0.000000,0.491535,0.546012,0.251339,0.416009,0.008667,397.000000,368.000000,29.000000,48.000000,0.000000,0.000000:
00000000
00000000
00000000
00000000
,
00000000
00000000
00000000
00000000
,
00000000
00000000
00000000
00000000
,
00000000
00000000
00000000
00000000
,
00000000
00000000
00000000
00000000
,
10000000
10000000
00010000
00010000
,
00001000
00000001
00000010
00000100
,
00000110
00000000
00000000
00001100
00000000
00000000
00011000
00000000
,
00000000
01010000
00000000
00000000
01100000
00000000
10010000
00000000
,
02200000
00000000
00000000
03300000
,
10000000
00000000
00010000
00100000
02000000
00000000
13000000
00010000
,
00100000
00001000
00010000
00000000
00001000
00010000
00000010
00000000
,
00001000
00000001
00000010
00000000
00000100
00001000
00000001
00000000
,
00001000
00000010
00000100
00000001
00000100
00000010
00001000
00000000
,
00000001
00000000
00000010
00000100
00002000
00000000
00003100
00010000
,
00002000
00000000
00013000
00001000
02000000
00000000
03010000
10000000
,
01000000
00100000
00010000
00000000
01000000
00100000
10000000
00000000
,
00010000
00010000
10000000
01000000
00100000
00010000
20000000
00000000
,
30020000
00000000
10030000
01000000
00010000
00000000
00010000
00000000
,
00002000
00000000
00003100
00000001
00001000
00000000
00001001
00000000
,
00000002
00000000
00001003
00000100
00000020
00000000
00000130
00020000
,
00000000
00031000
00010000
00000000
00001000
00010000
00100000
00000000
,
02000000
00000000
03010000
10000000
01000000
00000000
10000000
00020000
,
00000000
10030000
00100000
02000000
00000000
03010000
10000000
00000000
,
00020000
00000000
00130000
01000000
20000000
00000000
30010000
00000000
,
10000000
10000000
00100000
00010000
00001000
00000010
00000002
00000000
,
00002003
00000000
00003001
00000010
00001000
00000000
00001000
00000000
,
00020000
00000000
00130000
10000000
00010000
00000000
10010000
00000000
,
20000000
00000000
30010000
00100000
02000000
00000000
03100000
00002000
,
00000000
00013000
00001000
00000000
00010000
00001000
00000100
00000000
,
00000020
00000000
00001030
00000001
00000010
00000000
00000001
00002000
,
00000000
00003001
00000100
00000020
00000000
00001030
00000001
00000000
,
00000011
00000000
00000000
00001100
00000000
00000000
00110000
00000000
,
00000000
11000000
00000000
00000000
00010000
00000000
10010000
00000000
,
10000000
00000000
10000000
00000000
00100000
00000000
00100000
00010000
,
00002000
00010000
00100000
00103000
,
00001000
00010000
00000100
00000000
00010000
00001000
01000000
00000000
,
00001000
00000000
00010000
00000000
00000100
00000000
00001000
00000000
00000001
00000000
00000000
00000001
00000000
00000000
00000001
00000000
,
00001000
00000000
00000100
00000010
00000200
00000000
00010300
00001000
,
00020000
00000000
00031000
00010000
00002000
00000000
01003000
00100000
,
02000000
00010000
00001000
03001000
,
00010000
00000000
00001000
00000000
00100000
00000000
00000000
01000000
00000000
00000000
01000000
00000000
00100000
00000000
00010000
00000000
,
20000000
00000000
00000000
00000000
,
30200000
00000000
00000000
00000000
,
02300000
00000000
00000000
00000000
,
03020000
00000000
00000000
00000000
,
00032000
00000000
00003200
00000000
,
00000320
00000000
00000032
00000000
,
00000103
00000000
00000010
00000000
00001000
00000000
00000001
00000010
,
00000000
00000100
00010000
00001000
00100000
00010000
01000000
00200000
,
00000000
00300000
01000000
00000000
01000000
00000000
01000000
00000000
,
00001000
00001000
00001000
00001000
,
00010000
00010000
00010000
00010000
,
00000100
00000000
00000100
00000000
00000100
00000000
00000100
00000020
,
00000000
00000030
00001000
00000000
00001000
00000000
00001000
00000000
,
00010000
00010000
00010000
00010000
,
00001000
00010000
00100000
00000000
00010000
00001000
00000010
00000000
,
00002000
00000000
00003000
00011000
,
00010000
00000000
00100000
00000000
10000000
00000000
00010000
10000000
,
00000000
00010000
00100000
00000000
01000000
10000000
00010000
00000000
,
10000000
01000000
00100000
00000000
00010000
10000000
00100000
02000000
,
00000000
03002000
00010000
00013000
,
00001000
00000000
00000100
00000000
00000001
00000000
00001000
00000001
,
00000000
00001000
00000100
00000000
00000010
00000001
00001000
00000000
,
00000001
00000010
00000100
00000000
00001000
00000001
00000100
00000020
,
00000000
00020030
00001000
00031000
,
00010000
01000000
10000000
00000000
01000000
00100000
00010000
00100000
,
00000000
01000000
10000000
00000000
00010000
10000000
00100000
00000000
,
01000000
00001000
00010000
00000000
00001000
00010000
00000100
00000000
,
00010000
00001000
00100000
00010000
01000000
00001000
00010000
00000000
,
00001000
00000010
00000001
00000000
00000010
00000100
00001000
00000100
,
00000000
00000010
00000001
00000000
00001000
00000001
00000100
00000000
,
00000110
00000000
00000000
00001010
00000000
00000000
00011000
00000000
,
00000000
00110000
00000000
00000000
01100000
00000000
10010000
00000000
,
10000000
10000000
00100000
00100000
,
00010000
00010000
00001000
00001000
,
00000010
00000001
00000010
00000000
00000100
00001000
00000100
00000000
,
00000010
00000001
00001000
00000100
00010000
00001000
00100000
00000000
,
01000000
10000000
01000000
00000000
00100000
00010000
00100000
00000000
,
00010000
01000000
00001000
00000000
00010000
00001000
00100000
00000000
,
00110000
00000000
00000000
11000000
00000000
00000000
10010000
00000000
,
00000000
10100000
00000000
00000000
01010000
00000000
00001000
00000000
,
00011000
00000000
00000000
00001100
00000000
00000000
00000022
00000000
,
00000000
00000000
00000000
00000000
,
00000033
00000000
00000000
00000000
;

//---------------dance-double - ----------------
#NOTES:
     dance-double:
     :
     Easy:
     8:
     0.356580,0.509612,0.234005,0.216672,0.000000,288.000000,261.000000,27.000000,25.000000,0.000000,0.000000,0.356580,0.509612,0.234005,0.216672,0.000000,288.000000,261.000000,27.000000,25.000000,0.000000,0.000000:
00000000
00000000
00000000
00000000
,
00000000
00000000
00000000
00000000
,
00000000
00000000
00000000
00000000
,
00000000
00000000
00000000
00000000
,
00000000
00000000
00000000
00000000
,
10000000
01000000
00010000
00001000
,
00000100
00000001
00000100
00001000
,
00011000
00000000
00000000
00110000
00000000
00000000
00011000
00000000
,
00000000
00001010
00000000
00000000
00011000
00000000
00110000
00000000
,
22000000
00000000
00000000
33000000
,
10000000
00010000
00200000
00300000
,
01000000
10000000
00010000
01000000
,
00100000
00100000
00010000
00010000
,
00001000
00000010
00000100
00001000
,
00000001
00001000
00000020
00000030
,
00000100
00000001
00000100
00001000
,
00010000
00010000
00001000
00001000
,
00022000
00000000
00000000
00033000
,
00010000
00100000
10000000
00100000
,
00010000
00001000
00000010
00001001
,
00000001
00000100
00001000
00000100
,
00000001
00000010
00001000
00010000
,
00100000
10000000
01000000
00010000
,
01000000
10000000
00100000
01000000
,
00010000
00100000
00002000
00003000
,
00011000
00000000
00000000
00000000
,
00001000
00000100
00000001
00000100
,
00001000
00010000
01000000
10010000
,
10000000
00100000
00010000
00100000
,
10000000
01000000
00010000
00001000
,
00000100
00000001
00000010
00001000
,
00000010
00000001
00000100
00000010
,
00000110
00000000
00000000
00001010
00000000
00000000
00011000
00000000
,
00000000
00001100
00000000
00000000
00000010
00000000
00000110
00000000
,
00000001
00000010
00000100
00001000
,
00000001
00000010
00000100
00001000
,
00010000
00100000
01000000
10000000
,
00010000
00100000
01100000
00000000
,
10010000
10000000
00100000
01000000
,
00010000
10000000
00100000
01000000
,
00010000
00001000
00000010
00000100
,
00000001
00000010
00000100
00001000
,
00000002
00000000
00000000
00000000
,
00000023
00000000
00000000
00000000
,
00002030
00000000
00000000
00000000
,
00023000
00000000
00000000
00000000
,
00230000
00000000
00000000
00000000
,
20300000
00000000
00000000
00000000
,
32000000
00000000
00000000
00000000
00000000
00000000
00000000
03000000
,
00000000
00000000
00100000
00000000
00010000
00000000
00010000
20000000
,
00000000
01000000
01000000
01000000
,
01000000
01000000
01000000
31000000
,
00020000
00001000
00001000
00001000
,
00001000
00000000
00001000
00000000
00031000
00000000
00010000
00000020
,
00000000
00000100
00000100
00000100
,
00000100
00000100
00000100
00000130
,
00000001
00000100
00000010
00001000
,
00001001
00000000
00000000
00000000
,
00000001
00000000
00000100
00000000
00001000
00000000
00010000
00002000
,
00000000
00003000
00010000
00000000
01000000
00000000
01000000
00000000
,
10000000
00000000
10000000
00000000
00010000
00000000
00010000
20000000
,
00000000
00000000
00020000
30030000
,
10000000
00000000
00100000
00000000
00010000
00000000
00001000
00020000
,
00000000
00030000
00001000
00000000
00000010
00000000
00000010
00000000
,
00000001
00000000
00000001
00000000
00001000
00000000
00001000
00000002
,
00000000
00000000
00002000
00003003
,
00000001
00000100
00001000
00010000
,
00001000
00000010
00000001
00000100
,
00000010
00000010
00010000
00010000
,
00001000
00100000
01000000
01000000
,
10000000
01000000
00010000
00001000
,
00010000
00100000
10000000
01000000
,
00100000
00000000
00000000
00100000
00000000
00000000
00001000
00000000
,
00000000
00001000
00000000
00000000
00010000
00000000
00011000
00000000
,
00001000
00001000
00000100
00000100
,
00000001
00000001
00000010
00000010
,
00001000
00010000
00100000
10000000
,
01000000
00010000
01000000
10000000
,
00010000
00010000
10000000
10000000
,
00100000
00100000
01000000
01000000
,
01100000
00000000
00000000
01010000
00000000
00000000
00011000
00000000
,
00000000
00110000
00000000
00000000
01100000
00000000
10000000
00000000
,
10010000
00000000
00000000
00010000
00000000
00000000
00022000
00000000
,
00000000
00000000
00000000
00000000
,
00033000
00000000
00000000
00000000
;
