#TITLE:Find That Someone;
#SUBTITLE:(feat. Richard Judge) (Contest Edit);
#ARTIST:Televisor;
#TITLETRANSLIT:;
#SUBTITLETRANSLIT:;
#ARTISTTRANSLIT:;
#GENRE:Monstercat;
#CREDIT:;
#BANNER:Find That Someone (feat. Richard Judge) (Contest Edit).png;
#BACKGROUND:Find That Someone (feat. Richard Judge) (Contest Edit)-bg.png;
#LYRICSPATH:;
#CDTITLE:../cdtitle.png;
#MUSIC:Find That Someone (feat. Richard Judge) (Contest Edit).ogg;
#OFFSET:1.920000;
#SAMPLESTART:53.760998;
#SAMPLELENGTH:15.000000;
#LASTBEATHINT:1.916590;
#SELECTABLE:YES;
#BPMS:0.000000=124.995003
;
#STOPS:
;
#BGCHANGES:3.875=Find That Someone (feat. Richard Judge) (Contest Edit).avi=1.000=0=0=0=StretchNoLoop====,
99999=-nosongbg-=1.000=0=0=0 // don't automatically add -songbackground-
;
#KEYSOUNDS:;
#ATTACKS:;

//---------------dance-single - ----------------
#NOTES:
     dance-single:
     :
     Medium:
     7:
     0.288633,0.338072,0.206711,0.266724,0.006668,303.000000,272.000000,31.000000,40.000000,0.000000,0.000000,0.288633,0.338072,0.206711,0.266724,0.006668,303.000000,272.000000,31.000000,40.000000,0.000000,0.000000:
0000
0000
0000
0000
,
0000
0000
0000
0000
,
0000
0000
0000
0000
,
0000
0000
0000
0000
,
0000
0000
0000
0000
,
1000
0000
1000
0000
0001
0010
0100
0000
,
1000
0010
0100
0000
0020
0000
0030
0000
,
0000
1000
0001
0000
0002
0000
0003
0000
,
0000
1000
0001
0000
0002
0000
0003
0000
,
1000
0000
1000
0000
0100
0010
0001
0000
,
0100
0010
1000
0000
0002
0000
0003
0000
,
0000
0010
0100
0000
0200
0000
0300
0000
,
1100
0000
0000
0101
0000
2002
0000
0000
0000
3003
0000
0000
,
1010
0000
0001
0000
1000
0100
0001
0000
,
0001
0100
1000
0000
1000
0100
0001
0000
,
1000
0000
0010
0001
0010
0000
0010
0000
,
1100
0000
0010
0010
,
0101
0000
1000
0000
0001
0010
1000
0000
,
1000
0010
0001
0000
0001
0010
1000
0000
,
0001
0000
0100
1000
0100
0000
0100
0000
,
0011
0000
0100
0100
,
1010
0000
0001
0000
0010
0100
0010
0000
,
0001
0000
0001
0000
1000
0100
0010
0001
,
1000
0000
1000
0000
0001
0100
0010
1000
,
0001
0000
0001
0000
0010
0100
0010
0000
,
0011
0000
1000
0000
0010
0100
0010
0000
,
1000
0000
1000
0000
0001
0100
0010
1000
,
0001
0000
0001
0000
1000
0100
0010
0001
,
1000
0000
1000
0000
0010
0100
0010
0000
,
1002
0000
0003
0000
,
0000
0000
0000
0000
,
0000
0000
0000
0000
,
0000
0000
0020
0000
0130
0010
0100
0000
,
0001
0000
0001
0000
0010
0100
1000
0000
,
0010
0100
0001
0000
2000
0000
3000
0000
,
0000
0100
0010
0000
0020
0000
0030
0000
,
0011
0000
0000
1010
0000
2002
0000
0000
0000
3003
0000
0000
,
0101
0000
1000
0000
0001
0010
1000
0000
,
1000
0010
0001
0000
0001
0010
1000
0000
,
0001
0000
0100
1000
0100
0000
0100
0000
,
0011
0000
0100
0100
,
1010
0000
0001
0000
1000
0100
0001
0000
,
0001
0100
1000
0000
1000
0100
0001
0000
,
1000
0000
0010
0001
0010
0000
0010
0000
,
1100
0000
0010
0010
,
0102
1000
0100
1000
,
0013
0000
0100
0000
1000
0100
0001
0000
,
0100
0000
0100
0000
1000
0010
0001
0000
,
0010
0000
0010
0000
0100
0001
1000
0000
,
2100
0001
0100
0001
,
3010
0000
0100
0000
0001
0100
1000
0000
,
0100
0000
0100
0000
0001
0010
1000
0000
,
0010
0000
0010
0000
0100
1000
0001
0000
,
0201
0000
0010
0000
,
0302
0000
1000
0000
,
0023
0000
0100
0000
,
0230
0000
0001
0300
,
1200
0000
0010
0000
,
2300
0000
0001
0000
,
3020
0000
0100
0000
,
2000
0000
0000
3030
,
1002
0000
0103
0000
,
0001
1000
0020
0030
,
0100
0001
2000
3000
,
1000
0001
0002
0003
,
2001
0000
3100
0000
,
1000
0001
0020
0030
,
0100
1000
0002
0003
,
0100
0000
0000
0000
0010
0100
0010
0000
,
2002
0000
3003
0101
,
2020
0000
0000
3030
,
0022
0000
0033
0110
,
2002
0000
0000
3003
,
1100
0000
0001
0000
1000
0010
0001
0000
,
0001
0010
1000
0000
1000
0010
0001
0000
,
1000
0000
0100
0001
0100
0000
0100
0000
,
1000
0000
0100
0100
,
0022
0000
0000
0000
,
0033
0000
0000
0000
;

//---------------dance-single - ----------------
#NOTES:
     dance-single:
     :
     Hard:
     13:
     0.424853,0.546116,0.326736,0.520111,0.556785,446.000000,397.000000,49.000000,78.000000,0.000000,0.000000,0.424853,0.546116,0.326736,0.520111,0.556785,446.000000,397.000000,49.000000,78.000000,0.000000,0.000000:
0000
0000
0000
0000
,
0000
0000
0000
0000
,
0000
0000
0000
0000
,
0000
0000
0000
0000
,
0000
0000
0000
0000
,
1001
0000
0001
0010
0100
0000
0010
0001
0000
1000
0000
0010
0000
1000
0000
0100
,
0000
0001
0000
0100
0000
1000
0000
0020
0000
0000
0000
0000
0130
0000
0000
0000
,
0001
0000
0100
0001
1000
0000
0100
0010
0001
0000
0000
0000
0011
0000
0000
0000
,
1000
0000
0010
1000
0001
0000
0010
0100
1000
0000
0000
0000
1100
0000
0000
0000
,
1001
0000
1000
0010
0100
0000
0010
1000
0000
0001
0000
0010
0000
0001
0000
0100
,
0000
1000
0000
0100
0000
0001
0000
0020
0000
0000
0000
0000
0130
0000
0000
0000
,
1000
0000
0100
1000
0001
0000
0100
0010
1000
0000
0000
0000
1010
0000
0000
0000
,
0011
0000
0000
0110
0000
2200
0000
0000
0000
3300
0000
0000
,
2001
0000
0000
0000
3010
0000
0100
0001
0000
0010
0000
0100
0000
1000
0000
1000
,
0000
0010
0000
0100
0000
0001
0000
0001
0000
0010
0000
0000
0200
0000
2300
0000
,
3001
0000
0100
0001
0010
0000
1010
0000
,
0012
1003
0101
0110
,
1002
0000
0000
0000
0013
0000
0100
1000
0000
0010
0000
0100
0000
0001
0000
0001
,
0000
0010
0000
0100
0000
1000
0000
1000
0000
0010
0000
0000
0200
0000
0302
0000
,
1003
0000
0100
1000
0010
0000
0011
0000
,
2010
0000
0000
0000
3001
0000
0000
0000
0010
0100
0000
0100
0010
0000
0001
0000
,
1001
0000
0000
0000
0101
0000
0000
0001
0000
0001
0000
0001
0020
0000
0030
0100
,
1000
0000
0000
0000
0010
0100
0000
0010
0000
0010
0000
0100
0000
0010
0000
0200
,
0010
0000
0300
0000
1000
0001
0000
1000
0000
1000
0000
0001
0000
1000
0000
2000
,
0001
0000
3000
0000
0001
0000
0000
1000
0000
1000
0100
0010
0002
0000
0003
0000
,
1001
0000
0000
0000
0101
0000
0000
0001
0000
0001
0000
1000
0002
0000
0003
0010
,
0100
0000
0000
0000
1000
0010
0000
0100
0000
0100
0000
0010
0000
0001
0000
0020
,
0100
0000
0030
0000
1000
0100
0000
0010
0000
0010
0000
0100
0000
0001
0000
0200
,
0010
0000
0300
0000
1000
0000
0000
0001
0010
0001
0010
0100
2000
0000
3000
0000
,
1002
0000
0003
0000
,
0000
0000
0000
0000
,
0000
0000
0000
0000
,
0000
0000
0000
0000
2000
0000
0000
3100
0010
0001
1000
0100
0020
0000
0030
0000
,
1001
0000
0001
0010
0100
0000
0010
0001
0000
1000
0000
0010
0000
1000
0000
0100
,
0000
0001
0000
0100
0000
1000
0000
0020
0000
0000
0000
0000
0130
0000
0000
0000
,
0001
0000
0100
0001
1000
0000
0100
0010
0001
0000
0000
0000
0011
0000
0000
0000
,
1010
0000
0000
0110
0000
0202
0000
0000
0000
0303
0000
0000
,
1002
0000
0000
0000
0013
0000
0100
1000
0000
0010
0000
0100
0000
0001
0000
0001
,
0000
0010
0000
0100
0000
1000
0000
1000
0000
0010
0000
0000
0200
0000
0302
0000
,
1003
0000
0100
1000
0010
0000
0011
0000
,
2010
3001
1100
0110
,
2001
0000
0000
0000
3010
0000
0100
0001
0000
0010
0000
0100
0000
1000
0000
1000
,
0000
0010
0000
0100
0000
0001
0000
0001
0000
0010
0000
0000
0200
0000
2300
0000
,
3001
0000
0100
0001
0010
0000
1010
0000
,
0012
0000
0000
0000
1003
0000
0000
0000
0100
1000
0000
1000
0010
0000
0100
0000
,
0102
0000
0010
0000
0100
0000
2003
3200
,
0301
0000
0000
0000
0100
1000
0000
0001
0000
0010
0000
0100
0000
1000
0000
1000
,
0020
0000
0030
0000
0001
0010
0000
1000
0000
0001
0000
0010
0000
0100
0000
0100
,
2000
0000
3000
0000
1100
0000
0000
0000
0001
1000
0000
0010
0000
0100
0001
0000
,
0012
0000
0100
0000
0010
0000
2003
3020
,
0031
0000
0000
0000
0010
1000
0000
0001
0000
0100
0000
0010
0000
1000
0000
1000
,
0200
0000
0300
0000
0001
0100
0000
1000
0000
0001
0000
0100
0000
0010
0000
0010
,
2000
0000
3000
0000
1010
0000
0000
0000
0001
0010
0000
0010
0100
0000
0010
0000
,
0012
0000
0200
0300
,
2003
0000
0200
0300
,
3002
0000
0020
0030
,
2003
0000
0020
3030
,
0012
0000
2000
3000
,
0203
0000
2000
3000
,
0320
0000
0002
0003
,
2000
0000
0000
3030
,
0101
0000
1000
0100
0020
0000
0030
0000
,
0100
1000
0001
0000
2000
0000
3000
0000
,
0010
0100
0010
0000
0020
0000
0030
0000
,
0001
0010
1000
0000
0200
0000
0300
0000
,
1100
0000
0001
0100
0020
0000
0030
0000
,
0100
0001
1000
0000
0002
0000
0003
0000
,
0010
0100
0010
0000
0020
0000
0030
0000
,
0100
0000
1000
0000
0001
0000
0000
0000
0100
0000
0100
0000
0010
0000
0010
1000
,
0002
0000
0003
0101
,
2200
0000
0000
0000
3300
0000
1000
0010
,
0220
0000
0330
0011
,
2020
0000
0000
3030
,
1002
0000
0000
0000
0013
0000
0100
1000
0000
0010
0000
0100
0000
0001
0000
0001
,
0000
0010
0000
0100
0000
1000
0000
1000
0000
0010
0000
0000
0200
0000
0302
0000
,
1003
0000
0100
1000
0010
0000
0001
0000
,
2010
0000
0000
0000
3001
0000
0000
0000
0100
0000
0000
0000
0001
0010
0100
1000
,
0020
0000
0000
0000
,
0030
0000
0000
0000
;

//---------------dance-single - ----------------
#NOTES:
     dance-single:
     :
     Easy:
     5:
     0.215284,0.260055,0.160034,0.226715,0.006668,226.000000,202.000000,24.000000,34.000000,0.000000,0.000000,0.215284,0.260055,0.160034,0.226715,0.006668,226.000000,202.000000,24.000000,34.000000,0.000000,0.000000:
0000
0000
0000
0000
,
0000
0000
0000
0000
,
0000
0000
0000
0000
,
0000
0000
0000
0000
,
0000
0000
0000
0000
,
1000
0001
1000
1000
,
0001
0001
0020
0030
,
0000
0100
0100
0000
,
0000
1000
1000
0000
,
0001
1000
0001
0001
,
1000
1000
0020
0030
,
0000
0100
0100
0000
,
1001
0000
0000
0001
0000
2000
0000
0000
0000
3000
0000
0000
,
0110
0001
1000
1000
,
0001
0001
1000
1000
,
0001
0100
1000
0010
,
0001
0000
0001
1000
,
0001
1000
0001
0001
,
1000
1000
0001
0001
,
1000
0100
0001
0010
,
1000
0000
1000
0001
,
1000
1000
0001
0001
,
1000
0100
1000
0100
,
0001
0100
0001
0100
,
1000
0000
1000
1000
,
0001
0001
1000
1000
,
0001
0010
0001
0010
,
1000
0010
1000
0010
,
0001
0000
0001
0001
,
2000
0000
3000
0000
,
0000
0000
0000
0000
,
0000
0000
0000
0000
,
0000
0000
0000
0000
,
0001
1000
0001
0001
,
1000
1000
0200
0300
,
0000
0010
0010
0000
,
1001
0000
0000
0001
0000
2000
0000
0000
0000
3000
0000
0000
,
0110
0001
1000
1000
,
0001
0001
1000
1000
,
0001
0010
1000
0100
,
0001
0000
0001
1000
,
0001
1000
0001
0001
,
1000
1000
0001
0001
,
1000
0010
0001
0100
,
1000
0000
1000
0001
,
1020
0000
0001
0000
,
1030
0000
1000
0100
,
0001
0000
0001
0100
,
1000
0000
1000
0001
,
0021
0000
1000
0000
,
0031
0000
0001
0100
,
1000
0000
1000
0100
,
0001
0000
0001
1000
,
1002
0000
0103
0000
,
2000
0000
3100
0000
,
0002
0000
0013
0000
,
2000
0000
3010
0000
,
1002
0000
0103
0000
,
0020
0000
0031
0000
,
0020
0000
1030
0000
,
0200
0000
0000
0300
,
0021
0000
1030
0000
,
1200
0000
0301
0000
,
2100
0000
3010
0000
,
1002
0000
0103
0000
,
1200
0000
0301
0000
,
0021
0000
1030
0000
,
0012
0000
0103
0000
,
2001
0000
3010
0010
,
0220
0000
0330
1100
,
0202
0000
0000
0303
,
0022
0000
0033
1010
,
2002
0000
0000
3003
,
0110
0001
1000
1000
,
0001
0001
1000
1000
,
0001
0100
1000
0010
,
0001
0000
1000
0001
,
0220
0000
0000
0000
,
0330
0000
0000
0000
;

//---------------dance-single - ----------------
#NOTES:
     dance-single:
     :
     Beginner:
     2:
     0.083827,0.156033,0.026672,0.106689,0.000000,88.000000,84.000000,4.000000,16.000000,0.000000,0.000000,0.083827,0.156033,0.026672,0.106689,0.000000,88.000000,84.000000,4.000000,16.000000,0.000000,0.000000:
0000
0000
0000
0000
,
0000
0000
0000
0000
,
0000
0000
0000
0000
,
0000
0000
0000
0000
,
0000
0000
0000
0000
,
0010
0000
0000
0000
,
0010
0000
0000
0000
,
1000
0000
0000
0000
,
0001
0000
0000
0000
,
0010
0000
0000
0000
,
0010
0000
0000
0000
,
0100
0000
0000
0000
,
1001
0000
0000
0000
,
0001
0000
1000
0000
,
1000
0000
1000
0000
,
0001
0000
0000
0000
,
0001
0000
0000
0000
,
1000
0000
0001
0000
,
0001
0000
0001
0000
,
1000
0000
0000
0000
,
1000
0000
0000
0000
,
0001
0000
1000
0000
,
0001
0000
0001
0000
,
0010
0000
0100
0000
,
0010
0000
0100
0000
,
1000
0000
0001
0000
,
1000
0000
1000
0000
,
0010
0000
0100
0000
,
0010
0000
0100
0000
,
0002
0000
0003
0000
,
0000
0000
0000
0000
,
0000
0000
0000
0000
,
0000
0000
0000
0000
,
0010
0000
0000
0000
,
0010
0000
0000
0000
,
0100
0000
0000
0000
,
1001
0000
0000
0000
,
1000
0000
0001
0000
,
0001
0000
0001
0000
,
1000
0000
0000
0000
,
1000
0000
0000
0000
,
0001
0000
1000
0000
,
1000
0000
1000
0000
,
0001
0000
0000
0000
,
0001
0000
0000
0000
,
2000
0000
0000
0000
,
3000
0000
0000
0000
,
0001
0000
0000
0000
,
0001
0000
0000
0000
,
0020
0000
0000
0000
,
0030
0000
0000
0000
,
0100
0000
0000
0000
,
0100
0000
0000
0000
,
2000
0000
0000
0000
,
3000
0000
0000
0000
,
0020
0000
0000
0000
,
0030
0000
0000
0000
,
0002
0000
0000
0000
,
0003
0000
0000
0000
,
0200
0000
0000
0000
,
0300
0000
0000
0000
,
2000
0000
3000
0000
,
0020
0000
0030
0000
,
0200
0000
0300
0000
,
0002
0000
0003
0000
,
0002
0000
0003
0000
,
0020
0000
0030
0000
,
0200
0000
0300
0000
,
2000
0000
3000
0000
,
0110
0000
0000
0001
,
0001
0000
0000
0000
,
0110
0000
0000
1000
,
1000
0000
0000
0000
,
0001
0000
1000
0000
,
1000
0000
1000
0000
,
0001
0000
0000
0000
,
0001
0000
0000
0000
,
0020
0000
0000
0000
,
0030
0000
0000
0000
;

//---------------dance-single - ----------------
#NOTES:
     dance-single:
     :
     Challenge:
     11:
     0.352456,0.442094,0.246719,0.333404,0.026672,370.000000,333.000000,37.000000,50.000000,108.000000,0.000000,0.352456,0.442094,0.246719,0.333404,0.026672,370.000000,333.000000,37.000000,50.000000,108.000000,0.000000:
// measure 0
0000
0000
0000
0000
,  // measure 1
0000
0000
0000
0000
,  // measure 2
0000
0000
0000
0000
,  // measure 3
0000
0000
0000
0000
,  // measure 4
0000
0000
0000
0000
,  // measure 5
MMMM
0001
0100
0010
0100
0001
0100
0010
,  // measure 6
1000
0100
0010
0100
2000
0000
3001
0000
,  // measure 7
MMMM
0001
0100
0010
1000
0000
MMMM
0000
,  // measure 8
MMMM
0001
0100
0010
1000
0000
MMMM
0000
,  // measure 9
MMMM
1000
0100
0010
0100
1000
0100
0010
,  // measure 10
0001
0100
0010
0100
0002
0000
1003
0000
,  // measure 11
MMMM
1000
0100
0010
0001
0000
MMMM
0000
,  // measure 12
0110
0000
0000
1001
0000
0220
0000
0000
0000
0330
0000
0000
,  // measure 13
1002
0000
0103
0001
0010
0100
1000
1000
,  // measure 14
0010
0100
0001
0001
0010
0100
1000
1000
,  // measure 15
MMMM
0000
1000
0100
0010
0000
0101
0000
,  // measure 16
1100
0000
0001
0000
1000
0010
0100
0000
,  // measure 17
2001
0000
3100
1000
0010
0100
0001
0001
,  // measure 18
0010
0100
1000
1000
0010
0100
0001
0001
,  // measure 19
MMMM
0000
0001
0100
0010
0000
1100
0000
,  // measure 20
0101
0000
0000
0000
1000
0000
0000
0000
0001
0010
0000
0100
0010
0000
0001
0000
,  // measure 21
1001
0000
0000
0000
0011
0000
0000
0000
0100
0000
1000
0000
0020
0000
0030
0100
,  // measure 22
0010
0000
0001
0010
0100
0010
1000
0100
,  // measure 23
0020
0030
1000
0010
0100
0010
0001
0100
,  // measure 24
0020
0030
0001
0000
0001
0010
2000
3000
,  // measure 25
1001
0000
0000
0000
1010
0000
0000
0000
0100
0000
0001
0000
0020
0000
0030
0100
,  // measure 26
0010
0000
1000
0010
0100
0010
0001
0100
,  // measure 27
0020
0030
0001
0010
0100
0010
1000
0100
,  // measure 28
0020
0030
1000
0000
1000
0010
0002
0003
,  // measure 29
2020
0000
3030
0000
,  // measure 30
MMMM
0000
0000
0000
,  // measure 31
MMMM
0000
0000
0000
,  // measure 32
MMMM
0000
0020
0000
0130
0010
2002
3003
,  // measure 33
MMMM
0001
0100
0010
0100
0001
0100
0010
,  // measure 34
1000
0100
0010
0100
2000
0000
3001
0000
,  // measure 35
MMMM
0001
0100
0010
1000
0000
MMMM
0000
,  // measure 36
0110
0000
0000
1001
0000
0220
0000
0000
0000
0330
0000
0000
,  // measure 37
2001
0000
3100
1000
0010
0100
0001
0001
,  // measure 38
0010
0100
1000
1000
0010
0100
0001
0001
,  // measure 39
MMMM
0000
0001
0100
0010
0000
1100
0000
,  // measure 40
0101
0000
1000
0000
0001
0010
0100
0000
,  // measure 41
1002
0000
0103
0001
0010
0100
1000
1000
,  // measure 42
0010
0100
0001
0001
0010
0100
1000
1000
,  // measure 43
MMMM
0000
1000
0100
0010
0000
0101
0000
,  // measure 44
1100
0000
0000
0000
0001
0000
0000
0000
1000
0010
0000
0100
0010
0000
1000
0000
,  // measure 45
0002
0100
1000
0010
,  // measure 46
1003
0000
1000
0100
0001
0100
1000
0010
,  // measure 47
0002
0003
1000
0100
0001
0010
1000
0010
,  // measure 48
0002
0003
0001
0000
1000
0001
0010
0100
,  // measure 49
2000
0100
0001
0010
,  // measure 50
3001
0000
0001
0100
1000
0100
0001
0010
,  // measure 51
2000
3000
0001
0100
1000
0010
0001
0010
,  // measure 52
2000
3000
1000
0000
0001
1000
0010
0100
,  // measure 53
1002
0000
0100
0000
,  // measure 54
2003
0000
0100
0000
,  // measure 55
3002
0000
0010
0000
,  // measure 56
2003
0000
0010
3000
,  // measure 57
0210
0000
1000
0000
,  // measure 58
0320
0000
0001
0000
,  // measure 59
0230
0000
1000
0000
,  // measure 60
0020
0000
0000
0330
,  // measure 61
1100
0001
0100
0000
MMMM
0000
0000
0000
,  // measure 62
0100
0001
0010
0000
MMMM
0000
0000
0000
,  // measure 63
1000
0100
0010
0000
MMMM
0000
0000
0000
,  // measure 64
0010
0100
1000
0000
MMMM
0000
0000
0000
,  // measure 65
0101
1000
0100
0000
MMMM
0000
0000
0000
,  // measure 66
0100
1000
0010
0000
MMMM
0000
0000
0000
,  // measure 67
0001
0100
0010
0000
MMMM
0000
0000
0000
,  // measure 68
0020
0000
0030
0000
1000
0001
0100
0001
,  // measure 69
2200
0000
3300
0101
,  // measure 70
0220
0000
0000
0330
,  // measure 71
2020
0000
3030
0011
,  // measure 72
0220
0000
0000
0330
,  // measure 73
2001
0000
3100
1000
0010
0100
0001
0000
,  // measure 74
0010
0100
1000
0000
0010
0100
0001
0000
,  // measure 75
MMMM
0000
0001
0100
0010
0000
1000
0000
,  // measure 76
0101
0000
1000
0000
0100
0010
0100
MMMM
,  // measure 77
2002
0000
0000
0000
,  // measure 78
3003
0000
0000
0000
;
