#TITLE:Feeling Good;
#SUBTITLE:(feat. Shayee);
#ARTIST:Redondo;
#TITLETRANSLIT:;
#SUBTITLETRANSLIT:;
#ARTISTTRANSLIT:;
#GENRE:Spinnin' Records;
#CREDIT:;
#BANNER:Feeling Good (feat. Shayee).png;
#BACKGROUND:Feeling Good (feat. Shayee)-bg.png;
#LYRICSPATH:;
#CDTITLE:../cdtitle.png;
#MUSIC:Feeling Good (feat. Shayee).ogg;
#OFFSET:1.813000;
#SAMPLESTART:25.282000;
#SAMPLELENGTH:15.000000;
#LASTBEATHINT:1.680200;
#SELECTABLE:YES;
#BPMS:0.000000=124.000000
;
#STOPS:
;
#BGCHANGES:3.750=Feeling Good (feat. Shayee).avi=1.000=0=0=0=StretchNoLoop====,
99999=-nosongbg-=1.000=0=0=0 // don't automatically add -songbackground-
;
#KEYSOUNDS:;
#ATTACKS:;

//---------------dance-single - ----------------
#NOTES:
     dance-single:
     :
     Hard:
     9:
     0.395927,0.412856,0.172023,0.105125,0.000000,290.000000,272.000000,18.000000,11.000000,0.000000,0.000000,0.395927,0.412856,0.172023,0.105125,0.000000,290.000000,272.000000,18.000000,11.000000,0.000000,0.000000:
0000
0000
0000
0000
,
0000
0000
0000
0000
,
0000
0000
0000
0000
,
0000
0000
0000
0000
,
0000
0000
0000
0000
,
1000
0100
0001
0000
0001
0100
1000
0000
,
1000
0010
0001
0000
0001
0010
1000
0100
,
0010
0001
1000
0000
0010
0100
0001
0000
,
1000
0100
0010
0200
0001
0000
1300
0000
,
0001
0010
1000
0010
0001
0000
0001
1000
,
0010
0000
0010
0000
0001
0010
1000
0001
,
0010
0100
0010
0100
0010
0100
0010
0100
,
0020
0000
0000
0000
,
0230
0000
0000
0310
,
1001
0020
0100
0000
0001
0000
0001
0000
,
1000
0000
1000
0000
0130
0001
0010
0100
,
1000
0200
0010
0000
0001
0000
0001
0000
,
1000
0000
1000
0000
0310
1000
0010
0100
,
1000
0020
0100
0000
0001
0000
0001
0000
,
1000
0000
1000
0000
0130
1000
0100
0010
,
1000
0200
0001
0000
0010
0000
0310
0000
,
1100
0101
1100
0110
,
0001
0100
0010
0000
1000
0100
0010
0100
,
1000
1000
0001
0000
0100
0010
1000
0001
,
0100
0100
0010
0000
1000
0100
0010
0100
,
1000
1000
0001
0000
0010
0100
1000
0001
,
1000
0010
0100
0000
0001
0000
0110
0000
,
0001
1000
0010
0000
0100
0010
1000
0001
,
1000
0100
0010
0000
0001
0000
0110
0000
,
0001
1000
0100
1000
0001
0100
0010
1000
,
0002
0100
0000
0100
,
0000
0010
0000
0010
,
2003
0100
0000
0100
,
0000
0010
0000
0010
,
3001
0001
0010
0010
,
1000
1000
0100
0100
,
0001
0010
1000
0010
0001
0010
1000
0010
,
0002
0100
0010
1003
,
0110
0001
0100
0000
1000
0000
0110
0000
,
0001
0000
0011
0000
0100
1000
0001
0010
,
0100
1000
0010
0000
0001
0000
0110
0000
,
1000
0000
1100
0000
0010
0001
1000
0010
,
0001
0010
1000
0000
0001
0000
0110
0000
,
0001
0000
1001
0000
0001
0100
0010
1000
,
0100
0010
0100
0000
1000
0000
0001
0000
,
0101
1010
0011
0110
,
0001
0010
0100
0000
1000
0010
0100
0010
,
1000
1000
0001
0000
0010
0100
1000
0001
,
0010
0010
0100
0000
1000
0010
0100
0010
,
1000
1000
0001
0000
0100
0010
1000
0001
,
1000
0100
0010
0000
0001
0100
0010
0100
,
0001
1000
0100
0000
0010
0100
1000
0001
,
1000
0010
0100
0000
0001
0010
0100
0010
,
0001
0100
0010
1000
0001
0010
0200
0000
,
0300
0000
0000
0000
;

//---------------dance-single - ----------------
#NOTES:
     dance-single:
     :
     Medium:
     8:
     0.352238,0.387052,0.305819,0.086012,0.000000,258.000000,226.000000,32.000000,9.000000,0.000000,0.000000,0.352238,0.387052,0.305819,0.086012,0.000000,258.000000,226.000000,32.000000,9.000000,0.000000,0.000000:
0000
0000
0000
0000
,
0000
0000
0000
0000
,
0000
0000
0000
0000
,
0000
0000
0000
0000
,
0000
0000
0000
0000
,
0100
0100
0001
0001
,
1000
0000
1000
0000
0100
0010
0100
0000
,
1000
1000
0001
0001
,
0100
0010
1000
0000
0002
0000
0003
0000
,
1000
0100
0001
0100
,
1000
0010
0100
0010
,
1000
0100
0010
0001
1000
0010
0100
0001
,
2000
0000
0000
0000
,
3002
0000
0000
0103
,
1001
1000
0100
0000
0010
0000
1100
0000
,
0001
0000
0110
0000
0001
0100
0010
0000
,
1000
0100
0010
0000
0100
0000
0011
0000
,
1000
0000
0110
0000
1000
0010
0100
0000
,
0010
1000
0100
0000
0001
0000
0011
0000
,
0010
0000
1010
0000
1000
0100
0010
0000
,
0100
1000
0010
0000
0001
0000
0010
0000
,
1010
0110
0101
1001
,
0001
0010
0100
0000
0010
0001
0010
0000
,
0100
1000
0010
0000
0100
0000
1001
0000
,
1000
0100
0010
0000
0100
1000
0100
0000
,
0010
0001
0100
0000
0010
0000
1001
0000
,
0001
0100
0010
0000
1000
0000
1100
0000
,
1000
0100
0001
0000
0100
0000
0011
0000
,
0001
1000
0010
0000
0001
0000
0110
0000
,
0001
0000
0001
0000
0010
0100
1000
0000
,
0002
0000
0010
0000
,
0203
0000
0310
1000
,
0002
0000
0100
0000
,
0013
0100
2000
0000
,
3010
0010
0001
0001
,
0100
0100
1000
1000
,
0001
0100
0010
1000
0001
0010
0100
0010
,
0002
0000
0000
0103
,
1001
0001
0010
0000
0100
0000
0011
0000
,
1000
0000
0110
0000
1000
0010
0100
0000
,
0001
0010
0100
0000
0010
0000
1100
0000
,
0001
0000
0110
0000
0001
0100
0010
0000
,
0100
0001
0010
0000
1000
0000
1100
0000
,
0100
0000
0101
0000
0001
0010
0100
0000
,
0010
0001
0100
0000
1000
0000
0100
0000
,
0101
0110
1010
1001
,
1000
0100
0010
0000
0100
1000
0100
0000
,
0010
0001
0100
0000
0010
0000
1001
0000
,
0001
0010
0100
0000
0010
0001
0010
0000
,
0100
1000
0010
0000
0100
0000
1001
0000
,
1000
0010
0100
0000
0001
0000
0011
0000
,
0001
0010
1000
0000
0010
0000
1100
0000
,
1000
0001
0100
0000
1000
0000
0110
0000
,
1000
0100
0010
0000
0001
0000
2000
0000
,
3000
0000
0000
0000
;

//---------------dance-single - ----------------
#NOTES:
     dance-single:
     :
     Easy:
     6:
     0.259400,0.335445,0.181580,0.124239,0.000000,190.000000,171.000000,19.000000,13.000000,0.000000,0.000000,0.259400,0.335445,0.181580,0.124239,0.000000,190.000000,171.000000,19.000000,13.000000,0.000000,0.000000:
0000
0000
0000
0000
,
0000
0000
0000
0000
,
0000
0000
0000
0000
,
0000
0000
0000
0000
,
0000
0000
0000
0000
,
1000
1000
0100
0100
,
0001
0001
0100
1000
,
0001
0001
0010
0010
,
1000
0010
0002
0003
,
1000
0010
0100
0010
,
1000
0100
0010
0100
,
1000
1000
0001
0001
,
2000
0000
0000
0000
,
3020
0000
0000
0130
,
1001
0001
0010
0010
,
0100
0100
0010
0001
,
0100
1001
0010
0010
,
0100
0100
0010
1000
,
0100
0110
0001
0001
,
1000
1000
0001
0100
,
1000
0110
1000
1000
,
0110
1001
0110
0001
,
2000
0100
0100
3000
,
0001
0100
0001
0100
,
2000
0010
0010
3000
,
0001
0010
0001
0010
,
1000
0100
0001
0000
,
0001
0010
1000
0000
,
1000
0100
0010
0000
,
0001
0100
0010
1000
,
0002
0000
0000
0000
,
2003
0000
0000
0000
,
3200
0000
0000
0000
,
0320
0000
0000
0000
,
0130
0100
1000
1000
,
0010
0010
0100
0001
,
0010
0100
0010
0100
,
0020
0000
0000
0130
,
1001
1000
0010
0010
,
0100
0100
0010
1000
,
0100
1001
0010
0010
,
0100
0100
0010
0001
,
0100
0110
1000
1000
,
0001
0001
1000
0100
,
0001
0110
0001
0001
,
0110
1001
0110
1000
,
0002
0100
0103
1001
,
1000
0100
0010
0010
,
0002
0010
0013
1001
,
1000
0010
0100
0100
,
0001
0100
1000
0110
,
1000
0010
0001
0110
,
0001
0100
0010
1001
,
1000
0100
0010
0002
,
0003
0000
0000
0000
;

//---------------dance-single - ----------------
#NOTES:
     dance-single:
     :
     Beginner:
     3:
     0.139257,0.180624,0.019114,0.057341,0.000000,102.000000,100.000000,2.000000,6.000000,0.000000,0.000000,0.139257,0.180624,0.019114,0.057341,0.000000,102.000000,100.000000,2.000000,6.000000,0.000000,0.000000:
0000
0000
0000
0000
,
0000
0000
0000
0000
,
0000
0000
0000
0000
,
0000
0000
0000
0000
,
0000
0000
0000
0000
,
0010
0000
0010
0000
,
0010
0000
0010
0000
,
0100
0000
0100
0000
,
0100
0010
0200
0300
,
0100
0000
0001
0000
,
0100
0000
1000
0000
,
0100
0100
0100
0000
,
0020
0000
0000
0000
,
0030
0000
0000
0000
,
1001
0000
0001
0000
,
1000
0000
0001
0000
,
0010
0000
0100
0000
,
0010
0000
0010
0000
,
1000
0000
0001
0000
,
1000
0000
1000
0000
,
0100
0000
0010
0000
,
0100
0100
0100
0000
,
1000
0000
1000
0000
,
1000
0000
1000
0000
,
0001
0000
0001
0000
,
0001
0000
0001
0000
,
1000
0000
1000
0000
,
0010
0000
1000
0000
,
0001
0000
0001
0000
,
0010
0010
0010
0000
,
0200
0000
0000
0000
,
0300
0000
0000
0000
,
0020
0000
0000
0000
,
0030
0000
0000
0000
,
0001
0000
0001
0000
,
1000
0000
1000
0000
,
0001
0001
0001
0001
,
0002
0000
0000
0003
,
1001
0000
0001
0000
,
1000
0000
0001
0000
,
0100
0000
0010
0000
,
0100
0000
0100
0000
,
1000
0000
0001
0000
,
1000
0000
1000
0000
,
0010
0000
0100
0000
,
0010
0010
0010
0000
,
1000
0000
1000
0000
,
1000
0000
1000
0000
,
0001
0000
0001
0000
,
0001
0000
0001
0000
,
1000
1000
1000
0000
,
0010
0010
0010
0000
,
0001
0001
0001
0000
,
0100
0100
0100
0200
,
0300
0000
0000
0000
;

//---------------dance-double - ----------------
#NOTES:
     dance-double:
     :
     Easy:
     4:
     0.159736,0.206428,0.019114,0.076455,0.000000,117.000000,115.000000,2.000000,8.000000,0.000000,0.000000,0.159736,0.206428,0.019114,0.076455,0.000000,117.000000,115.000000,2.000000,8.000000,0.000000,0.000000:
00000000
00000000
00000000
00000000
,
00000000
00000000
00000000
00000000
,
00000000
00000000
00000000
00000000
,
00000000
00000000
00000000
00000000
,
00000000
00000000
00000000
00000000
,
00000000
00010000
00000000
00010000
,
00000000
00010000
00000000
00010000
,
00000000
00001000
00000000
00001000
,
00000000
00001000
00020000
00030000
,
00001000
00001000
00000010
00000000
,
00000001
00000001
00001000
00000000
,
00000010
00001000
00000010
00001000
,
00000200
00000000
00000000
00000000
,
00000300
00000000
00000000
00000000
,
00101000
00010000
00000000
00010000
,
00000000
00010000
00000000
00010000
,
01000000
00100000
00000000
00100000
,
00000000
00100000
00000000
00100000
,
10000000
01000000
00000000
01000000
,
00000000
01000000
00000000
01000000
,
00010000
00001000
00000000
00001000
,
00010000
00010000
00001000
00000000
,
00010000
00000100
00000000
00000100
,
00000000
00001000
00000000
00001000
,
00000000
00000001
00000000
00000001
,
00000000
00000100
00000000
00000100
,
00000010
00001000
00000000
00001000
,
00000000
00000100
00000000
00000100
,
00000000
00010000
00000000
00010000
,
00001000
00001000
00010000
00001000
,
00020000
00000000
00000000
00000000
,
00032000
00000000
00000000
00003000
,
00200000
00000000
00000000
00000000
,
02300000
00000000
00000000
03000000
,
10000000
10000000
01000000
00000000
,
00100000
00100000
00010000
00000000
,
00001000
00000100
00010000
00000010
,
00002000
00000000
00000000
00003000
,
00010100
00001000
00000000
00001000
,
00000000
00001000
00000000
00001000
,
00000010
00000100
00000000
00000100
,
00000000
00000100
00000000
00000100
,
00000001
00000010
00000000
00000010
,
00000000
00000010
00000000
00000010
,
00001000
00010000
00000000
00010000
,
00001000
00001000
00010000
00000000
,
00001000
00100000
00000000
00100000
,
00000000
00010000
00000000
00010000
,
00000000
10000000
00000000
10000000
,
00000000
00100000
00000000
00100000
,
01000000
00010000
00000000
00010000
,
00000000
00100000
00000000
00100000
,
00000000
00001000
00000000
00001000
,
00000000
00010000
00001000
00020000
,
00030000
00000000
00000000
00000000
;

//---------------dance-double - ----------------
#NOTES:
     dance-double:
     :
     Medium:
     7:
     0.316741,0.361249,0.267592,0.076455,0.000000,232.000000,204.000000,28.000000,8.000000,0.000000,0.000000,0.316741,0.361249,0.267592,0.076455,0.000000,232.000000,204.000000,28.000000,8.000000,0.000000,0.000000:
// measure 0
00000000
00000000
00000000
00000000
,  // measure 1
00000000
00000000
00000000
00000000
,  // measure 2
00000000
00000000
00000000
00000000
,  // measure 3
00000000
00000000
00000000
00000000
,  // measure 4
00000000
00000000
00000000
00000000
,  // measure 5
00010000
00010000
00001000
00001000
,  // measure 6
00010000
00000000
00010000
00000000
00000100
00001000
00000100
00000000
,  // measure 7
00000010
00000010
00000001
00000001
,  // measure 8
00001000
00000001
00002000
00003000
,  // measure 9
00000010
00000100
00001000
00000100
,  // measure 10
00000010
00001000
00000100
00010000
,  // measure 11
00001000
00100000
00010000
00000000
10000000
00010000
01000000
00000000
,  // measure 12
00200000
00000000
00000000
00000000
,  // measure 13
10300000
00000000
00000000
00000000
,  // measure 14
00010000
10000000
01000000
00000000
00100000
00000000
00110000
00000000
,  // measure 15
00001000
00011000
00010000
00000100
,  // measure 16
00010000
00000010
00001000
00000000
00000001
00000000
00000101
00000000
,  // measure 17
00001000
00001100
00000010
00000100
,  // measure 18
00001000
00000001
00000100
00000000
00000010
00000000
00001010
00000000
,  // measure 19
00010000
00011000
00001000
01000000
,  // measure 20
00001000
00100000
00010000
00000000
10000000
00000000
01000000
00000000
,  // measure 21
01010000
00011000
00001100
00000000
,  // measure 22
00010000
00001000
00010000
00000000
00000100
00000000
00000010
00000000
,  // measure 23
00000001
00000010
00000001
00000000
00001000
00000000
00001001
00000000
,  // measure 24
00000001
00000100
00001000
00000000
00000100
00000000
00000100
00000000
,  // measure 25
00001000
00010000
00001000
00000000
00100000
00000000
00110000
00000000
,  // measure 26
00001000
00010000
00001000
00000000
00100000
00000000
01100000
00000000
,  // measure 27
10000000
00000000
11000000
00000000
00100000
01000000
10000000
00000000
,  // measure 28
00010000
01000000
00100000
00000000
00010000
00000000
00011000
00000000
,  // measure 29
00001000
00100000
00001000
00000000
00010000
00000100
00010000
00000000
,  // measure 30
00002000
00000000
00000010
00000000
,  // measure 31
00020000
00000000
00000000
00033000
,  // measure 32
00000020
00000000
00000100
00000000
,  // measure 33
00002000
00000000
00000000
00003030
,  // measure 34
00000001
00000001
00000010
00000010
,  // measure 35
00001000
00001000
00010000
00010000
,  // measure 36
00100000
00010000
00100000
00000000
10000000
00100000
10000000
00000000
,  // measure 37
00020000
00000000
00000000
00030000
,  // measure 38
00010000
10000000
01000000
00000000
00100000
00000000
00110000
00000000
,  // measure 39
00001000
00011000
00010000
00000100
,  // measure 40
00010000
00000010
00001000
00000000
00000001
00000000
00000101
00000000
,  // measure 41
00001000
00001100
00000010
00000100
,  // measure 42
00001000
00000001
00000100
00000000
00000010
00000000
00001010
00000000
,  // measure 43
00010000
00011000
00001000
01000000
,  // measure 44
00001000
00100000
00010000
00000000
10000000
00000000
01000000
00000000
,  // measure 45
01010000
00011000
00001100
00000000
,  // measure 46
00010000
00001000
00010000
00000000
00000100
00000000
00000010
00000000
,  // measure 47
00000001
00000010
00000001
00000000
00001000
00000000
00001001
00000000
,  // measure 48
00000001
00000100
00001000
00000000
00000100
00000000
00000100
00000000
,  // measure 49
00001000
00010000
00001000
00000000
00100000
00000000
00110000
00000000
,  // measure 50
00001000
00010000
00001000
00000000
00100000
00000000
01100000
00000000
,  // measure 51
10000000
00000000
11000000
00000000
00100000
01000000
10000000
00000000
,  // measure 52
00010000
01000000
00100000
00000000
00010000
00000000
00011000
00000000
,  // measure 53
00001000
00100000
00001000
00000000
00010000
00000000
00000200
00000000
,  // measure 54
00000300
00000000
00000000
00000000
;

//---------------dance-double - ----------------
#NOTES:
     dance-double:
     :
     Challenge:
     12:
     0.447807,0.516070,0.152910,0.105125,0.229364,328.000000,312.000000,16.000000,11.000000,0.000000,0.000000,0.447807,0.516070,0.152910,0.105125,0.229364,328.000000,312.000000,16.000000,11.000000,0.000000,0.000000:
00000000
00000000
00000000
00000000
,
00000000
00000000
00000000
00000000
,
00000000
00000000
00000000
00000000
,
00000000
00000000
00000000
00000000
,
00000000
00000000
00000000
00000000
,
10000000
00000000
01000000
00000000
00010000
00000000
00000000
00001000
00000000
00000000
00001000
00000000
00000100
00000000
00000000
00000010
,
00000000
00000010
00000100
00000010
00000001
00000010
00001000
00000100
,
00000010
00000000
00000001
00000000
00000010
00000000
00000000
00001000
00000000
00000000
00001000
00000000
00010000
00000000
00001000
00000000
,
00010000
00100000
10000000
01000000
00020000
00000000
00031000
00000000
,
00010000
00000000
01000000
00000000
10000000
00000000
00000000
00010000
00000000
00000000
00010000
00000000
01000000
00000000
00000000
00100000
,
00000000
00100000
10000000
01000000
00100000
00010000
00100000
00001000
,
00010000
00000010
00001000
00000100
00000001
00000100
00001000
00000010
,
00020000
00000000
00000000
00000000
,
00032000
00000000
00000000
00013000
,
00011000
00020000
00001000
00000000
00100000
00000000
00100000
00000000
,
01000000
00000000
01000000
00000000
00031000
00010000
00100000
00010000
,
00001000
00000020
00000100
00000000
00000001
00000000
00000001
00000000
,
00001000
00000000
00001000
00000000
00000031
00001000
00000010
00000010
,
00000100
00002000
00010000
00000000
00000010
00000000
00000010
00000000
,
00000100
00000000
00000100
00000000
00013000
00001000
00000010
00001000
,
00010000
00200000
01000000
00000000
10000000
00000000
10300000
00000000
,
11000000
01010000
00011000
00001100
,
00000001
00000100
00000000
00000100
00000000
00000000
00000010
00001000
00000000
00000100
00001000
00000000
00000001
00000000
00000010
00000000
,
00000100
00001000
00000000
00001000
00000000
00000000
00000100
00010000
00000000
00001000
00010000
00000000
00001000
00000000
01000000
00000000
,
00100000
10000000
00000000
00100000
00000000
00000000
01000000
00010000
00000000
01000000
00100000
00000000
01000000
00000000
00001000
00000000
,
00010000
00001000
00000000
00010000
00001000
00000000
00100000
00010000
00000000
00100000
00010000
00000000
10000000
00000000
00010000
00000000
,
01000000
00000000
00100000
00000000
10000000
00000000
00010000
00100000
00000000
00000000
00100000
00000000
01000000
00000000
10000000
00000000
,
01000000
00000000
00010000
00000000
00001000
00000000
00000000
00010000
00000000
00010000
00100000
00000000
00010000
00000000
00001000
00000000
,
00000010
00000000
00000001
00000000
00000010
00000000
00000000
00000100
00000000
00010000
00001000
00000000
00010000
00000000
00001000
00000000
,
00000100
00000000
00001000
00000000
00000100
00000000
00001000
00000000
00010000
00000000
01000000
00000000
00100000
00000000
00010000
10000000
,
00020000
01000000
00000000
00100000
,
00000000
10000000
00000000
00001000
,
00032000
00000010
00000000
00000100
,
00000000
00000001
00000000
00010000
,
00003010
00000010
00010000
00010000
,
00001000
00000000
00001000
00000000
00100000
00010000
00100000
00000000
,
00001000
01000000
10000000
01000000
00010000
00100000
10000000
00100000
,
00002000
00010000
00000100
01003000
,
00001000
00010000
00011000
00000000
00100000
00010000
00110000
00000000
,
10000000
00100000
10100000
00000000
01000000
00010000
10000000
01000000
,
00100000
01000000
10000000
00000000
00100000
01000000
01100000
00000000
,
00001000
00010000
00011000
00000000
00010000
00000100
00001000
00000010
,
00000100
00000001
00001000
00000000
00000001
00000010
00000011
00000000
,
00001000
00010000
00011000
00000000
00001000
01000000
00010000
00100000
,
01000000
10000000
00010000
00000000
10000000
00010000
01000000
00000000
,
00110000
00011000
00001010
00000110
,
00000001
00000010
00000000
00000010
00000000
00000000
00000100
00001000
00000000
00000010
00001000
00000000
00000001
00000000
00000100
00000000
,
00000010
00001000
00000000
00001000
00000000
00000000
00000010
00010000
00000000
00001000
00010000
00000000
00001000
00000000
00100000
00000000
,
01000000
10000000
00000000
01000000
00000000
00000000
00100000
00010000
00000000
00100000
01000000
00000000
00100000
00000000
00001000
00000000
,
00010000
00001000
00000000
00010000
00001000
00000000
01000000
00010000
00000000
01000000
00010000
00000000
10000000
00000000
00010000
00000000
,
00100000
00000000
01000000
00000000
10000000
00000000
00010000
01000000
00000000
00000000
01000000
00000000
00100000
00000000
10000000
00000000
,
00100000
00000000
00010000
00000000
00001000
00000000
00000000
00010000
00000000
00010000
01000000
00000000
00010000
00000000
00001000
00000000
,
00000100
00000000
00000001
00000000
00000100
00000000
00000000
00000010
00000000
00010000
00001000
00000000
00010000
00000000
00001000
00000000
,
00000010
00001000
00000010
00001000
00010000
00100000
00020000
00000000
,
00030000
00000000
00000000
00000000
;

//---------------dance-double - ----------------
#NOTES:
     dance-double:
     :
     Hard:
     9:
     0.368621,0.387052,0.162466,0.105125,0.000000,270.000000,253.000000,17.000000,11.000000,0.000000,0.000000,0.368621,0.387052,0.162466,0.105125,0.000000,270.000000,253.000000,17.000000,11.000000,0.000000,0.000000:
// measure 0
00000000
00000000
00000000
00000000
,  // measure 1
00000000
00000000
00000000
00000000
,  // measure 2
00000000
00000000
00000000
00000000
,  // measure 3
00000000
00000000
00000000
00000000
,  // measure 4
00000000
00000000
00000000
00000000
,  // measure 5
10000000
00100000
00010000
00000000
00100000
00010000
00001000
00000000
,  // measure 6
00010000
00001000
00000010
00000000
00001000
00000010
00000001
00001000
,  // measure 7
00000001
00000100
00001000
00000000
00000100
00001000
00010000
00000000
,  // measure 8
00001000
00010000
01000000
00200000
00010000
00000000
00301000
00000000
,  // measure 9
00010000
00100000
01000000
00100000
00010000
00000000
00001000
00010000
,  // measure 10
00001000
00000000
00001000
00000000
00010000
00000010
00001000
00000100
,  // measure 11
00000010
00000100
00000010
00000100
00000010
00000100
00000010
00000100
,  // measure 12
00002000
00000000
00000000
00000000
,  // measure 13
00003002
00000000
00000000
00000103
,  // measure 14
00001100
00010000
00002000
00000000
00000010
00000000
00000010
00000000
,  // measure 15
00100000
00000000
00100000
00000000
00013000
00001000
00000100
00000000
,  // measure 16
00000100
00001000
00020000
00000000
01000000
00000000
01000000
00000000
,  // measure 17
00000100
00000000
00000100
00000000
00031000
00010000
00100000
00000000
,  // measure 18
01000000
00001000
00020000
00000000
00100000
00000000
00100000
00000000
,  // measure 19
00000010
00000000
00000010
00000000
00031000
00010000
01000000
00000000
,  // measure 20
01000000
00010000
00002000
00000000
00000100
00000000
00003100
00000000
,  // measure 21
00000110
00000001
00000110
00001000
,  // measure 22
00000100
00000010
00000001
00000000
00000010
00000100
00001000
00000100
,  // measure 23
00010000
00001000
00010000
00000000
00000010
00001000
00000010
00000000
,  // measure 24
00010000
00000100
00010000
00000000
00001000
01000000
00001000
00001000
,  // measure 25
00100000
00010000
00100000
00000000
01000000
10000000
01000000
00000000
,  // measure 26
10000000
00100000
00010000
00000000
00001000
00000000
00011000
00000000
,  // measure 27
00001000
00000010
00000001
00000000
00000010
00000001
00001000
00000000
,  // measure 28
00000001
00000100
00001000
00000000
00010000
00000000
00011000
00000000
,  // measure 29
00010000
01000000
00100000
01000000
00010000
00001000
00010000
00000000
,  // measure 30
00002000
00100000
00000000
00010000
,  // measure 31
00000000
00100000
00000000
00010000
,  // measure 32
00023000
00000100
00000000
00001000
,  // measure 33
00000000
00000100
00000000
00031000
,  // measure 34
00010000
00010000
00000010
00000010
,  // measure 35
00100000
00100000
00001000
00001000
,  // measure 36
00100000
00010000
01000000
00001000
00010000
00000100
00001000
00000010
,  // measure 37
00020000
00000000
00000000
00130000
,  // measure 38
10100000
00010000
00100000
00000000
00001000
00000000
00011000
00000000
,  // measure 39
00100000
00000000
00110000
00000000
01000000
10000000
00010000
00000000
,  // measure 40
00100000
01000000
10000000
00000000
01000000
00000000
01010000
00000000
,  // measure 41
00001000
00000000
00011000
00000000
00100000
00010000
01000000
00000000
,  // measure 42
00001000
00010000
00000100
00000000
00010000
00000000
00011000
00000000
,  // measure 43
00000010
00000000
00001010
00000000
00000100
00000001
00001000
00000000
,  // measure 44
00000100
00000010
00000001
00000000
00000010
00000000
00001000
00000000
,  // measure 45
00011000
00110000
10100000
00010000
,  // measure 46
00100000
01000000
10000000
00000000
01000000
00100000
00010000
00100000
,  // measure 47
00001000
00010000
00001000
00000000
01000000
00010000
01000000
00000000
,  // measure 48
00001000
00100000
00001000
00000000
00010000
00000010
00010000
00010000
,  // measure 49
00000100
00001000
00000100
00000000
00000010
00000001
00000010
00000000
,  // measure 50
00000001
00000100
00001000
00000000
00010000
00000000
00011000
00000000
,  // measure 51
00010000
01000000
10000000
00000000
01000000
10000000
00010000
00000000
,  // measure 52
10000000
00100000
00010000
00000000
00001000
00000000
00011000
00000000
,  // measure 53
00001000
00000010
00000100
00000010
00001000
00010000
00002000
00000000
,  // measure 54
00003000
00000000
00000000
00000000
;

//---------------dance-single - ----------------
#NOTES:
     dance-single:
     :
     Challenge:
     12:
     0.460094,0.516070,0.152910,0.191137,0.210251,337.000000,321.000000,16.000000,20.000000,0.000000,0.000000,0.460094,0.516070,0.152910,0.191137,0.210251,337.000000,321.000000,16.000000,20.000000,0.000000,0.000000:
0000
0000
0000
0000
,
0000
0000
0000
0000
,
0000
0000
0000
0000
,
0000
0000
0000
0000
,
0000
0000
0000
0000
,
1000
0000
0100
0000
0001
0000
0000
0100
0000
0000
0100
0000
0010
0000
0000
0100
,
0000
0100
1000
0001
0100
0001
0100
0010
,
1000
0000
0001
0000
0010
0000
0000
0001
0000
0000
0001
0000
1000
0000
0100
0000
,
1000
0010
0100
0010
2000
0000
3001
0000
,
1000
0000
0100
0000
0010
0000
0000
0001
0000
0000
0001
0000
0100
0000
0000
0010
,
0000
0010
1000
0100
0001
0100
1000
0001
,
0010
0100
0010
0001
0100
0010
0001
0010
,
0200
0000
0000
0000
,
0320
0000
0000
1030
,
1001
0200
0010
0300
1000
0200
0010
0300
,
0001
0200
0010
0300
1000
0100
0001
0100
,
1000
0020
0100
0030
0001
0020
0100
0030
,
1000
0020
0100
0030
0001
0010
1000
0010
,
0100
2000
0010
3000
0010
2000
0100
3000
,
0100
2000
0001
3000
0100
0010
1000
0010
,
0100
0002
0010
0003
0010
0002
0100
0003
,
0011
1010
0101
1100
,
0001
0010
0000
0010
0000
0000
0100
1000
0000
0100
0010
0000
0001
0000
1000
0000
,
0010
0100
0000
0100
0000
0000
0010
1000
0000
0010
1000
0000
0100
0000
0010
0000
,
0001
1000
0000
1000
0000
0000
0001
0100
0000
0100
0001
0000
1000
0000
0100
0000
,
0010
0001
0000
0001
0010
0000
0100
1000
0000
1000
0100
0000
1000
0000
0001
0000
,
0010
0000
0100
0000
1000
0000
1000
0010
0000
0000
1000
0000
0001
0000
0100
0000
,
0010
0000
1000
0000
0100
0000
1000
0100
0000
0000
0010
0000
0001
0000
1000
0000
,
0010
0000
0001
0000
0010
0000
0010
0100
0000
0000
0001
0000
1000
0000
0100
0000
,
0010
0000
0010
0000
0100
0000
0100
0000
0010
0000
0001
0000
1000
0000
0001
1000
,
0002
0100
0000
0010
,
0000
0000
0103
0000
0001
1000
0001
0000
,
2000
0100
0000
0010
,
0000
0100
0002
3003
,
0010
0000
0010
0000
0001
0000
0001
1000
,
0010
0000
0010
0000
0100
0001
1000
0000
,
0001
0010
1000
0010
0001
0100
1000
0100
,
0002
1000
2000
3003
,
1100
0100
0001
0000
1000
0010
0011
0000
,
0010
0100
1100
0000
0001
0010
0100
1000
,
0010
1000
0100
0000
0010
0001
0101
0000
,
0001
1000
1010
0000
0100
0001
1000
0010
,
0100
0001
0010
0000
0100
1000
1010
0000
,
1000
0001
0101
0000
0010
1000
0001
0100
,
0001
0010
1000
0000
0001
0100
1000
0000
,
1100
0101
1010
0011
,
1000
0100
0000
0100
0000
0000
0010
0001
0000
0010
0100
0000
1000
0000
0001
0000
,
0100
0010
0000
0010
0000
0000
0100
0001
0000
0100
0001
0000
0010
0000
0100
0000
,
1000
0001
0000
0001
0000
0000
1000
0010
0000
0010
1000
0000
0001
0000
0010
0000
,
0100
1000
0000
1000
0100
0000
0010
0001
0000
0001
0010
0000
0001
0000
1000
0000
,
0100
0000
0010
0000
0001
0000
0001
0100
0000
0000
0001
0000
1000
0000
0010
0000
,
0100
0000
0001
0000
0010
0000
0001
0010
0000
0000
0100
0000
1000
0000
0001
0000
,
0100
0000
1000
0000
0100
0000
0100
0010
0000
0000
1000
0000
0001
0000
0010
0000
,
0100
0100
0010
0010
0100
1000
0002
0000
,
0003
0000
0000
0000
;
