#TITLE:Fancy;
#SUBTITLE:(Dabin & Apashe Remix);
#ARTIST:Iggy Azalea feat. Charli XCX;
#TITLETRANSLIT:;
#SUBTITLETRANSLIT:;
#ARTISTTRANSLIT:;
#GENRE:Popular Songs;
#CREDIT:;
#BANNER:Fancy (Dabin & Apashe Remix).png;
#BACKGROUND:Fancy (Dabin & Apashe Remix)-bg.png;
#LYRICSPATH:;
#CDTITLE:../cdtitle.png;
#MUSIC:Fancy (Dabin & Apashe Remix).ogg;
#OFFSET:1.302000;
#SAMPLESTART:45.573002;
#SAMPLELENGTH:15.000000;
#LASTBEATHINT:0.644267;
#SELECTABLE:YES;
#BPMS:0.000000=128.000000
;
#STOPS:
;
#BGCHANGES:-99.000=../bg.avi=1.000=0=0=1=====,
99999=-nosongbg-=1.000=0=0=0 // don't automatically add -songbackground-
;
#KEYSOUNDS:;
#ATTACKS:;

//---------------dance-single - ----------------
#NOTES:
     dance-single:
     :
     Beginner:
     1:
     0.066532,0.106243,0.019405,0.048513,0.000000,48.000000,46.000000,2.000000,5.000000,0.000000,0.000000,0.066532,0.106243,0.019405,0.048513,0.000000,48.000000,46.000000,2.000000,5.000000,0.000000,0.000000:
0000
0000
0000
0000
,
0000
0000
0000
0000
,
0000
0000
0000
0000
,
0000
0000
0000
0000
,
0000
0000
0000
0000
,
0100
0000
0000
0000
,
0100
0000
0000
0000
,
0010
0000
0000
0000
,
0010
0000
0000
0000
,
2000
0000
0000
0000
,
3000
0000
0000
0000
,
0002
0000
0000
0000
,
0003
0000
0000
0000
,
0020
0000
0000
0000
,
0030
0000
0000
0000
,
0200
0000
0000
0000
,
0300
0000
0000
0000
,
1000
0000
0000
0000
,
1000
0000
0000
0000
,
0001
0000
0000
0000
,
0001
0000
0000
0000
,
0100
0000
0000
0000
,
0010
0000
0000
0000
,
0100
0000
0000
0000
,
0010
0000
0000
0000
,
1001
0000
0000
0000
,
0001
0000
0000
0000
,
0100
0000
0000
0000
,
0010
0000
0000
0000
,
1001
0000
0000
0000
,
1000
0000
0000
0000
,
0010
0000
0000
0000
,
0100
0000
0000
0000
,
0001
0000
0000
0000
,
0001
0000
0000
0000
,
0010
0000
0000
0000
,
0100
0000
0000
0000
,
1000
0000
0000
0000
,
1000
0000
0000
0000
,
0010
0000
0000
0000
,
0100
0000
0000
0000
,
0001
0000
0000
0000
,
0001
0000
0000
0000
,
1000
0000
0000
0000
,
1000
0000
0000
0000
,
0100
0000
0000
0000
,
0100
0000
0000
0000
,
0010
0000
0000
0000
,
0010
0000
0000
0000
,
0001
0000
0000
0000
,
0001
0000
0000
0000
,
1000
0000
0000
0000
,
1000
0000
0000
0000
,
0001
0000
0000
0000
,
2000
0000
0000
3000
;

//---------------dance-single - ----------------
#NOTES:
     dance-single:
     :
     Easy:
     6:
     0.270285,0.318728,0.213455,0.271671,0.000000,195.000000,173.000000,22.000000,28.000000,0.000000,0.000000,0.270285,0.318728,0.213455,0.271671,0.000000,195.000000,173.000000,22.000000,28.000000,0.000000,0.000000:
0000
0000
0000
0000
,
0000
0000
0000
0000
,
0000
0000
0000
0000
,
0000
0000
0000
0000
,
0000
0000
0000
0000
,
0001
1000
0001
0011
,
0100
1000
0010
0100
,
0001
0100
0010
1001
,
0010
0001
0100
0010
,
2000
0000
0000
0000
,
3002
0000
0000
0000
,
0023
0000
0000
0000
,
0230
0000
0000
0000
,
2300
0000
0000
0000
,
3002
0000
0000
0000
,
0203
0000
0000
0000
,
0320
0000
0000
0000
,
1030
1000
0001
0001
,
0010
0010
0100
0100
,
1000
1000
0001
0001
,
0100
0100
0010
0010
,
0100
1001
0010
1001
,
0100
0010
1000
0001
,
0010
1001
0100
1001
,
0220
0000
0000
0330
,
1001
0100
0010
0001
,
1001
0100
0010
1000
,
0200
0310
0002
0103
,
0020
0001
0100
1030
,
1001
0010
0100
1000
,
1001
0010
0100
0001
,
0020
0130
2000
3010
,
0200
1000
0010
0301
,
1001
0010
0100
0001
,
1001
0010
0100
1000
,
0020
0130
0002
0013
,
0200
0001
0010
1300
,
1001
0100
0010
1000
,
1001
0100
0010
0001
,
0200
0310
2000
3100
,
0020
1000
0100
0031
,
1000
0001
1000
1100
,
0010
0001
0100
0010
,
1000
0010
0100
1001
,
0100
1000
0010
0100
,
0001
1000
0001
0011
,
0100
1000
0010
0100
,
0001
0100
0010
1001
,
0010
0001
0100
0010
,
2000
3100
0002
0013
,
1000
0010
0100
1001
,
0002
0013
2000
3100
,
0001
0100
0010
1001
,
2000
3100
0002
0103
,
0010
1000
0001
1001
;

//---------------dance-single - ----------------
#NOTES:
     dance-single:
     :
     Hard:
     12:
     0.519778,0.584334,0.475424,0.155240,0.164943,375.000000,326.000000,49.000000,16.000000,0.000000,0.000000,0.519778,0.584334,0.475424,0.155240,0.164943,375.000000,326.000000,49.000000,16.000000,0.000000,0.000000:
// measure 0
0000
0000
0000
0000
,  // measure 1
0000
0000
0000
0000
,  // measure 2
0000
0000
0000
0000
,  // measure 3
0000
0000
0000
0000
,  // measure 4
0000
0000
0000
0000
,  // measure 5
0010
0000
1001
0100
0010
1000
0100
0000
,  // measure 6
0010
1000
0010
0001
1000
0010
0001
0010
,  // measure 7
0100
0000
1001
0010
0100
1000
0010
0000
,  // measure 8
0100
1000
0100
0001
1000
0100
0001
0100
,  // measure 9
2000
0000
0000
0000
,  // measure 10
3020
0000
0230
0000
,  // measure 11
0302
0000
0000
0000
,  // measure 12
0023
0000
0000
0230
0000
0000
2300
0000
0002
0000
0000
0000
3003
0000
0000
0000
,  // measure 13
0201
0000
0000
0000
,  // measure 14
2300
0000
3002
0000
,  // measure 15
0023
0000
0000
0000
,  // measure 16
2030
0000
0000
3200
0000
0000
0320
0000
0002
0000
0000
0000
0033
0000
0000
0000
,  // measure 17
1001
0000
0001
0100
1000
0100
0001
0000
,  // measure 18
1000
0100
0001
1000
0010
0001
1000
0000
,  // measure 19
1001
0000
1000
0010
0001
0010
1000
0000
,  // measure 20
0001
0010
1000
0001
0100
1000
0001
1000
,  // measure 21
1010
0000
0101
0000
1000
0100
0011
0000
,  // measure 22
0010
1000
0010
0001
0100
0010
1000
0000
,  // measure 23
1100
0000
0011
0000
1000
0010
0101
0000
,  // measure 24
0100
1000
0100
0001
0010
0100
1000
0001
,  // measure 25
1001
0000
0000
0000
0011
0000
0000
0000
0100
0000
1000
0001
1000
0000
0001
0000
,  // measure 26
0101
0000
0110
0000
1000
0001
0011
0100
,  // measure 27
1001
0000
0000
0000
1000
0000
0100
0000
0001
0000
0100
0010
0100
0000
0000
0000
,  // measure 28
1000
0000
0100
0000
0010
0001
0010
0001
1000
0000
0100
0000
0110
0000
0001
0000
,  // measure 29
1001
0000
0000
0000
1010
0000
0000
0000
0100
0000
0001
1000
0001
0000
1000
0000
,  // measure 30
1100
0000
0110
0000
0001
1000
1010
0100
,  // measure 31
1001
0000
0000
0000
0001
0000
0100
0000
1000
0000
0100
0010
0100
0000
0000
0000
,  // measure 32
0001
0100
0001
0000
1000
0010
1000
0000
0001
0000
0100
0000
0110
0000
1000
0000
,  // measure 33
1001
0000
0000
0000
0110
0000
0000
0000
0001
0000
1000
0010
1000
0000
0001
0000
,  // measure 34
0011
0000
0000
0000
0110
0000
0000
0000
1000
0000
0001
0100
0010
0000
1000
0000
,  // measure 35
1010
0000
0000
1000
0100
1000
0100
0000
0010
0000
0100
0000
1001
0000
0000
0000
,  // measure 36
0100
0000
0001
0000
0010
0000
0100
1000
0001
0000
0010
0000
0011
0000
1000
0000
,  // measure 37
1001
0000
0000
0000
0110
0000
0000
0000
1000
0000
0001
0010
0001
0000
1000
0000
,  // measure 38
1010
0000
0000
0000
0110
0000
0000
0000
0001
0000
1000
0100
0010
0000
0001
0000
,  // measure 39
0011
0000
0000
0000
0001
0100
0010
0000
0100
0000
0001
0010
0100
0000
1000
0000
,  // measure 40
0001
0000
1000
0000
0010
0000
0100
0001
1000
0000
0010
0000
1010
0000
0001
0000
,  // measure 41
0010
0000
1001
0100
0010
0001
0100
0000
,  // measure 42
0010
0000
0001
0000
0010
0000
1000
0010
1000
0000
0001
0010
0001
0000
0010
0000
,  // measure 43
0100
0000
1001
0010
0100
0001
0010
0000
,  // measure 44
0100
0000
0001
0000
0100
0000
1000
0100
1000
0000
0001
0100
0001
0000
0100
0000
,  // measure 45
0010
0000
0110
1000
0001
1000
0100
0000
,  // measure 46
0010
0000
0100
0000
1000
0000
0001
0100
0010
0000
1000
0001
0010
0000
0100
0000
,  // measure 47
0010
0000
0110
0001
1000
0001
0100
0010
,  // measure 48
0100
0000
0001
1000
0100
0000
0010
0001
1000
0000
0010
0000
0100
0000
0001
0000
,  // measure 49
0100
0110
0010
0110
,  // measure 50
0100
0000
0001
0000
1000
0000
0001
0010
0100
0000
0010
0100
1000
0000
0001
0000
,  // measure 51
0010
1001
0100
1001
,  // measure 52
0010
0000
1000
0000
0001
0000
1000
0100
0010
0000
0100
0010
0001
0000
1000
0000
,  // measure 53
0100
0000
0110
0000
0010
0000
0110
0001
,  // measure 54
0100
0000
0010
1000
0001
0000
0010
0100
1000
0000
0001
0000
1001
0000
0000
0000
;

//---------------dance-single - ----------------
#NOTES:
     dance-single:
     :
     Medium:
     8:
     0.349291,0.424970,0.426911,0.223158,0.000000,252.000000,208.000000,44.000000,23.000000,0.000000,0.000000,0.349291,0.424970,0.426911,0.223158,0.000000,252.000000,208.000000,44.000000,23.000000,0.000000,0.000000:
0000
0000
0000
0000
,
0000
0000
0000
0000
,
0000
0000
0000
0000
,
0000
0000
0000
0000
,
0000
0000
0000
0000
,
1000
1100
0001
0101
,
1000
0000
1100
0000
0001
0100
0010
0000
,
1000
1010
0001
0011
,
0002
0203
0320
1030
,
1002
0000
0000
0000
,
0023
0000
0230
0000
,
2300
0000
0000
0000
,
3020
0230
0020
0330
,
2001
0000
0000
0000
,
3200
0000
0320
0000
,
0032
0000
0000
0000
,
0203
0320
0200
0330
,
1000
0100
0001
0100
,
1000
0000
0010
0000
0100
0001
1000
0000
,
0001
0010
1000
0010
,
0001
0000
0100
0000
0010
1000
0001
0000
,
0010
1100
0010
0101
,
0010
0000
0001
0000
0100
0010
1000
0000
,
0100
0011
0100
1010
,
2002
0000
0000
3003
,
1100
0000
0101
0000
1000
0100
0010
0000
,
0011
0000
1010
0000
0001
0010
0100
0000
,
1001
0000
1000
0010
0001
0010
1000
0000
,
0001
0000
0010
0000
1000
0010
0001
0000
,
1100
0000
1010
0000
0010
0100
0001
0000
,
0101
0000
0011
0000
0010
0100
1000
0000
,
1001
0000
0001
0100
1000
0100
0001
0000
,
1000
0000
0100
0000
0001
0100
1000
0000
,
1010
0000
0011
0000
1000
0010
0100
0000
,
0101
0000
1100
0000
0001
0100
0010
0000
,
1001
0000
1000
0100
0001
0100
1000
0000
,
0001
0000
0100
0000
1000
0100
0001
0000
,
1010
0000
1100
0000
0100
0010
0001
0000
,
0011
0000
0101
0000
0100
0010
1000
0000
,
1001
0000
0001
0010
1000
0010
0001
0000
,
1000
0010
0001
0010
,
1000
1010
0001
0011
,
1000
0000
1010
0000
0001
0010
0100
0000
,
1000
1100
0001
0101
,
1000
0000
1100
0000
0001
0010
0100
0010
,
0001
0101
1000
1100
,
0001
0000
0101
0000
1000
0100
0010
0000
,
0001
0011
1000
1010
,
2000
3200
0320
0032
,
0103
0100
0010
0010
,
0100
0000
0010
0000
1000
0100
0001
0000
,
0100
0100
0010
0010
,
0100
0000
0010
0000
0001
0100
1000
0000
,
0100
0100
0010
0010
,
1000
0100
0010
1001
;

//---------------dance-double - ----------------
#NOTES:
     dance-double:
     :
     Easy:
     6:
     0.267512,0.318728,0.213455,0.291076,0.000000,193.000000,171.000000,22.000000,30.000000,0.000000,0.000000,0.267512,0.318728,0.213455,0.291076,0.000000,193.000000,171.000000,22.000000,30.000000,0.000000,0.000000:
00000000
00000000
00000000
00000000
,
00000000
00000000
00000000
00000000
,
00000000
00000000
00000000
00000000
,
00000000
00000000
00000000
00000000
,
00000000
00000000
00000000
00000000
,
00010000
01000000
00100000
10010000
,
10000000
01000000
00010000
00001000
,
00000100
00000010
00001000
00001001
,
00000001
00000010
00000100
00001000
,
00000002
00000000
00000000
00000000
,
00002003
00000000
00000000
00000000
,
00023000
00000000
00000000
00000000
,
20030000
00000000
00000000
00000000
,
30020000
00000000
00000000
00000000
,
00032000
00000000
00000000
00000000
,
00003002
00000000
00000000
00000000
,
00000023
00000000
00000000
00000000
,
00001030
00001000
00010000
00010000
,
00100000
10000000
02000000
03000000
,
00010000
00010000
00001000
00001000
,
00000100
00000001
00000020
00000030
,
00000100
00001001
00000010
00001001
,
00000100
00001000
00010000
01000000
,
00100000
10010000
01000000
10010000
,
02200000
00000000
00000000
03300000
,
10010000
01000000
00100000
00001000
,
00011000
00000010
00000100
00000001
,
00000002
00001003
00000200
00000310
,
00002000
00000010
00010000
01003000
,
01100000
00010000
10000000
01000000
,
00110000
00001000
00010000
00000010
,
00020000
00031000
00000020
00000031
,
00000200
00001000
00000010
00000301
,
00001001
00000010
00000100
00010000
,
00011000
01000000
00100000
10000000
,
20000000
30010000
00200000
01300000
,
00020000
01000000
00001000
00030010
,
00000110
00001000
00000001
00000010
,
00001100
00010000
00001000
01000000
,
00002000
00013000
02000000
13000000
,
00200000
00010000
01000000
10300000
,
00010000
00100000
01000000
10010000
,
10000000
00100000
00010000
00001000
,
00000010
00000100
00001000
00001001
,
00000001
00000100
00000010
00001000
,
00001000
00000100
00000010
00001001
,
00000001
00000100
00001000
00010000
,
01000000
00100000
00010000
10010000
,
10000000
00100000
01000000
00010000
,
20000000
31000000
00020000
01030000
,
10000000
00100000
00010000
00011000
,
00020000
00031000
00000020
00001030
,
00010000
00001000
00000100
00000110
,
00000002
00000013
00002000
00003010
,
00000001
00000100
00000010
00001001
;

//---------------dance-double - ----------------
#NOTES:
     dance-double:
     :
     Medium:
     8:
     0.352063,0.424970,0.417208,0.223158,0.000000,254.000000,211.000000,43.000000,23.000000,0.000000,0.000000,0.352063,0.424970,0.417208,0.223158,0.000000,254.000000,211.000000,43.000000,23.000000,0.000000,0.000000:
00000000
00000000
00000000
00000000
,
00000000
00000000
00000000
00000000
,
00000000
00000000
00000000
00000000
,
00000000
00000000
00000000
00000000
,
00000000
00000000
00000000
00000000
,
00100000
00110000
00001000
00011000
,
01000000
00000000
01010000
00000000
00001000
00010000
00000100
00001000
,
00000010
00001010
00010000
00011000
,
00000200
00000320
00000032
00000103
,
00002000
00000000
00000000
00000000
,
00023000
00000000
02030000
00000000
,
23000000
00000000
00000000
00000000
,
30200000
00320000
00002000
00033000
,
00021000
00000000
00000000
00000000
,
00032000
00000000
00003020
00000000
,
00000032
00000000
00000000
00000000
,
00000203
00002300
00020000
00033000
,
00001000
00010000
01000000
00010000
,
00001000
00000000
00010000
00000000
00100000
00010000
00001000
00000000
,
00010000
00001000
00000010
00001000
,
00010000
00000000
00001000
00000000
00000100
00001000
00010000
00000000
,
00000010
00011000
00100000
00011000
,
00000010
00000000
00000100
00000000
00000001
00000010
00001000
00000000
,
00010000
01100000
10000000
01100000
,
20020000
00000000
00000000
30030000
,
10100000
00000000
01010000
00000000
10000000
01000000
00010000
00000000
,
00011000
00000000
00001010
00000000
00000100
00000001
00000010
00000000
,
00000110
00000000
00001000
00000010
00000001
00000010
00001000
00000000
,
00000001
00000000
00000010
00000000
00000100
00001000
00000001
00000000
,
00000011
00000000
00001100
00000000
00000001
00000100
00001000
00000000
,
00011000
00000000
00110000
00000000
01000000
10000000
00100000
00000000
,
01100000
00000000
00010000
00100000
10000000
00100000
00010000
00000000
,
10000000
00000000
00100000
00000000
01000000
00010000
10000000
00000000
,
11000000
00000000
00110000
00000000
10000000
00100000
00010000
00000000
,
00011000
00000000
00001100
00000000
00000010
00000001
00000100
00000000
,
00000110
00000000
00001000
00000100
00000001
00000100
00001000
00000000
,
00000001
00000000
00000100
00000000
00000010
00001000
00000001
00000000
,
00000101
00000000
00001010
00000000
00000001
00000010
00001000
00000000
,
00011000
00000000
01010000
00000000
00100000
10000000
01000000
00000000
,
01100000
00000000
00010000
01000000
10000000
01000000
00010000
00000000
,
10000000
01000000
00100000
00010000
,
01000000
01010000
00001000
00011000
,
00100000
00000000
00110000
00000000
00001000
00010000
00000010
00001000
,
00000100
00001100
00010000
00011000
,
00000010
00000000
00001010
00000000
00010000
00001000
00100000
00010000
,
01000000
01010000
00001000
00011000
,
00100000
00000000
00110000
00000000
00001000
00010000
00000010
00001000
,
00000100
00001100
00010000
00011000
,
00000020
00000230
00000302
00000023
,
00000130
00000100
00000010
00000010
,
00000100
00000000
00000010
00000000
00000001
00000100
00001000
00000000
,
00010000
00010000
00001000
00001000
,
00010000
00000000
00001000
00000000
00010000
01000000
10000000
00000000
,
01000000
01000000
00100000
00100000
,
00010000
01000000
00100000
10010000
;

//---------------dance-double - ----------------
#NOTES:
     dance-double:
     :
     Hard:
     12:
     0.507303,0.584334,0.475424,0.155240,0.126133,366.000000,317.000000,49.000000,16.000000,0.000000,0.000000,0.507303,0.584334,0.475424,0.155240,0.126133,366.000000,317.000000,49.000000,16.000000,0.000000,0.000000:
00000000
00000000
00000000
00000000
,
00000000
00000000
00000000
00000000
,
00000000
00000000
00000000
00000000
,
00000000
00000000
00000000
00000000
,
00000000
00000000
00000000
00000000
,
00100000
00000000
00110000
00001000
00010000
00100000
10000000
00000000
,
01000000
00010000
00001000
00010000
00001000
00000100
00000001
00000010
,
00000100
00000000
00001100
00010000
00001000
00000100
00000001
00000000
,
00000010
00001000
00010000
00001000
00010000
00100000
10000000
01000000
,
00020000
00000000
00000000
00000000
,
00032000
00000000
00003200
00000000
,
00000302
00000000
00000000
00000000
,
00000023
00000000
00000000
00000230
00000000
00000000
00020300
00000000
00002000
00000000
00000000
00000000
00033000
00000000
00000000
00000000
,
02010000
00000000
00000000
00000000
,
03200000
00000000
20300000
00000000
,
32000000
00000000
00000000
00000000
,
03020000
00000000
00000000
00032000
00000000
00000000
00003200
00000000
00000020
00000000
00000000
00000000
00000330
00000000
00000000
00000000
,
00001001
00000000
00000001
00000010
00001000
00000010
00000001
00000000
,
00000100
00001000
00010000
00001000
00010000
01000000
10000000
00000000
,
10010000
00000000
10000000
00100000
00010000
00100000
10000000
00000000
,
01000000
00010000
00001000
00010000
00001000
00000100
00000001
00000100
,
00000101
00000000
00001010
00000000
00010000
00001000
00110000
00000000
,
10000000
00100000
00010000
00001000
00010000
01000000
10000000
00000000
,
11000000
00000000
00110000
00000000
00001000
00010000
00001010
00000000
,
00000001
00000010
00001000
00010000
00001000
00000100
00000001
00001000
,
00001001
00000000
00000000
00000000
00000110
00000000
00000000
00000000
00000001
00000000
00000100
00000010
00000100
00000000
00001000
00000000
,
00011000
00000000
01100000
00000000
10000000
00100000
01010000
00001000
,
00011000
00000000
00000000
00000000
00010000
00000000
01000000
00000000
10000000
00000000
01000000
00100000
01000000
00000000
00000000
00000000
,
00100000
00000000
00001000
00000000
00010000
00001000
00010000
00001000
00000100
00000000
00000010
00000000
00000110
00000000
00001000
00000000
,
00001001
00000000
00000000
00000000
00000110
00000000
00000000
00000000
00000001
00000000
00000100
00000010
00000100
00000000
00001000
00000000
,
00011000
00000000
01100000
00000000
10000000
00100000
01010000
00001000
,
00011000
00000000
00000000
00000000
00010000
00000000
01000000
00000000
10000000
00000000
01000000
00100000
01000000
00000000
00000000
00000000
,
00100000
00001000
00100000
00000000
00001000
00010000
00001000
00000000
00010000
00000000
00000010
00000000
00001010
00000000
00000001
00000000
,
00000011
00000000
00000000
00000000
00001100
00000000
00000000
00000000
00000001
00000000
00001000
00000010
00000100
00000000
00000001
00000000
,
00000101
00000000
00000000
00000000
00001001
00000000
00000000
00000000
00000010
00000000
00000100
00010000
00001000
00000000
00010000
00000000
,
00011000
00000000
00000000
00001000
01000000
00001000
01000000
00000000
00100000
00000000
01000000
00000000
10010000
00000000
00000000
00000000
,
00100000
00000000
00010000
00000000
01000000
00000000
00001000
00010000
00001000
00000000
00100000
00000000
00110000
00000000
10000000
00000000
,
10100000
00000000
00000000
00000000
01010000
00000000
00000000
00000000
10000000
00000000
00010000
00100000
01000000
00000000
10000000
00000000
,
11000000
00000000
00000000
00000000
10010000
00000000
00000000
00000000
00100000
00000000
01000000
00001000
00010000
00000000
00001000
00000000
,
00011000
00000000
00000000
00000000
00010000
00000100
00001000
00000000
00000100
00000000
00010000
00000010
00001000
00000000
00000010
00000000
,
00000100
00000000
00000001
00000000
00000010
00000000
00001000
00010000
00001000
00000000
00100000
00000000
00110000
00000000
00010000
00000000
,
01000000
00000000
01010000
00001000
00010000
01000000
10000000
00000000
,
00100000
00010000
00001000
00010000
00001000
00000010
00000001
00000100
,
00000010
00000000
00001010
00010000
00001000
00000010
00000001
00000000
,
00000100
00001000
00010000
00001000
00010000
01000000
10000000
00100000
,
00010000
00000000
00011000
00001000
00000010
00000100
00001000
00000000
,
00000001
00001000
00000010
00000100
00000001
00000010
00000100
00010000
,
00001000
00000000
00011000
00010000
00100000
01000000
00010000
00000000
,
10000000
00010000
00100000
01000000
10000000
00100000
01000000
00001000
,
00010000
00101000
00010000
01001000
,
00010000
00000000
00100000
00000000
00001000
00000000
00010000
00000010
00001000
00000000
00000001
00000010
00000100
00000000
00010000
00000000
,
00001000
00010010
00001000
00010100
,
00001000
00000000
00000010
00000000
00010000
00000000
00001000
00100000
00010000
00000000
10000000
00100000
01000000
00000000
00001000
00000000
,
00010000
00000000
00101000
00000000
00010000
00000000
01001000
00010000
,
00100000
00000000
00001000
00010000
00000010
00000000
00001000
00000001
00000010
00000000
00000100
00000000
00001001
00000000
00000000
00000000
;
