#VERSION:0.83;
#TITLE:Fairy of AKIBerse;
#SUBTITLE:;
#ARTIST:Pomu Rainpuff;
#TITLETRANSLIT:;
#SUBTITLETRANSLIT:;
#ARTISTTRANSLIT:;
#GENRE:にじさんじ;
#ORIGIN:;
#CREDIT:;
#BANNER:Fairy of AKIBerse.png;
#BACKGROUND:Fairy of AKIBerse-bg.png;
#PREVIEWVID:;
#JACKET:Fairy of AKIBerse-jacket.png;
#CDIMAGE:;
#DISCIMAGE:;
#LYRICSPATH:;
#CDTITLE:../cdtitle.png;
#MUSIC:Fairy of AKIBerse.ogg;
#OFFSET:-0.300000;
#SAMPLESTART:55.224998;
#SAMPLELENGTH:15.000000;
#SELECTABLE:YES;
#BPMS:0.000=201.000;
#STOPS:;
#DELAYS:;
#WARPS:;
#TIMESIGNATURES:0.000=4=4;
#TICKCOUNTS:0.000=4;
#COMBOS:0.000=1;
#SPEEDS:0.000=1.000=0.000=0;
#SCROLLS:0.000=1.000;
#FAKES:;
#LABELS:0.000=Song Start;
#BGCHANGES:-1.000=Fairy of AKIBerse.avi=1.000=0=0=0=StretchNoLoop====,
99999=-nosongbg-=1.000=0=0=0 // don't automatically add -songbackground-
;
#KEYSOUNDS:;
#ATTACKS:
;

//---------------dance-single - ----------------
#NOTEDATA:;
#CHARTNAME:;
#STEPSTYPE:dance-single;
#DESCRIPTION:;
#CHARTSTYLE:;
#DIFFICULTY:Beginner;
#METER:4;
#RADARVALUES:0.186741,0.360770,0.131659,0.122255,0.000000,139.000000,125.000000,14.000000,13.000000,0.000000,0.000000,0.000000,0.000000,0.000000,0.186741,0.360770,0.131659,0.122255,0.000000,139.000000,125.000000,14.000000,13.000000,0.000000,0.000000,0.000000,0.000000,0.000000;
#CREDIT:led_light;
#NOTES:
0000
0000
0000
0000
,
0000
0000
0000
0000
,
0000
0000
0000
0000
,
0000
0000
0000
0000
,
0000
0000
0000
0000
,
0000
0000
0000
0000
,
0000
0000
0000
0000
,
0000
0000
0000
0000
,
0000
0000
0000
0000
,
0010
0000
0010
0000
,
0010
0000
0000
0000
,
0100
0000
0100
0000
,
0100
0000
0000
0000
,
1000
0000
0100
0000
,
0010
0000
0000
0000
,
0100
0000
0010
0000
,
0002
0000
0000
0000
,
0000
0000
0000
0003
,
1001
0000
0000
0000
,
1000
0000
0000
0000
,
0110
0000
0000
0000
,
0010
0000
0000
0000
,
1001
0000
0000
0000
,
0001
0000
0000
0000
,
1000
0000
0001
0000
,
2000
0000
3000
0000
,
0010
0000
0100
0000
,
0010
0000
0010
0000
,
1000
0000
0100
0000
,
0010
0000
0001
0000
,
1000
0000
0001
0000
,
1000
0000
1000
0000
,
0010
0000
0100
0000
,
2002
0000
3003
0000
,
0000
0010
0010
0000
,
0100
0000
0000
0000
,
0000
1000
1000
0000
,
0001
0000
0000
0000
,
0000
1000
1000
0000
,
0010
0000
1000
0000
,
0100
0100
0100
0000
,
0010
0010
0010
0000
,
0002
0000
0003
0000
,
2000
0000
3000
0000
,
0220
0000
0000
0000
,
0330
0000
0000
0000
,
1000
0000
0001
0000
,
1000
0000
1000
0000
,
0010
0000
0100
0000
,
0010
0010
0010
0000
,
0001
0000
0001
0000
,
0010
0000
1000
0000
,
1001
0000
0110
0000
,
0010
0010
0010
0000
,
0001
0000
0010
0000
,
0001
0000
0001
0000
,
0100
0000
1000
0000
,
0100
0100
0100
0000
,
0001
0000
1000
0000
,
0100
0000
0100
0000
,
1001
0000
0110
0000
,
0100
0100
0100
0000
,
1001
0000
0000
0000
,
0010
0000
0100
0000
,
0110
0000
0000
0000
,
1000
0000
0001
0000
,
0100
0000
0100
0000
,
1000
0000
0100
0000
,
0001
0000
0020
0000
,
0000
0000
0030
0000
,
0220
0000
0000
0000
,
0330
0000
0000
0000
,
0100
0000
0010
0000
,
0000
0000
1001
0000
,
0100
0000
0010
0000
,
0001
0000
0001
0000
,
0010
0000
0100
0000
,
1000
0000
1000
0000
,
0001
0000
0100
0000
,
0001
0000
0001
0000
,
1000
0000
0100
0000
,
0020
0000
0030
0000
,
0200
0000
0000
0000
,
0000
0000
0300
0000
,
0010
0000
0000
0000
,
0000
1001
0000
0000
;

//---------------dance-single - ----------------
#NOTEDATA:;
#CHARTNAME:;
#STEPSTYPE:dance-single;
#DESCRIPTION:;
#CHARTSTYLE:;
#DIFFICULTY:Hard;
#METER:16;
#RADARVALUES:0.830260,0.962054,0.385574,0.216298,0.235106,618.000000,577.000000,41.000000,23.000000,0.000000,0.000000,0.000000,0.000000,0.000000,0.830260,0.962054,0.385574,0.216298,0.235106,618.000000,577.000000,41.000000,23.000000,0.000000,0.000000,0.000000,0.000000,0.000000;
#CREDIT:led_light;
#NOTES:
// measure 0
0000
0000
0000
0000
,  // measure 1
0000
0000
0000
0000
,  // measure 2
0000
0000
0000
0000
,  // measure 3
0000
0000
0000
0000
,  // measure 4
0000
0000
0000
0000
0000
0000
0010
0022
,  // measure 5
0000
0000
0000
0000
0033
0000
1000
2020
,  // measure 6
0000
0000
0000
0000
3030
0100
0001
2000
,  // measure 7
0000
3010
0100
0020
0000
1030
0100
2000
,  // measure 8
0000
0000
3001
0000
0010
0000
0100
1000
0001
0000
0100
0010
1000
0010
1000
0010
,  // measure 9
1000
0100
0010
0100
1000
0001
0010
0100
,  // measure 10
1000
1000
0001
0001
0100
0100
0010
1000
,  // measure 11
0001
0100
0001
1000
0100
0010
0100
0001
,  // measure 12
0100
0000
0010
0000
0001
0000
0100
0000
0010
0100
0010
0100
0001
1000
0001
0000
,  // measure 13
1000
0100
1000
0100
0001
1000
0001
0100
,  // measure 14
1000
0100
1000
0010
1000
0100
0010
0001
,  // measure 15
1000
1000
0100
1000
0000
0001
0100
0020
,  // measure 16
0000
0000
0130
0000
0001
0000
0010
0000
0100
0000
1000
0001
1000
0001
1000
0001
,  // measure 17
2000
0000
0000
3000
,  // measure 18
1001
0001
0000
0000
0000
0000
0000
0101
,  // measure 19
0000
0010
1000
0000
0100
0000
0000
0000
,  // measure 20
0110
0100
0000
0000
0000
0000
0000
1100
,  // measure 21
0000
0001
0100
0000
0010
0000
0000
0000
,  // measure 22
1001
0001
0000
0000
0000
0000
0000
0011
,  // measure 23
0000
0100
1000
0000
0001
0000
1000
0000
,  // measure 24
0010
0010
0100
0010
0000
0110
0000
1002
,  // measure 25
0000
0000
0013
0000
0100
0000
1000
0000
0100
0010
0100
0010
0001
0010
0100
1000
,  // measure 26
0001
0100
0001
0100
1000
0100
1000
0100
,  // measure 27
0001
0100
0010
1000
0001
0100
0010
0100
,  // measure 28
0001
0010
0001
0010
1000
0010
1000
0010
,  // measure 29
0001
0010
0100
1000
0001
0010
0100
0100
,  // measure 30
1000
0010
1000
0010
0001
0010
0001
0010
,  // measure 31
1000
0010
0100
0001
1000
0010
0100
0010
,  // measure 32
1000
0100
0010
0001
0000
0110
0000
2001
,  // measure 33
0000
0000
3010
0000
0100
0000
0001
0000
0100
0010
0100
0010
1000
0000
0001
0000
,  // measure 34
0100
0110
0120
1030
,  // measure 35
0001
0000
0100
0000
0001
0000
1000
0100
1000
0000
0100
0000
0010
0000
0001
0000
,  // measure 36
0010
1001
1002
0103
,  // measure 37
0010
0000
1000
0000
0010
0000
0100
0010
0100
0000
1000
0000
0100
0000
0001
0000
,  // measure 38
0010
0000
0110
0000
0120
0000
0031
2000
,  // measure 39
0000
0000
3100
0000
0010
0000
0001
0100
0001
0000
1000
0000
0010
0000
0000
0000
,  // measure 40
1000
0100
1000
0100
0001
0100
1000
0000
,  // measure 41
0001
0010
0001
0010
1000
0010
0001
0000
,  // measure 42
1000
0100
1000
0100
0001
1000
0001
1000
,  // measure 43
0010
0001
0010
0001
1000
0010
1000
0010
,  // measure 44
1000
0100
1000
0000
0001
0000
0100
0001
0100
0000
0010
0000
1000
0100
1000
0100
,  // measure 45
0010
0100
0220
0330
,  // measure 46
1000
0100
1000
0100
0010
0001
0100
0010
,  // measure 47
1000
0001
1000
0001
0100
0010
1000
0001
,  // measure 48
0010
0100
0010
0100
1000
0100
0010
0110
,  // measure 49
0000
0011
0000
1010
0000
0101
0000
0001
,  // measure 50
1000
0010
1000
0010
0100
0001
1000
0100
,  // measure 51
0001
0100
0001
0100
1000
0001
0100
1010
,  // measure 52
0000
1000
0100
0011
0000
0010
0100
1001
,  // measure 53
0000
0000
0001
0000
0100
0000
0010
0000
1000
0001
1000
0001
0010
0001
0010
0100
,  // measure 54
1000
0010
1000
0010
0100
0001
0010
0100
,  // measure 55
1000
0001
1000
0001
0010
0100
1000
0001
,  // measure 56
0100
0010
0100
0010
1000
0010
0100
0110
,  // measure 57
0000
0101
0000
1100
0000
2002
0000
3003
,  // measure 58
1000
0100
1000
0100
0010
0001
1000
0010
,  // measure 59
0001
0010
0001
0010
1000
0001
0010
1100
,  // measure 60
0000
1000
0010
0101
0000
0100
0010
1001
,  // measure 61
0000
0000
1000
0000
0010
0000
0100
0000
0001
0100
0010
1000
0100
0010
0100
0010
,  // measure 62
0100
0000
1000
0000
0001
0100
0001
0100
0001
0000
0110
0000
0000
0000
2010
0000
,  // measure 63
0000
3001
0100
0010
1000
0100
1000
0001
,  // measure 64
1000
0000
0100
0000
0010
0001
0010
0001
0010
0000
0110
0000
0000
0000
2100
0000
,  // measure 65
0000
3001
0100
0010
1000
0001
1000
0000
,  // measure 66
0100
0010
0100
0010
0001
0010
0001
1000
,  // measure 67
0100
1000
0100
1000
0010
1000
0010
0100
,  // measure 68
0001
1000
0001
1000
0100
1000
0100
1000
,  // measure 69
0010
0000
0100
0000
0010
0000
1000
0001
0100
0000
0001
1000
0100
0010
0100
0010
,  // measure 70
0002
0000
0000
0003
,  // measure 71
1000
0001
1000
0001
1000
0100
0010
0001
1000
0000
0000
0000
0000
0000
0000
0000
,  // measure 72
1100
0100
0010
0000
0101
0100
0010
0000
,  // measure 73
0110
0100
0010
0100
0010
0000
1001
0000
,  // measure 74
1000
0100
0010
0100
1000
0001
0010
0100
,  // measure 75
1000
1000
0001
0001
0100
0100
0010
1000
,  // measure 76
0001
0100
0001
1000
0100
0010
0100
0001
,  // measure 77
0100
0000
0010
0000
0001
0000
0100
0000
0010
0100
0010
0100
0001
1000
0001
0000
,  // measure 78
1000
0100
1000
0100
0001
1000
0001
0100
,  // measure 79
1000
0100
1000
0010
1000
0100
0010
0001
,  // measure 80
1000
1000
0100
1000
0000
0001
0100
0020
,  // measure 81
0000
0000
0130
0000
0001
0000
0010
0000
0100
0000
1000
0001
1000
0001
1000
0001
,  // measure 82
1000
1000
1000
0100
0100
0100
0010
0010
,  // measure 83
0010
0001
0001
0001
1000
0010
0100
0001
,  // measure 84
1000
0000
0010
0001
0000
0010
0000
1000
,  // measure 85
0000
0000
0100
1000
0001
0000
0000
0000
0000
0000
0000
0000
0000
0000
0000
0000
;

//---------------dance-single - ----------------
#NOTEDATA:;
#CHARTNAME:;
#STEPSTYPE:dance-single;
#DESCRIPTION:;
#CHARTSTYLE:;
#DIFFICULTY:Medium;
#METER:12;
#RADARVALUES:0.619336,0.641369,0.319744,0.329148,0.000000,461.000000,427.000000,34.000000,35.000000,0.000000,0.000000,0.000000,0.000000,0.000000,0.619336,0.641369,0.319744,0.329148,0.000000,461.000000,427.000000,34.000000,35.000000,0.000000,0.000000,0.000000,0.000000,0.000000;
#CREDIT:led_light;
#NOTES:
0000
0000
0000
0000
,
0000
0000
0000
0000
,
0000
0000
0000
0000
,
0000
0000
0000
0000
,
0000
0000
0000
0000
0000
0000
1000
0020
,
0000
0000
0000
0000
0030
0000
0100
0002
,
0000
0000
0000
0000
0003
1000
0100
0020
,
0000
0130
1000
0002
0000
0013
0100
2000
,
0000
3100
0010
0001
1000
0000
1001
0000
,
1000
0100
1000
0100
0010
0001
1000
0200
,
0000
0310
0100
1000
0010
0100
0010
1000
,
0001
0100
0001
0000
0100
0010
1000
0200
,
0000
0310
0100
1000
0001
0000
1001
0000
,
0001
0100
0001
0100
1000
0100
0010
0200
,
0000
0301
0010
0100
0010
0000
0120
0030
,
1000
0010
0001
1000
0000
0010
0100
0020
,
0000
0130
0001
0010
0100
1000
0100
1000
,
0002
0000
0000
0003
,
1000
0100
0000
0000
0000
0000
0000
0110
,
0000
0001
1000
0000
0000
0000
0000
0000
,
0010
1000
0000
0000
0000
0000
0000
1001
,
0000
0100
0010
0000
0000
0000
0000
0000
,
0001
0010
0000
0000
0000
0000
0000
0110
,
0000
1000
0001
0000
1000
0000
0100
0000
,
1000
0010
1000
0010
0000
0110
0000
2001
,
0000
0000
3010
0000
0100
0001
1000
0000
,
0001
0100
0001
0000
0010
0100
1000
0001
,
0000
1000
0100
0000
0010
0001
1000
0000
,
0001
0100
0001
0000
1000
0010
0100
0001
,
0000
0100
0010
0000
1000
0001
1000
0000
,
0100
1000
0100
0000
0010
0001
0100
0010
,
0000
0100
0001
0000
0100
0010
1000
0000
,
0001
0010
0001
0010
0000
0110
0000
1002
,
0000
0000
0103
0000
0010
1000
0001
0000
,
0100
0110
0220
0330
,
0100
0001
0010
0001
0000
1000
0100
0000
,
1000
1001
2002
3003
,
1000
0010
0100
0010
0000
0100
0001
0000
,
0010
0000
0110
0000
0110
0000
0001
2000
,
0000
3100
1000
0000
0100
0010
0001
0000
,
1000
0100
1000
0100
0010
0100
0010
0000
,
0001
0100
0001
0100
0010
0100
0010
0000
,
0200
1000
0010
0301
,
0020
1000
0100
0031
,
0100
0000
0010
0100
0000
0100
0010
0000
,
1001
0000
0000
0000
,
0001
0100
0001
0100
0010
0100
0001
0000
,
1000
0010
1000
0010
0100
0010
1000
0000
,
0001
0010
0001
0010
1000
0010
0001
1000
,
0000
1100
0000
0010
0000
0110
0000
0001
,
1000
0100
1000
0100
0001
0100
0010
0200
,
0000
1300
0001
0100
0000
0010
1000
0010
,
0000
0100
1000
0100
0000
0001
0100
0002
,
0000
0013
0100
1000
0001
0000
1001
0000
,
0001
0010
0001
0010
0100
0010
0001
0000
,
1000
0100
1000
0100
0010
0100
1000
0000
,
0001
0100
0001
0100
1000
0100
0001
1000
,
0000
1010
0000
0100
0000
0220
0000
0330
,
0001
0000
1000
0000
0010
0100
0001
0000
,
0010
0100
1000
0001
0000
1000
0100
1000
,
0000
0100
0010
0100
0000
0010
0001
0020
,
0000
0031
0100
0010
1000
0000
1001
0000
,
1000
0100
1000
0100
1000
0100
0000
0120
,
0000
0000
0031
0000
0100
0010
1000
0000
,
0001
0100
0001
0100
0001
0100
0000
0120
,
0000
0000
1030
0000
0100
0010
0001
0000
,
0100
0101
0100
1100
,
0010
1010
0010
0011
,
1000
0000
0001
0100
0002
0000
0100
0000
,
1003
0100
1000
0000
0100
0010
0001
0000
,
0220
0000
0000
0330
,
0001
0010
0100
1000
0001
0000
0000
0000
,
0100
0100
0000
0000
0010
0010
0000
0000
,
0000
0100
0010
0100
0010
0000
1001
0000
,
1000
0100
1000
0100
0010
0001
1000
0200
,
0000
0310
0100
1000
0010
0100
0010
1000
,
0001
0100
0001
0000
0100
0010
1000
0200
,
0000
0310
0100
1000
0001
0000
1001
0000
,
0001
0100
0001
0100
1000
0100
0010
0200
,
0000
0301
0010
0100
0010
0000
0120
0030
,
1000
0010
0001
1000
0000
0010
0100
0020
,
0000
0130
0001
0010
0100
1000
0100
1000
,
0001
0000
1000
0100
0000
0100
0001
0000
,
0001
0010
0000
0010
1000
0000
0100
0000
,
0010
0000
0100
0010
0000
0100
0000
0010
,
0000
1001
0000
0000
;

//---------------dance-single - ----------------
#NOTEDATA:;
#CHARTNAME:;
#STEPSTYPE:dance-single;
#DESCRIPTION:;
#CHARTSTYLE:;
#DIFFICULTY:Easy;
#METER:8;
#RADARVALUES:0.373483,0.440941,0.197489,0.244510,0.000000,278.000000,257.000000,21.000000,26.000000,0.000000,0.000000,0.000000,0.000000,0.000000,0.373483,0.440941,0.197489,0.244510,0.000000,278.000000,257.000000,21.000000,26.000000,0.000000,0.000000,0.000000,0.000000,0.000000;
#CREDIT:led_light;
#NOTES:
0000
0000
0000
0000
,
0000
0000
0000
0000
,
0000
0000
0000
0000
,
0000
0000
0000
0000
,
0000
0000
0000
0000
0000
0000
0000
2000
,
0000
0000
0000
0000
0000
3000
0000
0002
,
0000
0000
0000
0000
0000
0003
0000
0120
,
0000
0130
1000
0001
,
0100
0010
0100
0000
0020
0000
0030
0000
,
1000
1000
1000
1000
,
0100
0100
0001
0100
,
1000
1000
0001
0001
,
1000
0000
0001
0000
0010
0100
1000
0000
,
0001
0001
1000
0001
,
0100
1000
0100
0001
,
1000
0000
0100
0010
0000
0001
0000
2000
,
0000
3000
0001
2000
,
0002
0000
0000
3003
,
1001
0000
0000
0000
0000
0000
0000
0100
,
0000
0001
0000
0000
0000
0000
0000
0000
,
0110
0000
0000
0000
0000
0000
0000
1000
,
0000
0100
0000
0000
0000
0000
0000
0000
,
1001
0000
0000
0000
0000
0000
0000
0010
,
0000
1000
0000
0000
0000
0000
0001
0000
,
0100
0000
0010
0100
0000
0001
0000
2000
,
0000
0100
0200
3300
,
1000
0100
0001
0100
,
1000
0100
0001
0000
,
0100
1000
0010
1000
,
0100
1000
0010
0000
,
1000
0010
0001
0010
,
1000
0010
0001
0000
,
0010
0000
0100
0010
0000
1000
0000
0002
,
0000
0010
0020
0033
,
0100
1100
2000
3000
,
0001
0010
0100
0000
,
0010
0011
0002
0003
,
1000
0100
0020
0030
,
0001
0110
2000
3000
,
0002
0003
0010
0100
,
1000
0100
1000
0000
0001
0000
0010
0000
,
0001
0100
0001
0000
1000
0000
0010
0000
,
0200
0010
0010
0310
,
2000
0001
0001
3001
,
0010
0000
0000
0001
0000
0000
0100
0000
,
0110
0000
0000
0000
,
0001
0010
0001
0010
,
1000
0010
1000
0010
,
0001
0010
1000
0010
,
0001
1000
1100
0000
,
0001
0100
0001
0100
,
1000
0100
0001
1000
,
1001
0000
0110
0000
,
0001
0010
0100
0000
,
1000
0010
1000
0010
,
0001
0010
0001
0010
,
1000
0010
0001
0010
,
1000
0001
0101
0000
,
1000
0100
1000
0100
,
0001
0100
1000
0001
,
1001
0000
0110
0000
,
1000
0010
0100
0000
,
0101
0000
0000
0000
0000
1000
0000
0200
,
0000
0010
0310
0000
,
1100
0000
0000
0000
0000
0001
0000
0200
,
0000
0010
0310
1000
,
0001
0100
0010
0100
,
0001
0010
0100
0010
,
0001
1000
0020
0000
,
1030
0100
0001
0100
,
0220
0000
0000
0330
,
2000
0001
3001
0000
,
0101
0000
1100
0000
,
0000
0010
1001
0000
,
0001
0001
0001
0001
,
0010
0010
1000
0010
,
0001
0001
1000
1000
,
0001
0000
1000
0000
0100
0010
0001
0000
,
1000
1000
0001
1000
,
0010
0001
0010
1000
,
0001
0000
0010
0100
0000
1000
0000
0002
,
0000
0000
2003
0000
,
3010
0000
0000
0010
0000
0000
0100
0000
,
0000
0100
0000
0000
0001
0000
0010
0000
,
0100
0000
0000
0000
,
0000
1001
0000
0000
;

//---------------dance-double - ----------------
#NOTEDATA:;
#CHARTNAME:;
#STEPSTYPE:dance-double;
#DESCRIPTION:;
#CHARTSTYLE:;
#DIFFICULTY:Easy;
#METER:8;
#RADARVALUES:0.377513,0.440941,0.235106,0.291531,0.000000,281.000000,256.000000,25.000000,31.000000,0.000000,0.000000,0.000000,0.000000,0.000000,0.377513,0.440941,0.235106,0.291531,0.000000,281.000000,256.000000,25.000000,31.000000,0.000000,0.000000,0.000000,0.000000,0.000000;
#CREDIT:led_light;
#NOTES:
00000000
00000000
00000000
00000000
,
00000000
00000000
00000000
00000000
,
00000000
00000000
00000000
00000000
,
00000000
00000000
00000000
00000000
,
00000000
00000000
00000000
00000000
00000000
00000000
00000000
20000000
,
00000000
00000000
00000000
00000000
00000000
30000000
00000000
00020000
,
00000000
00000000
00000000
00000000
00000000
00030000
00000000
00210000
,
00000000
00301000
00010000
00010000
,
00001000
00000000
01000000
00000000
00100000
01000000
00100000
00000000
,
10000000
10000000
01000000
00100000
,
01000000
01000000
00010000
00010000
,
00001000
00000100
00001000
00000100
,
00000001
00000100
00000010
00000110
,
00000100
00000100
00000001
00000001
,
00001000
00000100
00010000
00001000
,
00100000
00000000
00010000
01000000
00000000
00100000
00000000
20000000
,
00000000
30000000
01000000
00200000
,
02000000
00000000
00000000
03300000
,
10010000
00000000
00000000
00000000
00000000
00000000
00000000
00100000
,
00000000
00001000
00000000
00000000
00000000
00000000
00000000
00000000
,
00011000
00000000
00000000
00000000
00000000
00000000
00000000
00010000
,
00000000
00000010
00000000
00000000
00000000
00000000
00000000
00000000
,
00001001
00000000
00000000
00000000
00000000
00000000
00000000
00000100
,
00000000
00010000
00000000
00000000
00000000
00000000
00010000
00000000
,
00001000
00000000
00010000
00100000
00000000
00010000
00000000
00002000
,
00000000
00010000
00020000
00033000
,
00000100
00010000
00000100
00010000
,
00000010
00001000
00000010
00000000
,
00000100
00000001
00000100
00000001
,
00001000
00000100
00001000
00000000
,
00000100
00010000
00000100
00010000
,
00001000
00010000
00001000
00000000
,
00100000
00000000
01000000
10000000
00000000
01000000
00000000
00020000
,
00000000
00001000
00002000
00033000
,
00100000
00110000
00002000
00003000
,
00001000
00010000
00001000
00000000
,
00000100
00000110
00000020
00000030
,
00000100
00000001
00000020
00000030
,
00000100
00001100
00020200
00030300
,
00022000
00033000
00000010
00010000
,
00001000
00010000
00001000
00000000
01000000
00000000
00001000
00000000
,
00010000
00001000
00010000
00000000
00000100
00000000
00010000
00000000
,
00002000
00000010
00000010
00003010
,
00000002
00000100
00000100
00000103
,
00001000
00000000
00000000
00010000
00000000
00000000
00001000
00000000
,
00011000
00000000
00000000
00000000
,
00100000
00010000
00100000
00010000
,
10000000
00100000
10000000
00100000
,
01000000
00010000
00100000
01000000
,
00100000
00001000
00022000
00033000
,
00010000
00000100
00010000
00000100
,
00001000
00000010
00000100
00000001
,
00001001
00000000
00000110
00000000
,
00001000
00000100
00000010
00000000
,
00000100
00001000
00000100
00001000
,
00000001
00000100
00000001
00000100
,
00000010
00001000
00000100
00000010
,
00000100
00010000
00022000
00033000
,
00001000
00100000
00001000
00100000
,
00010000
01000000
00100000
10000000
,
10010000
00000000
01100000
00000000
,
00010000
00100000
01000000
00000000
,
01100000
00000000
00000000
00000000
00000000
10000000
00000000
00020000
,
00000000
00100000
00130000
00000000
,
00011000
00000000
00000000
00000000
00000000
00000100
00000000
00000020
,
00000000
00000100
00000130
00001000
,
00000001
00000100
00001000
00000100
,
00000010
00000100
00001000
00010000
,
00100000
10000000
00020000
00000000
,
00130000
00100000
01000000
10000000
,
20020000
00000000
00000000
30030000
,
02000000
00100000
03100000
00000000
,
00110000
00000000
00011000
00000000
,
00000000
00000010
00001010
00000000
,
00000001
00000001
00000010
00000100
,
00000010
00000010
00001000
00001000
,
00010000
00100000
00010000
00100000
,
10000000
00100000
01000000
01100000
,
00100000
00100000
10000000
10000000
,
00010000
00100000
00001000
00010000
,
00000100
00000000
00001000
00000010
00000000
00000100
00000000
00000002
,
00000000
00000000
00002003
00000000
,
00003100
00000000
00000000
00000100
00000000
00000000
00000010
00000000
,
00000000
00000010
00000000
00000000
00001000
00000000
00010000
00000000
,
00001000
00000000
00000000
00000000
,
00000000
00011000
00000000
00000000
;

//---------------dance-double - ----------------
#NOTEDATA:;
#CHARTNAME:;
#STEPSTYPE:dance-double;
#DESCRIPTION:;
#CHARTSTYLE:;
#DIFFICULTY:Medium;
#METER:12;
#RADARVALUES:0.604558,0.641369,0.338553,0.329148,0.000000,450.000000,414.000000,36.000000,35.000000,0.000000,0.000000,0.000000,0.000000,0.000000,0.604558,0.641369,0.338553,0.329148,0.000000,450.000000,414.000000,36.000000,35.000000,0.000000,0.000000,0.000000,0.000000,0.000000;
#CREDIT:led_light;
#NOTES:
00000000
00000000
00000000
00000000
,
00000000
00000000
00000000
00000000
,
00000000
00000000
00000000
00000000
,
00000000
00000000
00000000
00000000
,
00000000
00000000
00000000
00000000
00000000
00000000
10000000
02000000
,
00000000
00000000
00000000
00000000
03000000
00000000
00010000
00002000
,
00000000
00000000
00000000
00000000
00003000
00000010
00000001
00000020
,
00000000
00000130
00001000
00000200
00000000
00010300
00001000
00020000
,
00000000
00030100
00001000
00000001
00000100
00000000
00000110
00000000
,
00001000
00000010
00001000
00000010
00010000
00000100
00010000
00002000
,
00000000
00103000
00010000
10000000
00010000
00100000
00001000
00010000
,
00100000
00010000
00100000
01000000
00000000
00010000
10000000
02000000
,
00000000
03100000
01000000
10000000
00010000
00000000
10010000
00000000
,
10000000
01000000
10000000
01000000
00100000
01000000
10000000
00020000
,
00000000
10030000
00100000
00000000
00010000
00000000
00011000
00000000
,
00010000
00001000
00000100
00000010
00000000
00001000
00000100
00000020
,
00000000
00000130
00001000
00000010
00000100
00000001
00000100
00000001
,
00002000
00000000
00000000
00003000
,
00000001
00000010
00000000
00000000
00000000
00000000
00000000
00001100
,
00000000
00010000
00001000
00000000
00000000
00000000
00000000
00000000
,
00001000
00010000
00000000
00000000
00000000
00000000
00000000
01100000
,
00000000
10000000
01000000
00000000
00000000
00000000
00000000
00000000
,
10000000
00100000
00000000
00000000
00000000
00000000
00000000
01010000
,
00000000
00001000
00010000
00000000
00000000
00000000
00010000
00000000
,
00001000
00000010
00000100
00000010
00000000
00000110
00000000
00002002
,
00000000
00000000
00003003
00000000
00001000
00000001
00000100
00000000
,
00000010
00000100
00000010
00000000
00001000
00000001
00001000
00000100
,
00000000
00000001
00000100
00000000
00001000
00000000
00001001
00000000
,
00000001
00001000
00000010
00000000
00000100
00001000
00000100
00000010
,
00000000
00001000
00000100
00000000
00010000
00000000
00011000
00000000
,
00001000
00100000
00001000
00000000
00010000
00001000
00010000
00000100
,
00000000
00000100
00010000
00000000
00001000
00000000
00011000
00000000
,
00010000
01000000
00100000
01000000
00000000
01100000
00000000
20020000
,
00000000
00000000
30030000
00000000
00010000
10000000
00100000
00000000
,
01000000
01010000
02020000
03030000
,
00001000
00000000
00010000
00001000
00100000
00001000
00010000
00000000
,
00000100
00001100
00002200
00003300
,
00010000
00000000
00001000
00000000
01000000
00001000
00010000
00000000
,
00000010
00000000
00001010
00000000
00001010
00000000
00000100
00000002
,
00000000
00000013
00001000
00000000
00010000
00000000
00011000
00000000
,
00000100
00001000
00000100
00001000
00000001
00001000
00000100
00000000
,
00010000
00001000
00010000
00001000
00100000
00001000
00010000
00000000
,
00020000
01000000
01000000
01000000
,
00032000
00000100
00000100
00000100
,
00013000
00000000
00001000
00010000
00000000
00010000
00001000
00000000
,
00011000
00000000
00000000
00000000
,
00100000
00010000
00100000
00010000
00100000
01000000
10000000
00000000
,
00010000
01000000
00010000
01000000
00100000
10000000
00010000
00000000
,
00100000
01000000
00100000
01000000
00010000
00001000
00000000
00000010
,
00000000
00000011
00000000
00001000
00000000
00001100
00000000
00000001
,
00000100
00000010
00000100
00000010
00001000
00000100
00010000
00002000
,
00000000
00013000
00000100
00001000
00000000
00000001
00000100
00001000
,
00000000
00001000
00000100
00000001
00000000
00000001
00000010
00002000
,
00000000
00013000
00001000
00000000
00010000
00000000
00011000
00000000
,
00000100
00001000
00000100
00001000
00000100
00000010
00000001
00000000
,
00001000
00000010
00001000
00000010
00000100
00000001
00001000
00000000
,
00000100
00000010
00000100
00000010
00001000
00010000
01000000
10000000
,
00000000
11000000
00000000
00010000
00000000
00220000
00000000
00330000
,
00010000
00000000
10000000
00000000
00100000
00000000
01000000
00010000
,
00000000
10000000
01000000
10000000
00000000
01000000
00100000
01000000
,
00000000
00100000
00010000
00100000
00000000
00001000
00010000
00002000
,
00000000
00013000
00001000
00000100
00000001
00000000
00001001
00000000
,
00000010
00001000
00000010
00001000
00000010
00001000
00000000
00001002
,
00000000
00000000
00000103
00000000
00001000
00010000
00001000
00000000
,
00100000
00010000
00100000
00010000
00100000
00010000
00000000
20010000
,
00000000
00000000
31000000
00000000
00010000
00001000
00010000
00000000
,
00001000
00000010
00000001
00000011
,
00000001
00000100
00001000
00001100
,
00001000
00000000
00010000
00001000
00020000
00000000
00001000
00000000
,
00031000
01000000
00001000
00000000
00100000
00010000
00100000
00000000
,
02200000
00000000
00000000
03300000
,
00010000
10000000
00010000
10000000
01000000
00000000
00000000
00000000
,
00100000
00100000
00000000
00000000
01000000
01000000
00000000
00000000
,
00000000
10000000
00010000
10000000
00010000
00000000
10010000
00000000
,
00010000
00100000
00010000
00100000
00001000
01000000
00001000
00020000
,
00000000
00030010
00001000
00000001
00001000
00000010
00010000
00001000
,
00000010
00001000
00000010
00000100
00000000
00001000
00000001
00000200
,
00000000
00000310
00000100
00000001
00001000
00000000
00001001
00000000
,
00000001
00000100
00000001
00000100
00000010
00000100
00000001
00002000
,
00000000
00003001
00000010
00000000
00001000
00000000
00011000
00000000
,
00001000
00010000
01000000
00100000
00000000
00010000
01000000
00200000
,
00000000
01300000
00010000
00100000
01000000
10000000
01000000
10000000
,
00010000
00000000
00010000
00100000
00000000
00100000
00001000
00000000
,
00001000
00000100
00000000
00000100
00000001
00000000
00000010
00000000
,
00001000
00000000
00010000
00001000
00000000
00010000
00000000
00001000
,
00000000
00011000
00000000
00000000
;

//---------------dance-double - ----------------
#NOTEDATA:;
#CHARTNAME:;
#STEPSTYPE:dance-double;
#DESCRIPTION:;
#CHARTSTYLE:;
#DIFFICULTY:Hard;
#METER:16;
#RADARVALUES:0.828917,0.962054,0.385574,0.206893,0.235106,617.000000,576.000000,41.000000,22.000000,0.000000,0.000000,0.000000,0.000000,0.000000,0.828917,0.962054,0.385574,0.206893,0.235106,617.000000,576.000000,41.000000,22.000000,0.000000,0.000000,0.000000,0.000000,0.000000;
#CREDIT:led_light;
#NOTES:
00000000
00000000
00000000
00000000
,
00000000
00000000
00000000
00000000
,
00000000
00000000
00000000
00000000
,
00000000
00000000
00000000
00000000
,
00000000
00000000
00000000
00000000
00000000
00000000
00000001
00000022
,
00000000
00000000
00000000
00000000
00000033
00000000
00001000
00002020
,
00000000
00000000
00000000
00000000
00003030
00000100
00001000
00020000
,
00000000
00031000
00010000
02000000
00000000
03010000
01000000
20000000
,
00000000
00000000
31000000
00000000
00100000
00000000
00010000
00100000
00010000
00000000
10000000
00010000
10000000
00010000
10000000
00010000
,
10000000
01000000
10000000
01000000
00100000
00010000
10000000
00100000
,
01000000
01000000
00001000
00001000
00010000
00010000
00001000
00100000
,
00010000
10000000
00010000
00100000
00001000
00010000
00001000
01000000
,
00010000
00000000
00100000
00000000
01000000
00000000
00010000
00000000
00001000
00010000
00001000
00010000
00000100
00001000
00000001
00000000
,
00001000
00000010
00001000
00000010
00000100
00000001
00001000
00000010
,
00000100
00001000
00000100
00001000
00000100
00000001
00000010
00001000
,
00010000
00010000
00001000
00010000
00000000
00001000
01000000
00200000
,
00000000
00000000
00310000
00000000
00100000
00000000
10000000
00000000
01000000
00000000
00100000
00010000
00100000
00010000
00100000
00010000
,
20000000
00000000
00000000
30000000
,
10010000
00010000
00000000
00000000
00000000
00000000
00000000
11000000
,
00000000
00100000
01000000
00000000
00010000
00000000
00000000
00000000
,
00010100
00000100
00000000
00000000
00000000
00000000
00000000
00000011
,
00000000
00000100
00001000
00000000
00000001
00000000
00000000
00000000
,
00001001
00001000
00000000
00000000
00000000
00000000
00000000
00000101
,
00000000
00000010
00000100
00000000
00001000
00000000
00010000
00000000
,
00001000
00010000
00100000
10000000
00000000
11000000
00000000
00210000
,
00000000
00000000
01300000
00000000
10000000
00000000
00010000
00000000
00100000
00010000
01000000
00100000
10000000
00100000
10000000
00100000
,
10000000
01000000
10000000
01000000
00010000
01000000
00010000
01000000
,
10000000
01000000
00010000
01000000
00010000
00001000
00010000
00001000
,
00000100
00001000
00000100
00000001
00000100
00000001
00001000
00000010
,
00000100
00000001
00000010
00001000
00010000
00001000
00000010
00000000
,
00000001
00001000
00000001
00001000
00000010
00000100
00000010
00000100
,
00001000
00010000
00100000
01000000
00010000
00100000
01000000
10000000
,
01000000
00010000
00001000
00000010
00000000
00000110
00000000
00002001
,
00000000
00000000
00003010
00000000
00000100
00000000
00000001
00000000
00001000
00000100
00001000
00000100
00000010
00000000
00000001
00000000
,
00001000
00001001
00001002
00000103
,
00000010
00000000
00001000
00000000
00000010
00000000
00000100
00001000
00000100
00000000
00001000
00000000
00010000
00000000
01000000
00000000
,
10000000
10010000
10020000
00130000
,
01000000
00000000
00010000
00000000
01000000
00000000
00100000
00010000
00100000
00000000
00001000
00000000
00010000
00000000
00000100
00000000
,
00000010
00000000
00000110
00000000
00000110
00000000
00000001
00002000
,
00000000
00000000
00003100
00000000
00000010
00000000
00000001
00001000
00000001
00000000
00000100
00000000
00000010
00000000
00000000
00000000
,
00000100
00000001
00000100
00000001
00000010
00001000
00010000
00000000
,
01000000
10000000
01000000
10000000
00100000
00010000
00001000
00000000
,
00000010
00000100
00000010
00000100
00001000
00000100
00001000
00000100
,
00010000
00001000
00010000
00001000
01000000
00010000
01000000
00010000
,
00100000
00010000
00100000
00000000
01000000
00000000
10000000
00100000
10000000
00000000
01000000
00000000
00010000
00001000
00010000
00001000
,
00010000
00001000
00022000
00033000
,
00010000
00000100
00010000
00000100
00001000
00000001
00000010
00000100
,
00001000
00000001
00001000
00000001
00000100
00000010
00001000
00000001
,
00000010
00001000
00000010
00001000
00010000
01000000
10000000
11000000
,
00000000
10010000
00000000
00110000
00000000
01100000
00000000
00010000
,
10000000
00100000
10000000
00100000
01000000
00010000
00100000
00010000
,
10000000
01000000
00100000
00001000
00010000
00001000
00100000
00101000
,
00000000
00010000
01000000
01010000
00000000
00001000
00010000
00011000
,
00000000
00000000
00000100
00000000
00001000
00000000
00000001
00000000
00001000
00000100
00001000
00000100
00010000
00001000
00010000
00001000
,
00010000
00000010
00010000
00000010
00001000
00000001
00000100
00000010
,
00001000
00000001
00001000
00000001
00000010
00000100
00001000
00000001
,
00000100
00001000
00000100
00001000
00010000
00100000
10000000
10100000
,
00000000
10010000
00000000
01010000
00000000
02200000
00000000
03300000
,
10000000
01000000
10000000
01000000
00100000
00010000
01000000
00010000
,
10000000
00100000
01000000
00001000
00010000
00001000
01000000
01001000
,
00000000
00010000
00100000
00110000
00000000
00001000
00010000
00011000
,
00000000
00000000
00000010
00000000
00001000
00000000
00000001
00000000
00001000
00000010
00001000
00000010
00010000
00001000
00010000
00001000
,
00010000
00000000
00000100
00000000
00000010
00000001
00000010
00000001
00000010
00000000
00000110
00000000
00000000
00000000
00001200
00000000
,
00000000
00010300
00001000
01000000
00010000
10000000
00100000
01000000
,
00010000
00000000
00100000
00000000
01000000
10000000
01000000
10000000
01000000
00000000
01100000
00000000
00000000
00000000
00210000
00000000
,
00000000
00301000
00010000
00000010
00000100
00000001
00000010
00000000
,
00000100
00001000
00000100
00001000
00000001
00001000
00000001
00000100
,
00000010
00001000
00000010
00010000
00000100
00010000
00000100
00010000
,
00001000
00010000
00001000
00100000
00010000
00100000
10000000
00100000
,
00010000
00000000
10000000
00000000
00010000
00000000
00100000
01000000
00100000
00000000
01000000
10000000
01000000
10000000
01000000
10000000
,
00020000
00000000
00000000
00030000
,
00100000
00010000
00100000
00010000
01000000
00001000
00010000
00000010
00001000
00000000
00000000
00000000
00000000
00000000
00000000
00000000
,
00001001
00000100
00000001
00000000
00001001
00000100
00001000
00000000
,
00011000
00001000
01000000
00010000
10000000
00000000
11000000
00000000
,
10000000
01000000
10000000
01000000
00100000
00010000
10000000
00100000
,
01000000
01000000
00001000
00001000
00010000
00010000
00001000
00100000
,
00010000
10000000
00010000
00100000
00001000
00010000
00001000
01000000
,
00010000
00000000
00100000
00000000
01000000
00000000
00010000
00000000
00001000
00010000
00001000
00010000
00000100
00001000
00000001
00000000
,
00001000
00000010
00001000
00000010
00000100
00000001
00001000
00000010
,
00000100
00001000
00000100
00001000
00000100
00000001
00000010
00001000
,
00010000
00010000
00001000
00010000
00000000
00001000
01000000
00200000
,
00000000
00000000
00310000
00000000
00100000
00000000
10000000
00000000
01000000
00000000
00100000
00010000
00100000
00010000
00100000
00010000
,
10000000
01000000
00100000
01000000
00100000
00010000
00100000
00010000
,
00001000
00010000
00001000
00000100
00001000
00000100
00000010
00000001
,
00001000
00000000
00000010
00000100
00000000
00000010
00000000
00001000
,
00000000
00000000
00000100
00010000
00001000
00000000
00000000
00000000
00000000
00000000
00000000
00000000
00000000
00000000
00000000
00000000
;
