#TITLE:Faded;
#SUBTITLE:;
#ARTIST:Alan Walker;
#TITLETRANSLIT:;
#SUBTITLETRANSLIT:;
#ARTISTTRANSLIT:;
#GENRE:Popular Songs;
#CREDIT:;
#BANNER:Faded.png;
#BACKGROUND:Faded-bg.png;
#LYRICSPATH:;
#CDTITLE:../cdtitle.png;
#MUSIC:Faded.ogg;
#OFFSET:2.460000;
#SAMPLESTART:53.858002;
#SAMPLELENGTH:15.000000;
#LASTBEATHINT:2.190000;
#SELECTABLE:YES;
#DISPLAYBPM:45.000000:90.000000;
#BPMS:0.000000=90.000000
,82.000000=45.000000
,84.000000=90.000000
,148.000000=89.000000
,152.000000=92.000000
,153.000000=90.000000
,155.000000=88.000000
,156.000000=91.000000
,158.000000=76.000000
,159.500000=48.000000
,160.000000=54.000000
;
#STOPS:
;
#BGCHANGES:3.125=Faded.avi=1.000=0=0=0=StretchNoLoop====,
99999=-nosongbg-=1.000=0=0=0 // don't automatically add -songbackground-
;
#KEYSOUNDS:;
#ATTACKS:;

//---------------dance-single - ----------------
#NOTES:
     dance-single:
     :
     Beginner:
     1:
     0.063126,0.080146,0.000000,0.000000,0.000000,51.000000,51.000000,0.000000,0.000000,0.000000,0.000000,0.063126,0.080146,0.000000,0.000000,0.000000,51.000000,51.000000,0.000000,0.000000,0.000000,0.000000:
0000
0000
0000
0000
,
0000
0000
0000
0000
,
0000
0000
0000
0000
,
0000
0000
0000
0000
,
0000
0000
0000
0000
,
0100
0000
0000
0000
,
0010
0000
0000
0000
,
0100
0000
0000
0000
,
0100
0000
0000
0000
,
1000
0000
0000
0000
,
0001
0000
0000
0000
,
1000
0000
0000
0000
,
1000
0000
0000
0000
,
0001
0000
0000
0000
,
0001
0000
0000
0000
,
1000
0000
0000
0000
,
0001
0000
0000
0000
,
0100
0000
0100
0000
,
1000
0000
1000
0000
,
0010
0000
0010
0000
,
0001
0000
0000
0000
,
1000
0000
1000
0000
,
0001
0000
0001
0000
,
0010
0000
0010
0000
,
0100
0000
0100
0000
,
0001
0000
0001
0000
,
1000
0000
1000
0000
,
0100
0000
0100
0000
,
0010
0000
0000
0000
,
1000
0000
0100
0000
,
0010
0000
0001
0000
,
0001
0000
0100
0000
,
0010
0000
1000
0000
,
0010
0000
0010
0000
,
0100
0000
0001
0000
,
0010
0000
0010
0000
,
0100
0000
1000
0000
,
0001
0000
0000
0000
;

//---------------dance-single - ----------------
#NOTES:
     dance-single:
     :
     Easy:
     2:
     0.115113,0.176320,0.060651,0.103973,0.000000,93.000000,86.000000,7.000000,12.000000,0.000000,0.000000,0.115113,0.176320,0.060651,0.103973,0.000000,93.000000,86.000000,7.000000,12.000000,0.000000,0.000000:
0000
0000
0000
0000
,
0000
0000
0000
0000
,
0000
0000
0000
0000
,
0000
0000
0000
0000
,
0000
0000
0000
0000
,
2000
0000
3000
0000
,
0020
0000
0030
0000
,
0200
0000
0300
0000
,
0002
0000
0003
0000
,
0002
0000
0003
0000
,
0020
0000
0030
0000
,
0200
0000
0300
0000
,
2000
0000
3000
0000
,
0001
0000
0001
0000
,
0100
0000
0100
0000
,
1000
0000
1000
0000
,
0010
0000
0010
0000
,
0001
0000
0110
0000
,
0100
0000
1001
0000
,
1000
0000
0110
0000
,
0020
0000
0030
0000
,
1000
0100
1000
0100
,
0010
0001
0010
0001
,
0100
0010
0100
0010
,
1000
0100
1000
0100
,
0001
0100
0001
0100
,
1000
0010
1000
0010
,
0100
0001
0100
0001
,
0010
0100
0020
0030
,
0001
0010
1000
0010
,
0001
0010
1000
0110
,
1000
0100
0001
0100
,
1000
0100
0001
0110
,
0001
1000
0001
1000
,
0010
0001
1000
0110
,
1000
0001
1000
0001
,
0010
1000
0001
0220
,
0330
0000
0000
0000
;

//---------------dance-single - ----------------
#NOTES:
     dance-single:
     :
     Medium:
     5:
     0.183190,0.248668,0.112637,0.268596,0.000000,148.000000,135.000000,13.000000,31.000000,0.000000,0.000000,0.183190,0.248668,0.112637,0.268596,0.000000,148.000000,135.000000,13.000000,31.000000,0.000000,0.000000:
0000
0000
0000
0000
,
0000
0000
0000
0000
,
0000
0000
0000
0000
,
0000
0000
0000
0000
,
0000
0000
0000
0000
,
0020
0030
1000
0100
,
0020
0030
0200
0300
,
2000
3000
0001
1000
,
0002
0003
0020
0030
,
0200
0300
1000
0010
,
0200
0300
0020
0030
,
2000
3000
0001
1000
,
0002
0003
0100
0001
,
0110
0100
0001
0100
,
0010
1000
0010
0100
,
0001
0010
0001
0010
,
0100
1000
0001
1000
,
1100
0100
0101
0100
,
1100
0010
0011
0100
,
0110
1000
1001
1000
,
0010
0100
0020
0000
0130
0000
0000
0000
,
0010
0000
0101
0000
0001
1000
0100
0000
,
0001
0000
0110
0000
1000
0100
1000
0000
,
0020
1030
0002
0103
,
0001
0010
1000
0000
0001
0100
1000
0000
,
0001
0000
0110
0000
0001
0010
0100
0000
,
0010
1100
0002
1003
,
0001
0100
0010
0000
1000
0100
0010
0000
,
0002
0103
0020
0030
,
0100
0000
1001
0000
0010
0100
0001
0000
,
1000
0100
0010
0000
0002
0000
2003
0000
,
3100
0010
0100
0000
1000
0001
0100
0000
,
0020
1030
2000
3002
,
1003
0000
0110
0000
1000
0001
0010
0000
,
0100
1000
0001
0000
2000
0000
3020
0000
,
0130
0010
1000
0000
0100
0010
0001
0000
,
0020
0130
2000
3002
,
2003
0000
0000
3000
,
0002
0000
0000
0003
,
0200
0000
0000
0300
,
0020
0000
0000
0000
,
0030
0000
0000
0000
;

//---------------dance-single - ----------------
#NOTES:
     dance-single:
     :
     Hard:
     7:
     0.248792,0.301954,0.043322,0.147295,0.000000,201.000000,196.000000,5.000000,17.000000,0.000000,0.000000,0.248792,0.301954,0.043322,0.147295,0.000000,201.000000,196.000000,5.000000,17.000000,0.000000,0.000000:
// measure 0
0000
0000
0000
0000
,  // measure 1
0000
0000
0000
0000
,  // measure 2
0000
0000
0000
0000
,  // measure 3
0000
0000
0000
0000
,  // measure 4
0000
0000
0000
0000
,  // measure 5
2000
3010
1000
0010
,  // measure 6
0200
0301
0100
0001
,  // measure 7
0010
0100
0010
0100
,  // measure 8
2000
3010
0100
0010
,  // measure 9
2000
3100
1000
0100
,  // measure 10
0020
0031
0010
0001
,  // measure 11
0100
0010
0100
0010
,  // measure 12
2000
3100
1000
0001
,  // measure 13
1001
0100
0010
0100
,  // measure 14
0010
1000
0010
1000
,  // measure 15
0001
0010
0001
0010
,  // measure 16
0100
0010
0100
0010
,  // measure 17
0110
0000
0001
1000
1100
0000
1000
0000
,  // measure 18
0001
0100
0001
0000
0110
0000
0001
0010
,  // measure 19
0200
0310
0011
1000
,  // measure 20
0001
0100
0010
2000
0002
0000
3003
0000
,  // measure 21
1000
0100
0001
0100
1000
0100
0001
0100
,  // measure 22
1000
0010
0001
0010
1000
0010
0001
0010
,  // measure 23
1000
0100
0001
0100
1000
0100
0001
0100
,  // measure 24
0010
0001
0100
1000
0100
0001
0010
0100
,  // measure 25
0001
0100
1000
0100
0001
0100
1000
0100
,  // measure 26
0001
0010
1000
0010
0001
0010
1000
0010
,  // measure 27
0001
0100
1000
0010
0001
0100
0001
0010
,  // measure 28
1000
0001
0010
0100
2000
0000
3002
0000
,  // measure 29
1003
0100
0001
0100
1000
0010
0001
1000
,  // measure 30
0001
0010
1000
0100
0001
0010
0001
0100
,  // measure 31
1000
0010
0001
0010
0100
1000
0100
0001
,  // measure 32
1000
0010
0100
0001
0010
0100
0020
0000
,  // measure 33
0031
0100
1000
0100
0001
0010
1000
0001
,  // measure 34
1000
0010
0001
0100
1000
0010
1000
0100
,  // measure 35
0001
0010
1000
0010
0100
0001
0100
1000
,  // measure 36
0001
0010
0100
1000
0010
0100
0020
0000
,  // measure 37
2030
0000
0000
3000
,  // measure 38
0020
0000
0000
0030
,  // measure 39
0002
0000
0000
0003
,  // measure 40
0200
0000
0000
0000
,  // measure 41
0300
0000
0000
0000
;

//---------------dance-double - ----------------
#NOTES:
     dance-double:
     :
     Easy:
     1:
     0.063126,0.096175,0.008664,0.086644,0.000000,51.000000,50.000000,1.000000,10.000000,0.000000,0.000000,0.063126,0.096175,0.008664,0.086644,0.000000,51.000000,50.000000,1.000000,10.000000,0.000000,0.000000:
00000000
00000000
00000000
00000000
,
00000000
00000000
00000000
00000000
,
00000000
00000000
00000000
00000000
,
00000000
00000000
00000000
00000000
,
00000000
00000000
00000000
00000000
,
00200000
00000000
00300000
00000000
,
20000000
00000000
30000000
00000000
,
02000000
00000000
03000000
00000000
,
00020000
00000000
00030000
00000000
,
00002000
00000000
00003000
00000000
,
00000020
00000000
00000030
00000000
,
00000002
00000000
00000003
00000000
,
00000200
00000000
00000300
00000000
,
00000001
00000000
00000000
00000000
,
00000001
00000000
00000000
00000000
,
00001000
00000000
00000000
00000000
,
00001000
00000000
00000000
00000000
,
00011000
00000000
00010000
00000000
,
00001000
00000000
00001000
00000000
,
00100000
00000000
00100000
00000000
,
01000000
00000000
00000000
00000000
,
10000000
00000000
10000000
00000000
,
00100000
00000000
00100000
00000000
,
00010000
00000000
00010000
00000000
,
00001000
00000000
00001000
00000000
,
00000100
00000000
00000100
00000000
,
00000001
00000000
00000001
00000000
,
00000010
00000000
00000010
00000000
,
00000200
00000000
00000300
00000000
,
00010000
00000000
00010000
00000000
,
00001000
00000000
00001000
00000000
,
00100000
00000000
00100000
00000000
,
00010000
00000000
01000000
00000000
,
00001000
00000000
00001000
00000000
,
00010000
00000000
00010000
00000000
,
00000100
00000000
00000100
00000000
,
00001000
00000000
00000020
00000000
,
00000030
00000000
00000000
00000000
;

//---------------dance-double - ----------------
#NOTES:
     dance-double:
     :
     Medium:
     4:
     0.159672,0.230906,0.121301,0.216610,0.000000,129.000000,115.000000,14.000000,25.000000,0.000000,0.000000,0.159672,0.230906,0.121301,0.216610,0.000000,129.000000,115.000000,14.000000,25.000000,0.000000,0.000000:
00000000
00000000
00000000
00000000
,
00000000
00000000
00000000
00000000
,
00000000
00000000
00000000
00000000
,
00000000
00000000
00000000
00000000
,
00000000
00000000
00000000
00000000
,
00200000
00300000
00001000
00010000
,
00001000
00000000
00020000
00000000
,
00030100
00000000
00000100
00001000
,
00000002
00000003
00000200
00000300
,
00000020
00000030
00010000
00001000
,
00010000
00000000
00002000
00000000
,
00103000
00000000
00010000
10000000
,
00020000
00000000
00000000
00030000
,
10000000
01000000
10000000
01000000
,
00100000
00010000
00100000
00001000
,
00010000
00001000
00010000
00000100
,
00001000
00000010
00001000
00000010
,
00000110
00000000
00001001
00000000
,
00000001
00001000
00000001
00000000
,
00000010
00000000
00000110
00000000
,
00001000
00020000
00031000
00000000
,
00100000
10010000
01000000
10010000
,
00100000
10000000
00100000
01000000
,
00010000
00100000
00010000
00100000
,
00001000
00010000
00001000
00010000
,
00000100
00001001
00000010
00001001
,
00000100
00000001
00000100
00000010
,
00001000
00000100
00001000
00000000
00000001
00000100
00000001
00000000
,
00000020
00000030
00000200
00020300
,
00031000
00011000
00100000
00110000
,
00010000
10000000
01000000
00000000
20000000
00000000
30020000
00000000
,
01030000
01100000
00010000
00011000
,
00002000
00003000
00000200
00000302
,
00001003
00001100
00000001
00000011
,
00000100
00001000
00000100
00000000
00020000
00000000
00032000
00000000
,
00103000
00000000
00011000
00000000
01000000
00010000
01000000
00000000
,
00200000
00300000
20000000
30020000
,
20030000
00000000
00000000
30000000
,
02000000
00000000
00000000
03000000
,
00020000
00000000
00000000
00030000
,
00002000
00000000
00000000
00000000
,
00003000
00000000
00000000
00000000
;

//---------------dance-double - ----------------
#NOTES:
     dance-double:
     :
     Hard:
     7:
     0.243841,0.301954,0.051986,0.112637,0.000000,197.000000,191.000000,6.000000,13.000000,0.000000,0.000000,0.243841,0.301954,0.051986,0.112637,0.000000,197.000000,191.000000,6.000000,13.000000,0.000000,0.000000:
00000000
00000000
00000000
00000000
,
00000000
00000000
00000000
00000000
,
00000000
00000000
00000000
00000000
,
00000000
00000000
00000000
00000000
,
00000000
00000000
00000000
00000000
,
00100000
01000000
00100000
01000000
,
10000000
00100000
10000000
00100000
,
00010000
00001000
00010000
00001000
,
00000100
00000001
00000020
00000030
,
00000100
00000010
00000100
00000010
,
00000001
00000100
00000001
00000100
,
00001000
00010000
00001000
00010000
,
00100000
10000000
01000000
10000000
,
10010000
00010000
10000000
00010000
,
10000000
00100000
10000000
00100000
,
01000000
00010000
01000000
00010000
,
00100000
00001000
00100000
00001000
,
00011000
00000000
00010000
00000010
00001010
00000000
00001000
00000000
,
00000001
00000100
00000001
00000000
00001001
00000000
00000001
00000010
,
00002000
00003010
00000011
00000001
,
00000100
00000010
00000100
00000010
00020000
00000000
00030000
00000000
,
00001000
00010000
01000000
00010000
00001000
00010000
01000000
00010000
,
00001000
00000100
00000010
00000001
00000010
00001000
00000010
00000001
,
00000010
00001000
00000100
00001000
00000010
00001000
00000100
00001000
,
00000001
00000100
00001000
00000100
00000001
00000000
00001001
00000000
,
00001000
00000100
00000001
00000100
00001000
00000100
00000001
00000100
,
00001000
00000010
00000100
00000010
00001000
00000010
00000100
00000010
,
00010000
00001000
00100000
00010000
10000000
01000000
00010000
01000000
,
10000000
00100000
01000000
00010000
20000000
00000000
30020000
00000000
,
00130000
10000000
00100000
00010000
10000000
00100000
01000000
00010000
,
00100000
00001000
00100000
00010000
01000000
00001000
00010000
00000100
,
00001000
00000010
00000100
00001000
00000100
00000001
00000100
00000010
,
00001000
00010000
00100000
01000000
20000000
00000000
30020000
00000000
,
10030000
01000000
00010000
01000000
10000000
00100000
00010000
00001000
,
00000010
00000001
00000010
00001000
00000010
00000001
00001000
00000010
,
00000100
00001000
00010000
00001000
00000100
00000010
00001000
00000100
,
00010000
01000000
00010000
00001000
00020000
00000000
00032000
00000000
,
00203000
00000000
00000000
00300000
,
02000000
00000000
00000000
03000000
,
20000000
00000000
00000000
30000000
,
00020000
00000000
00000000
00000000
,
00030000
00000000
00000000
00000000
;
