#TITLE:FOUR SEASONS OF LONELINESS;
#SUBTITLE:verβ feat. サリヤ人;
#ARTIST:TatshMusicCircle;
#TITLETRANSLIT:;
#SUBTITLETRANSLIT:verβ feat. sariyajin;
#ARTISTTRANSLIT:;
#GENRE:J-Music;
#CREDIT:;
#BANNER:FOUR SEASONS OF LONELINESS ver beta feat. sariyajin.png;
#BACKGROUND:FOUR SEASONS OF LONELINESS ver beta feat. sariyajin-bg.png;
#LYRICSPATH:;
#CDTITLE:../cdtitle.png;
#MUSIC:FOUR SEASONS OF LONELINESS ver beta feat. sariyajin.ogg;
#OFFSET:-0.080000;
#SAMPLESTART:66.481003;
#SAMPLELENGTH:15.000000;
#SELECTABLE:YES;
#BPMS:0.000000=178.000000
;
#STOPS:27.750000=0.337000
;
#BGCHANGES:-0.667=FOUR SEASONS OF LONELINESS ver beta feat. sariyajin.avi=1.000=0=0=0=StretchNoLoop====,
99999=-nosongbg-=1.000=0=0=0 // don't automatically add -songbackground-
;
#KEYSOUNDS:;
#ATTACKS:;

//---------------dance-single - ----------------
#NOTES:
     dance-single:
     :
     Beginner:
     4:
     0.180189,0.283798,0.023650,0.189198,0.000000,160.000000,157.000000,3.000000,24.000000,0.000000,0.000000,0.180189,0.283798,0.023650,0.189198,0.000000,160.000000,157.000000,3.000000,24.000000,0.000000,0.000000:
0000
0000
0000
0000
,
0000
0000
0000
0000
,
0000
0000
0000
0000
,
0000
0000
0000
0000
,
0000
0000
0000
0000
,
0000
0000
0000
0000
,
0000
0000
0000
0000
,
0010
0000
0010
0000
,
0100
0000
0100
0000
,
0020
0000
0030
0000
,
0200
0000
0300
0000
,
0001
0000
0001
0000
,
1000
0000
1000
0000
,
0002
0000
0003
0000
,
2000
0000
0000
0000
,
3000
0000
0000
0000
,
0100
0000
1000
0000
,
0010
0000
0100
0000
,
0010
0010
0010
0000
,
0010
0010
0010
0000
,
0100
0000
0001
0000
,
0010
0000
0100
0000
,
0020
0000
0030
0000
,
0002
0000
0003
0000
,
0010
0000
0001
0000
,
0100
0000
0010
0000
,
0100
0100
0100
0000
,
0100
0100
0100
0000
,
0010
0000
1000
0000
,
0100
0000
0010
0000
,
0200
0000
0300
0000
,
2000
0000
3000
0000
,
0001
0000
0001
0000
,
1000
0000
1000
0000
,
0010
0000
0010
0000
,
0100
0000
0100
0100
,
0100
0000
0001
0000
,
0010
0000
0010
0000
,
0200
0000
0300
0000
,
2000
0000
3000
0000
,
0001
0000
1000
0000
,
0002
0000
0003
0000
,
0010
0000
0100
0000
,
1000
0000
0010
0000
,
0200
0000
0300
0000
,
0001
0001
0001
0000
,
1000
1000
1000
0000
,
0010
0010
0010
0010
,
0010
0000
0000
0000
,
1000
0000
0001
0000
,
0010
0010
0010
0000
,
0100
0000
1000
0000
,
0002
0000
0003
0000
,
1000
0000
0001
0000
,
0100
0100
0100
0000
,
0010
0000
1000
0000
,
0002
0000
0003
0000
,
0010
0010
0010
0000
,
1000
1000
1000
0000
,
0010
0000
0001
0000
,
2000
0000
3000
0000
,
0010
0010
0010
0000
,
0001
0001
0001
0000
,
0010
0000
1000
0000
,
0002
0000
0000
0000
,
0003
0000
0000
0000
,
1000
0000
0100
0000
,
1000
0000
0010
0000
,
0001
0000
0200
0000
,
0300
0000
1000
0000
,
0001
0000
0010
0000
,
0001
0000
0100
0000
,
2000
0000
3000
0000
,
0020
0000
0030
0000
,
0001
0000
0010
0000
,
0100
0000
1000
0000
,
1001
0000
0000
0000
,
0110
0000
0000
0000
,
1000
0000
0010
0000
,
0100
0000
0001
0000
,
0020
0000
0030
0000
,
0200
0000
0300
0000
,
1000
1000
1000
0000
,
0001
0001
0001
0000
,
0200
0000
0300
0000
,
0020
0000
0030
0000
,
1000
1000
1000
0000
,
0001
0001
0001
0000
,
1001
0000
0010
0000
,
0100
0100
0100
0200
,
0300
0000
0000
0000
;

//---------------dance-single - ----------------
#NOTES:
     dance-single:
     :
     Challenge:
     18:
     0.965137,1.206139,0.662194,0.559712,0.622778,857.000000,773.000000,84.000000,71.000000,0.000000,0.000000,0.965137,1.206139,0.662194,0.559712,0.622778,857.000000,773.000000,84.000000,71.000000,0.000000,0.000000:
// measure 0
0000
0000
0000
0000
,  // measure 1
0000
0000
0000
0000
,  // measure 2
0000
0000
0000
0000
,  // measure 3
2002
0000
0000
0000
,  // measure 4
0000
0000
0000
0000
0000
0000
0000
3003
,  // measure 5
1000
0001
1000
0001
1000
0001
1000
0001
1000
0001
1000
0001
1000
0001
1000
0001
,  // measure 6
1000
0100
0010
0100
1000
0001
0010
0100
1000
0100
0010
0001
0100
0010
0100
0010
,  // measure 7
1001
0000
0001
0010
0000
1000
0010
0000
0001
0010
0000
0100
1000
0001
1000
0010
,  // measure 8
0100
0000
1000
0100
0000
0001
0100
0000
0010
1000
0000
0001
1000
0100
0010
0001
,  // measure 9
1000
0001
0100
0001
1000
0000
0001
1000
0100
1000
0001
0010
0100
1000
0001
1000
,  // measure 10
0010
0100
0001
0100
0010
0000
0010
0000
1000
0000
0001
0010
0100
1000
0100
0010
,  // measure 11
0001
1000
0100
1000
0000
0001
1000
0000
0100
0010
0100
0000
0010
0001
0010
0001
,  // measure 12
1000
0001
0100
0001
0000
1000
0010
0000
1000
0100
0010
0000
0001
1000
0100
1000
,  // measure 13
0001
0100
0010
1000
0001
0100
0010
1000
0001
0010
0100
1000
0001
0010
0100
1000
,  // measure 14
0001
0010
0100
0010
0001
1000
0100
0010
0100
1000
0001
1000
0010
0100
0001
0100
,  // measure 15
0020
0000
0000
0000
0000
0000
0000
0000
0000
0000
1030
0100
0001
0000
0000
0000
,  // measure 16
0120
0100
0001
0001
,  // measure 17
1000
1000
0100
0100
,  // measure 18
0001
0100
0001
0100
,  // measure 19
1000
0000
0000
0000
0100
0000
0000
0000
1030
0000
0010
0000
0001
0000
0000
0001
,  // measure 20
0200
0010
0001
0001
,  // measure 21
1000
1000
0010
0010
,  // measure 22
0001
0010
0001
0010
,  // measure 23
1300
0000
0100
0000
0002
0000
0000
0000
1003
0100
1000
0100
1000
0100
1000
0100
,  // measure 24
0010
0001
1100
0001
0100
0010
1001
0010
,  // measure 25
0100
1000
0110
0001
1000
0010
0101
1000
,  // measure 26
0100
0010
1100
0001
0010
0100
1001
0010
,  // measure 27
0001
0000
1000
0000
0110
0000
0001
0000
1000
0000
0010
0000
0101
0000
0001
1000
,  // measure 28
0100
1000
0011
1000
0010
0100
1001
0100
,  // measure 29
0010
0001
0110
1000
0001
0100
1010
0001
,  // measure 30
0010
0000
0011
0100
0000
1010
0100
0001
,  // measure 31
1000
0100
1000
0100
1000
0000
0010
0000
0100
0001
0100
0001
0100
0010
1000
0001
,  // measure 32
0010
0100
0011
1000
0001
0100
1010
0001
,  // measure 33
0010
0100
1001
0010
0100
1000
0110
0001
,  // measure 34
1000
0010
0101
1000
0100
0001
0110
0001
,  // measure 35
1000
0000
0100
0000
0011
0000
1000
0000
0010
0000
0110
0000
0001
0000
0001
1000
,  // measure 36
0010
0100
1010
0001
1000
0100
0011
1000
,  // measure 37
0010
0100
1001
0010
0100
0001
0110
1000
,  // measure 38
0001
0010
1100
0001
0100
1000
0110
1000
,  // measure 39
0001
0000
0100
0000
1010
0000
0001
0000
1000
0100
1000
0100
0010
0001
0100
0010
,  // measure 40
2000
3100
0002
0103
2000
3010
0002
0013
,  // measure 41
2000
0001
0000
0001
0000
0100
0000
3100
,  // measure 42
0120
0032
2003
3100
2100
3002
0203
0310
,  // measure 43
0210
0302
2003
3010
2010
3002
0023
0230
,  // measure 44
2300
3200
0302
0203
2300
3020
0230
0302
,  // measure 45
1003
0100
1000
0000
0010
0100
0010
0000
1000
0001
1000
0000
0001
0010
0001
0000
,  // measure 46
0010
1000
0010
0000
0001
1000
0001
0000
1000
0010
1000
0000
0001
0100
0001
0000
,  // measure 47
1000
0100
0010
0001
1000
0100
0001
0100
1000
0001
1000
0010
0100
0001
0010
0100
,  // measure 48
2000
0000
0000
0000
0000
0000
0000
0000
0000
0000
3001
0100
1000
0000
0000
0000
,  // measure 49
0110
0100
0001
0010
0110
0100
1000
0001
,  // measure 50
1001
1000
0010
0100
0101
0001
0010
1000
,  // measure 51
0010
0010
0100
0100
1000
1000
0001
0001
,  // measure 52
1000
1100
0001
0101
1000
1010
0001
0011
,  // measure 53
0110
0100
1000
0010
0110
0100
0001
1000
,  // measure 54
1001
0001
0010
0100
1100
1000
0010
0001
,  // measure 55
0010
0010
0100
0100
0001
0001
1000
1000
,  // measure 56
0001
0101
1000
1100
0001
0011
1000
1010
,  // measure 57
1001
0002
0010
0013
1100
2000
0010
3010
,  // measure 58
0011
0200
0010
0310
0101
2000
0100
3100
,  // measure 59
2000
3020
0032
2003
3200
0302
2003
3020
,  // measure 60
0031
0011
0010
1010
1000
1100
0010
0011
,  // measure 61
1001
0002
0100
0103
1010
2000
0100
3100
,  // measure 62
0101
0020
0100
0130
0011
2000
0010
3010
,  // measure 63
0110
0100
0010
1002
0000
0013
2200
3300
,  // measure 64
1001
0000
0001
0000
1000
0000
0010
0000
0100
0000
0001
1000
0100
0000
0000
0000
,  // measure 65
2000
0000
0000
0000
0002
0000
0000
3003
,  // measure 66
0110
0000
0001
0000
0100
0000
0010
0000
0100
0000
0001
0000
0100
0000
0010
1000
,  // measure 67
0100
0000
0010
0000
0100
0000
1000
0000
0100
0000
0010
0000
0100
0000
1000
0010
,  // measure 68
0100
0000
0010
0000
0100
0000
0001
0010
0100
0000
0010
0000
0001
0000
0010
0000
,  // measure 69
0100
0010
0001
1000
0010
0010
0100
0100
,  // measure 70
0110
0000
1000
0000
0010
0000
0100
0000
0010
0000
1000
0000
0010
0000
0100
0001
,  // measure 71
0010
0000
0100
0000
0010
0000
0001
0000
0010
0000
0100
0000
0010
0000
0001
0100
,  // measure 72
0010
0000
0100
0000
0010
0000
1000
0100
0010
0000
0100
0000
0010
0000
0001
0100
,  // measure 73
0010
0000
0100
0000
0010
0000
0010
0000
1000
0000
0001
0000
0010
0100
1000
0001
,  // measure 74
0010
0001
1000
0100
0001
0100
1000
0001
,  // measure 75
0100
0001
1000
0010
0001
0010
1000
0001
,  // measure 76
0101
0010
1000
1100
0010
0001
0000
2100
,  // measure 77
0000
3010
0100
0001
0010
0100
1000
1002
,  // measure 78
0000
0000
0013
0000
0011
0000
0001
0000
1000
0000
0010
0000
1010
0000
0010
0100
,  // measure 79
0001
0100
0101
0001
1000
0100
0110
0001
,  // measure 80
1002
0000
0013
2100
0000
3010
0102
0000
,  // measure 81
1003
0001
1000
0001
1000
0100
1000
0100
0010
0001
1000
0001
0100
0010
1000
0001
,  // measure 82
1000
0100
1000
0000
0100
1000
0100
0000
1000
0010
0100
0010
1000
0010
0100
1000
,  // measure 83
0100
0001
0100
0000
0001
0100
0001
0000
1000
0100
0010
0100
1000
0100
0010
0001
,  // measure 84
0010
0100
0010
0000
0100
0010
0100
0000
1000
0010
0100
0001
0100
0010
0100
0001
,  // measure 85
2000
3002
0023
2030
3002
0203
2300
3002
,  // measure 86
1003
0010
1000
0000
0010
1000
0010
0000
1000
0100
0010
0100
1000
0100
0010
1000
,  // measure 87
0010
0001
0010
0000
0001
0010
0001
0000
1000
0010
0100
0010
1000
0010
0100
0000
,  // measure 88
2002
3003
0110
0001
0000
0110
1000
0001
,  // measure 89
1000
0010
1000
0010
0100
0001
0100
0001
1000
0100
0001
1000
0010
0002
2000
0000
,  // measure 90
3003
0000
0000
0000
;

//---------------dance-single - ----------------
#NOTES:
     dance-single:
     :
     Easy:
     7:
     0.345737,0.354747,0.078833,0.291681,0.000000,307.000000,297.000000,10.000000,37.000000,0.000000,0.000000,0.345737,0.354747,0.078833,0.291681,0.000000,307.000000,297.000000,10.000000,37.000000,0.000000,0.000000:
0000
0000
0000
0000
,
0000
0000
0000
0000
,
0000
0000
0000
0000
,
2002
0000
0000
0000
,
0000
0000
0000
0000
,
0000
0000
0000
0000
,
0000
0000
0000
0000
0000
0000
0000
3003
,
0001
0001
0010
0010
,
1000
1000
0100
0100
,
0001
0100
0010
1000
,
0100
0001
0100
1000
,
0001
0001
0100
0100
,
1000
1000
0010
0010
,
0001
0010
0100
1000
,
0010
0001
0010
1000
,
0002
0000
0003
1001
,
1000
1000
0100
0100
,
0010
0010
0001
0001
,
1000
0100
0001
0100
,
1000
0010
0001
0010
,
1000
1000
0010
0010
,
0100
0100
0001
0001
,
2000
3000
0002
0003
,
0020
0000
0100
0100
,
0130
1000
0010
0001
,
0010
1000
0100
0010
,
0001
0001
1000
1000
,
0010
0010
0100
0100
,
0010
1000
0100
0001
,
0100
1000
0010
0100
,
0002
0003
2000
3000
,
0200
0000
0010
0010
,
0310
0001
1000
0100
,
0010
0001
1000
0100
,
1000
1000
0001
0001
,
1000
0010
0200
0300
,
0010
1000
0001
0100
,
0010
1000
0001
0100
,
0001
0001
0002
0003
,
1000
1000
2000
3000
,
0001
0010
1000
0100
,
0002
0000
1000
1000
,
1003
0100
0010
0100
,
1000
0001
0010
0100
,
1000
1000
0001
0001
,
1000
0010
0001
0100
,
1000
0100
0001
0010
,
1000
0100
0010
0001
,
2000
0000
3000
1001
,
0001
0100
1000
0010
,
1000
0100
0001
0010
,
0100
1000
0010
0001
,
0020
2030
3200
0320
,
0031
0010
1000
0100
,
1000
0010
0001
0100
,
0010
1000
0100
0001
,
0200
2300
3020
0230
,
0301
1000
0100
0001
,
0001
0100
1000
0001
,
1000
0010
0001
0010
,
2000
3200
0320
0032
,
1003
0001
0100
1000
,
1000
0100
0001
1000
,
0100
0000
0000
0010
0000
0000
0100
0000
,
2002
0000
0000
3003
,
2000
0000
0002
3003
,
1001
0001
0100
0010
,
0100
0001
0010
0100
,
0010
0001
2000
3000
,
0002
0003
1000
0010
,
0100
0010
1000
0100
,
0010
0100
1000
0001
,
2000
3000
0002
0003
,
2000
3000
0010
0010
,
0100
0001
0010
0100
,
0010
0001
0100
0010
,
1000
0000
0000
0101
0000
0000
0000
0001
,
0000
0000
0000
1100
0000
0000
0000
1001
,
0000
0001
1000
0001
,
0100
0010
1000
0100
,
0010
0000
0000
0001
0000
0000
2000
0000
,
0000
0000
0000
3000
,
1000
1000
0100
0100
,
0001
0001
0010
0010
,
1000
0100
0010
0001
,
0100
0010
1000
0001
,
1000
1000
0100
0100
,
0001
0001
0010
0010
,
1001
0000
0110
0000
,
0100
0001
0010
2000
,
3000
0000
0000
0000
;

//---------------dance-single - ----------------
#NOTES:
     dance-single:
     :
     Medium:
     11:
     0.558586,0.567595,0.402047,0.457229,0.000000,496.000000,445.000000,51.000000,58.000000,0.000000,0.000000,0.558586,0.567595,0.402047,0.457229,0.000000,496.000000,445.000000,51.000000,58.000000,0.000000,0.000000:
0000
0000
0000
0000
,
0000
0000
0000
0000
,
0000
0000
0000
0000
,
2002
0000
0000
0000
,
0000
0000
0000
0000
,
0000
0000
0000
0000
,
0000
0000
0000
0000
0000
0000
0000
3003
,
0001
0000
0100
0000
0010
1000
0100
0000
,
1000
0000
0010
0000
0100
0001
0010
0000
,
0001
0010
0100
0000
0010
0001
0100
0000
,
0010
1000
0100
0000
0010
0100
1000
0000
,
0001
0010
0100
0000
1000
0000
0110
0000
,
0001
0100
0010
0000
1000
0000
0110
0000
,
0001
1000
0010
0000
1000
0001
0010
0000
,
0100
1000
0001
1000
0010
0100
0010
0100
,
0002
0000
0003
0110
,
2001
0100
0100
0100
,
3002
0100
0100
0100
,
2003
0010
0010
0010
,
3002
0000
0010
0000
0013
0100
0010
0000
,
0002
0010
0010
0010
,
2003
0010
0010
0010
,
3002
0100
0100
0100
,
2003
0000
0100
0000
3100
0010
0100
0010
,
0001
0000
1100
0000
1000
0100
0010
0000
,
0001
1000
0100
1000
0001
0100
0010
0000
,
1000
0000
0101
0000
0001
1000
0100
0000
,
1000
0001
0010
0001
0100
0010
1000
0000
,
0001
0000
1010
0000
1000
0010
0100
0000
,
0001
1000
0010
1000
0001
0010
0100
0000
,
1000
0000
0001
0010
0000
0001
0100
0010
,
1000
0100
1000
0001
0100
0010
0100
0010
,
1000
0000
0001
0010
0100
1000
0000
0011
,
0000
1100
0000
0101
0000
1000
0020
0000
,
0130
0000
0101
0000
1000
0100
0000
0011
,
0000
1010
0000
0210
0000
0301
2000
0000
,
3001
0000
1000
0100
0010
0001
0000
1100
,
0000
0011
0000
1010
0000
0001
0100
0010
,
2000
0000
3100
0020
0000
0130
1000
0001
,
2000
0000
3010
0200
0000
0301
1000
0000
,
1001
0000
0001
0010
0100
0010
0001
1000
,
0200
0000
2300
3002
,
2003
0000
3001
0100
0020
0000
0130
0001
,
0020
0000
0031
1000
0020
0000
0230
0000
,
0302
0000
0013
0100
2000
0000
3002
0000
,
1003
0010
1000
0000
0001
0100
0001
0000
,
1000
0100
1000
0000
0001
0010
0001
0000
,
0100
0010
0100
0010
0100
0010
0100
0010
,
0200
0000
0300
1001
,
1000
0100
0010
0000
0011
0000
1100
0000
,
0001
0100
0010
0000
1010
0000
0101
0000
,
1000
0010
0100
0000
0001
0010
0100
0000
,
1000
0001
0010
0001
1000
0010
0100
0000
,
0001
0100
0010
0000
1010
0000
0101
0000
,
1000
0100
0010
0000
0011
0000
1100
0000
,
0001
0010
0100
0000
1000
0010
0100
0000
,
0001
1000
0010
1000
0001
0010
0100
0000
,
1000
0010
0001
0000
1010
0000
0101
0000
,
1000
0100
0001
0000
1100
0000
0011
0000
,
0001
0100
0010
0000
1000
0010
0100
0000
,
0001
0010
0100
1000
0100
0010
0001
0000
,
1000
0100
0001
0000
1100
0000
0011
0000
,
1000
0010
0001
0000
1010
0000
0101
0000
,
1001
0000
0000
1010
0000
0000
0011
0000
,
0220
0000
0000
0330
,
2000
0000
0002
3003
,
2100
0000
0001
0000
0100
0000
3001
0100
,
0020
0000
0100
0000
1000
0000
0130
0001
,
0020
0000
0130
1000
0002
0000
0010
0000
,
1000
0013
0110
1100
,
1002
0010
1000
0023
,
0130
1000
0001
1000
0100
0010
0001
1000
,
0020
0000
0130
0001
2000
0000
3100
0010
,
0002
0000
1003
0100
1000
0001
0100
0010
,
2010
0001
0010
3002
,
0023
0000
0130
1000
0002
0000
1003
0001
,
0011
0000
0001
1000
0010
0100
0000
1001
,
0000
0001
1000
0100
0010
0001
0000
2100
,
0000
3001
1001
0000
0002
0000
0103
0010
,
2000
0000
3001
0010
0200
0000
2300
0000
,
3002
0000
0103
0020
0000
1030
0002
0000
,
2000
0000
0000
3003
,
1000
0100
0010
0000
0100
1000
0100
1000
,
0001
0100
0010
0000
0100
0001
0100
0001
,
1000
0100
0010
0000
0100
1000
0100
1000
,
0001
0010
0100
0010
0001
1000
0100
0000
,
1000
0010
0100
0000
0010
1000
0010
1000
,
0001
0010
0100
0000
0010
0001
0010
0100
,
0110
0000
1000
0001
0000
0110
0000
0001
,
1000
0100
1000
0001
0010
0100
2000
0002
,
3003
0000
0000
0000
;

//---------------dance-single - ----------------
#NOTES:
     dance-single:
     :
     Hard:
     15:
     0.760172,0.851393,0.212848,0.260148,0.157665,675.000000,648.000000,27.000000,33.000000,0.000000,0.000000,0.760172,0.851393,0.212848,0.260148,0.157665,675.000000,648.000000,27.000000,33.000000,0.000000,0.000000:
0000
0000
0000
0000
,
0000
0000
0000
0000
,
0000
0000
0000
0000
,
2002
0000
0000
0000
,
0000
0000
0000
3003
,
1000
0010
1000
0010
0001
0010
0001
0010
,
1000
0000
0001
0000
0100
0000
0010
0000
1000
0100
1000
0100
0010
0001
0010
0000
,
0110
1000
0001
1000
0010
0100
0001
0000
,
0110
0001
1000
0001
0010
0100
1000
0000
,
0001
0100
1000
0100
0001
1000
0010
0001
,
0010
1000
0001
0010
0100
1000
0001
0000
,
0110
0001
1000
0001
0010
0100
1000
0000
,
0110
1000
0001
1000
0010
0100
0001
0000
,
1000
0100
0001
0100
1000
0001
0010
1000
,
0010
0001
1000
0010
0100
0001
1000
0100
,
0020
0000
0030
0110
,
1002
0100
0100
0100
,
0100
0100
0100
0100
,
2003
0100
0100
0100
,
0100
0000
0000
0000
0100
0000
0000
0000
3100
0000
0010
0000
0100
0000
0000
1000
,
0002
0010
0010
0010
,
0010
0010
0010
0010
,
2003
0010
0010
0010
,
0010
0000
0000
0000
3020
0000
0000
0000
0130
0001
0100
0001
0100
0001
0100
0000
,
0001
1000
0100
1000
0010
0100
0001
0010
,
0001
0100
0010
1000
0100
1000
0001
0100
,
0010
1000
0100
1000
0010
0100
0001
0010
,
0100
0000
0010
0000
0001
0000
0100
0000
0010
0000
1000
0000
0100
0000
0000
0100
,
1000
0001
0010
0001
0100
0010
1000
0100
,
1000
0010
0100
0001
0010
0001
0100
0010
,
1000
0000
0011
0100
0000
1010
0100
0001
,
1000
0100
1000
0100
1000
0000
0001
0000
0100
0010
0100
0010
0100
0010
0100
0000
,
0001
0100
0010
1000
0001
0010
0100
0010
,
0001
1000
0100
1000
0010
0100
0001
1000
,
0010
0001
0010
0100
1000
0100
0001
1000
,
0010
0000
0001
0000
0010
0000
1000
0000
0100
0000
0010
0000
0001
0000
0000
0001
,
1000
0100
0010
0001
1000
0010
0100
0010
,
1000
0001
0100
0001
0010
0100
1000
0001
,
0010
1000
0010
0100
0001
0100
1000
0001
,
0010
0000
1000
0000
0010
0000
0001
0000
0100
0000
0010
0000
1000
0000
0001
1000
,
0001
0010
0100
1000
0100
0010
0001
1000
,
0020
0100
0000
0130
0002
0000
2003
0000
,
3001
0010
0001
1000
0100
1000
0001
1000
,
0010
0100
0001
1000
0001
0001
0010
0100
,
1000
0001
1000
0010
0100
0010
1000
0001
,
1000
1000
0100
0100
0001
0001
0010
0010
,
1000
1000
0010
0010
0001
0001
0100
0100
,
1000
0100
1000
0000
0001
0010
0001
0000
1000
0010
1000
0000
0001
0100
0001
0000
,
2000
0000
3000
1001
,
0110
0001
0100
0001
0010
0100
0010
0001
,
1000
0100
0010
0100
1000
0010
0100
0001
,
1000
0100
0001
0100
0010
0100
1000
0001
,
1000
1000
0010
0010
0100
0100
0001
0001
,
0110
1000
0100
1000
0010
0100
0010
1000
,
0001
0100
0010
0100
0001
0010
0100
1000
,
0001
0100
1000
0100
0010
0100
0001
1000
,
0001
0001
0010
0010
0100
0100
1000
1000
,
1001
0001
0010
1000
1000
0010
0001
1000
,
1000
0010
0001
1000
1000
0100
0001
1000
,
1000
0100
0010
1000
0010
0100
1000
0001
,
0010
0010
0100
0100
1000
1000
0001
0001
,
1001
1000
0010
0001
0001
0010
1000
0001
,
0001
0010
1000
0001
0001
0100
1000
0001
,
1001
0100
0010
1001
0000
0010
0110
0000
,
1001
0000
0001
0000
1000
0000
0010
0000
0100
0000
0001
1000
0100
0000
0000
0000
,
2000
0000
0000
0000
0002
0000
0000
3003
,
0110
0001
0100
0010
0100
0001
0100
0010
,
1000
0100
0010
0100
1000
0100
0010
0001
,
0010
0100
0010
0001
1000
0010
0100
0010
,
1000
0010
0100
0010
1000
1000
0001
0001
,
0110
0001
0010
0100
0010
0001
0010
0100
,
1000
0010
0100
0010
1000
0010
0100
0020
,
1000
1030
0100
0020
0001
0031
0100
0020
,
1000
0000
1030
0000
0100
0000
0010
0000
0001
0000
1000
0000
0010
0100
0001
1000
,
0010
1000
0100
1000
0001
0100
0010
1000
,
0001
0100
0001
1000
0100
0010
0001
1000
,
1100
0100
0010
0001
1000
0010
0000
0101
,
0000
0001
0010
0100
1000
0001
0010
0110
,
0000
1000
1001
0001
0010
0001
1000
0010
,
0100
0001
0100
0010
1000
0001
0010
0100
,
2000
0000
3010
0002
0000
0013
2000
0000
,
3001
0000
1000
0000
0001
0000
1000
0000
0001
1000
0001
1000
0001
1000
0001
0000
,
1000
0000
0100
0000
0020
0000
0000
0000
0031
0100
0001
0000
1000
0010
1000
0000
,
0001
0000
0100
0000
0020
0000
0000
0000
1030
0100
1000
0000
0001
0010
0001
0000
,
1000
0000
0100
0000
0020
0000
0000
0000
0031
0100
0001
0000
1000
0010
1000
0000
,
0002
0023
2030
3020
0032
2003
3020
0230
,
0301
0000
1000
0000
0100
0000
1000
0000
0001
0010
0001
0010
0100
1000
0001
0000
,
1000
0000
0001
0000
0100
0000
0001
0000
1000
0010
1000
0010
0100
0001
1000
0000
,
1001
0000
0110
0001
0000
0110
1000
0001
,
1000
0000
0010
0000
0100
0000
0001
0000
1000
0100
0010
0100
1000
0002
0020
0000
,
0033
0000
0000
0000
;
