#TITLE:えくすとりーむ↑↑おんがくスクール ft. ななひら;
#SUBTITLE:;
#ARTIST:RoughSketch & Massive New Krew;
#TITLETRANSLIT:Extreme↑↑Ongaku School ft. Nanahira;
#SUBTITLETRANSLIT:;
#ARTISTTRANSLIT:;
#GENRE:J-Music;
#CREDIT:;
#BANNER:Extreme Ongaku School ft. Nanahira.png;
#BACKGROUND:Extreme Ongaku School ft. Nanahira-bg.png;
#LYRICSPATH:;
#CDTITLE:../cdtitle.png;
#MUSIC:Extreme Ongaku School ft. Nanahira.ogg;
#OFFSET:-0.396000;
#SAMPLESTART:68.962997;
#SAMPLELENGTH:15.000000;
#SELECTABLE:YES;
#BPMS:0.000000=210.000000
;
#STOPS:
;
#BGCHANGES:-99.000=../bg.avi=1.000=0=0=1=====,
99999=-nosongbg-=1.000=0=0=0 // don't automatically add -songbackground-
;
#KEYSOUNDS:;
#ATTACKS:;

//---------------dance-single - ----------------
#NOTES:
     dance-single:
     :
     Hard:
     17:
     0.809185,1.280367,0.582164,0.440556,0.169142,720.000000,646.000000,74.000000,56.000000,0.000000,0.000000,0.809185,1.280367,0.582164,0.440556,0.169142,720.000000,646.000000,74.000000,56.000000,0.000000,0.000000:
// measure 0
0000
0000
0000
0000
,  // measure 1
0000
0000
0000
0000
,  // measure 2
0000
0000
0000
0000
,  // measure 3
0000
0000
0000
0000
,  // measure 4
0000
0000
0000
0000
,  // measure 5
0000
0000
0000
0000
,  // measure 6
0000
0000
0000
0000
,  // measure 7
0000
0000
0000
0000
,  // measure 8
0000
0000
0000
0000
,  // measure 9
0100
0001
0100
0001
0100
0000
0010
0000
1000
0000
0001
0000
1000
0000
0001
0000
,  // measure 10
0010
1000
0010
0001
1000
0100
0010
0100
,  // measure 11
1000
0001
1000
0001
1000
0000
0001
0000
0100
0000
0010
0000
0100
0000
0010
0000
,  // measure 12
1000
0100
1000
0100
0001
0100
1000
0100
,  // measure 13
0010
0100
0010
0100
0010
0000
0001
0000
0100
0000
0010
0000
0001
0000
0010
0000
,  // measure 14
0100
0001
0100
0001
1000
0010
0100
0010
,  // measure 15
1000
0100
1000
0100
1000
0000
0100
0000
0001
0000
0100
0000
1000
0000
0001
0000
,  // measure 16
0100
0010
0100
0010
0001
0010
1000
0100
,  // measure 17
1100
0100
0001
0101
0100
1000
1010
0010
,  // measure 18
0001
0011
0010
1000
1010
1000
0100
0220
,  // measure 19
0000
0000
0000
0330
,  // measure 20
0000
0000
0000
0000
,  // measure 21
0002
0203
0320
2030
,  // measure 22
3002
0000
0003
0000
,  // measure 23
0110
1010
0000
1100
0000
0011
0000
2001
,  // measure 24
0000
0100
0100
0100
,  // measure 25
0100
0100
0100
0100
,  // measure 26
0100
0100
0100
0100
,  // measure 27
3100
0100
0001
0100
1000
0010
0000
1002
,  // measure 28
0000
0100
0100
0100
,  // measure 29
0100
0100
0100
0100
,  // measure 30
0100
0100
0100
0100
,  // measure 31
0103
0000
0001
0100
0001
0000
1000
0000
0010
0000
0010
0000
0010
0000
0210
0000
,  // measure 32
0000
0310
1000
0100
0010
0001
0010
0001
,  // measure 33
1000
0010
0100
0001
1000
0010
1000
0010
,  // measure 34
0100
0001
1000
0100
0010
0100
1000
0001
,  // measure 35
0100
0110
0000
0101
0000
1100
0000
0120
,  // measure 36
0000
0031
1000
0100
1000
0001
1000
0001
,  // measure 37
1000
0010
0100
0001
1000
0100
0010
0001
,  // measure 38
1000
0001
1000
0001
0100
0010
1000
0020
,  // measure 39
0000
0130
0002
0000
1003
0000
1000
0000
,  // measure 40
1010
0000
0101
0000
0110
0000
0100
0001
,  // measure 41
0011
0000
1100
0000
1000
0001
0000
2001
,  // measure 42
0000
3001
0100
0010
1000
0001
1000
0001
,  // measure 43
0010
0100
1000
0001
0100
0010
0100
0010
,  // measure 44
1000
0001
1000
0100
0001
0100
1000
0001
,  // measure 45
1000
0001
0100
0010
1000
0001
1000
2001
,  // measure 46
0000
3001
0010
0001
1000
0001
0100
0001
,  // measure 47
1000
0010
0100
0001
2000
0000
3001
1000
,  // measure 48
0100
1000
0100
0010
0001
0100
0010
1000
,  // measure 49
0001
0000
0001
0000
0010
0000
0100
0000
0010
0001
0010
0100
1000
0100
2000
0000
,  // measure 50
0000
3001
0100
0001
1000
0100
1000
0001
,  // measure 51
0010
0100
0010
0100
0010
1000
0010
0001
,  // measure 52
1000
0001
1000
0001
0010
0100
0010
0001
,  // measure 53
0100
0010
0100
0010
0100
1000
0100
0001
,  // measure 54
1000
0010
1000
0010
0100
0010
1000
0001
,  // measure 55
1000
0100
1000
0100
0010
0100
1000
0001
,  // measure 56
1000
1000
0100
0001
0001
0100
1000
1000
,  // measure 57
0010
0001
0001
0010
1000
1000
0100
0220
,  // measure 58
0000
0000
0000
0330
,  // measure 59
1001
1001
1001
0000
0000
0000
0000
0000
,  // measure 60
0220
0000
0330
0011
0000
1010
0000
0120
,  // measure 61
0000
1030
2100
3001
,  // measure 62
0010
0000
0100
0000
0010
0000
0100
1000
0010
0000
0100
0000
0010
0000
0100
0010
,  // measure 63
1000
1000
0100
0100
0001
0001
0010
0010
,  // measure 64
1000
0001
1000
0001
0010
0100
0010
0001
,  // measure 65
1000
0001
0100
0001
1000
0010
0200
0000
,  // measure 66
0310
0010
1000
1000
0001
0010
0100
1000
,  // measure 67
0000
1000
0100
0010
0000
0010
0001
0100
,  // measure 68
0220
0000
0330
1010
0000
0011
0000
0120
,  // measure 69
0000
0031
0102
1003
,  // measure 70
0010
0000
0100
0000
0010
0000
0100
0001
0010
0000
0100
0000
0010
0000
0100
0000
,  // measure 71
1002
0103
2100
3010
,  // measure 72
0100
0000
0010
0000
1000
0010
1000
0000
0100
0010
0100
0000
1000
0100
1000
0000
,  // measure 73
0001
0100
0001
0000
0100
0001
0100
0000
0010
1000
0010
0000
0200
0000
0000
0000
,  // measure 74
0310
1000
0010
1000
0001
0100
0010
1000
,  // measure 75
0000
1000
0100
1000
0000
1000
0010
0010
,  // measure 76
0220
0000
0330
0001
1000
0000
0001
0000
,  // measure 77
0202
0000
0303
1000
0100
0000
1000
0000
,  // measure 78
2200
0000
3300
0001
0100
0000
0100
0001
,  // measure 79
1000
0001
0000
0001
2000
0000
3001
1000
,  // measure 80
1100
0000
0102
0000
0103
0010
0100
0000
,  // measure 81
1010
0000
0012
0000
0013
0100
0010
0000
,  // measure 82
1100
1000
0100
0000
1001
0001
0100
0010
,  // measure 83
1000
0010
1000
0001
0100
0010
1000
0001
,  // measure 84
2002
0000
3003
0010
0100
0000
0010
0000
,  // measure 85
0022
0000
0033
0100
0010
0000
0100
0000
,  // measure 86
2200
0000
3300
0010
0001
0000
0001
0100
,  // measure 87
0010
1000
0000
0020
0000
0000
0130
0000
,  // measure 88
0001
0100
0001
0100
0010
1000
0010
1000
,  // measure 89
0100
1000
0100
1000
0100
1000
0100
1000
0001
0010
0001
0010
0001
0010
0001
0010
,  // measure 90
0001
0101
0101
0110
2002
3003
0110
2200
,  // measure 91
3300
0001
0100
0001
0011
0101
0110
1010
,  // measure 92
0000
0210
0000
0000
,  // measure 93
0301
1000
0001
1000
0001
1000
0001
1000
0001
1000
0001
1000
0100
0000
0000
0000
,  // measure 94
0010
0001
0010
0001
0010
0000
0100
0000
1000
0000
0001
0000
1000
0000
0001
0000
,  // measure 95
0100
1000
0100
0001
1000
0010
0100
0010
,  // measure 96
1000
0001
1000
0001
1000
0000
0001
0000
0010
0000
0100
0000
0010
0000
0100
0000
,  // measure 97
1000
0010
1000
0010
0001
0010
1000
0010
,  // measure 98
0100
0010
0100
0010
0100
0000
0001
0000
0010
0000
0100
0000
0001
0000
0100
0000
,  // measure 99
0010
0001
0010
0001
1000
0100
0010
0100
,  // measure 100
1000
0010
1000
0010
1000
0000
0010
0000
0001
0000
0010
0000
1000
0000
0001
0000
,  // measure 101
0010
0100
0010
0100
0001
0100
1000
0010
,  // measure 102
1010
0010
0001
0011
0010
1000
1100
0100
,  // measure 103
0001
0101
0100
1000
1100
1000
0010
0220
,  // measure 104
0000
0000
0000
0330
,  // measure 105
0000
0000
0000
0000
,  // measure 106
0000
0000
0000
0000
,  // measure 107
0110
1010
0000
1100
0000
0011
0000
2002
,  // measure 108
0000
0000
3003
0000
;

//---------------dance-single - ----------------
#NOTES:
     dance-single:
     :
     Medium:
     14:
     0.699046,0.725541,0.228145,0.275348,0.000000,622.000000,593.000000,29.000000,35.000000,0.000000,0.000000,0.699046,0.725541,0.228145,0.275348,0.000000,622.000000,593.000000,29.000000,35.000000,0.000000,0.000000:
// measure 0
0000
0000
0000
0000
,  // measure 1
0000
0000
0000
0000
,  // measure 2
0000
0000
0000
0000
,  // measure 3
0000
0000
0000
0000
,  // measure 4
0000
0000
0000
0000
,  // measure 5
0000
0000
0000
0000
,  // measure 6
0000
0000
0000
0000
,  // measure 7
0000
0000
0000
0000
,  // measure 8
0000
0000
0000
0000
,  // measure 9
1000
0010
1000
0010
0100
0001
1000
0001
,  // measure 10
0010
0100
0010
0100
1000
0100
0010
0001
,  // measure 11
1000
0001
1000
0100
1000
0001
0100
0001
,  // measure 12
1000
0010
0001
0010
0100
0100
0010
1000
,  // measure 13
0001
0010
0001
0010
0100
1000
0001
1000
,  // measure 14
0010
0100
0010
0100
0001
0100
0010
1000
,  // measure 15
0001
1000
0001
0100
0001
1000
0100
1000
,  // measure 16
0001
0010
1000
0010
0100
0100
0010
0001
,  // measure 17
1000
1000
0100
0001
0001
0100
1000
1000
,  // measure 18
0010
0001
0001
0010
1000
1000
0100
0020
,  // measure 19
0000
0000
0000
0030
,  // measure 20
0000
0000
0000
0000
,  // measure 21
0002
0203
0320
2030
,  // measure 22
3002
0000
0003
0000
,  // measure 23
0010
0100
0000
1100
0000
0101
0000
1002
,  // measure 24
0000
0010
0013
0010
,  // measure 25
0010
0010
0010
0010
,  // measure 26
0100
0100
0100
0100
,  // measure 27
1000
0001
0010
0001
0100
0010
0000
2001
,  // measure 28
0000
0100
3100
0100
,  // measure 29
0100
0100
0100
0100
,  // measure 30
0010
0010
0010
0010
,  // measure 31
0001
0100
0010
1000
0100
0010
0100
2000
,  // measure 32
0000
3001
0010
0100
1000
0001
1000
0001
,  // measure 33
0010
0100
0010
0001
1000
0010
1000
0010
,  // measure 34
0100
0001
1000
0010
0100
0010
0001
0010
,  // measure 35
1000
0010
0000
1100
0000
0101
0000
2001
,  // measure 36
0000
3001
0100
0001
1000
0010
0100
0001
,  // measure 37
0010
0100
0010
0100
1000
0010
1000
0100
,  // measure 38
0010
0001
0100
0010
1000
0100
0010
0200
,  // measure 39
0000
0310
0001
0010
0100
0000
1000
0000
,  // measure 40
1001
0000
0110
0000
1001
0000
0001
0100
,  // measure 41
0110
0000
1001
0000
1000
0100
0000
0020
,  // measure 42
0000
0031
1000
0001
0100
0010
0100
0010
,  // measure 43
1000
0001
1000
0001
0100
0010
1000
0001
,  // measure 44
0010
0100
0010
0100
0010
1000
0010
0001
,  // measure 45
0000
0001
1000
0100
0010
0001
0000
0200
,  // measure 46
0000
0310
1000
0001
1000
0100
1000
0100
,  // measure 47
0010
0001
0100
0010
1000
0001
1000
0200
,  // measure 48
0000
1300
0001
0100
0010
0010
1000
0001
,  // measure 49
1000
1000
0000
0100
0010
0010
0001
2000
,  // measure 50
0000
3100
1000
0010
0100
0001
0100
0001
,  // measure 51
1000
0010
0100
0001
0010
0100
0010
0100
,  // measure 52
1000
0001
1000
0001
0100
0010
0100
0001
,  // measure 53
1000
0010
1000
0010
0100
0010
1000
0001
,  // measure 54
0010
0100
0010
0100
1000
0100
0010
0001
,  // measure 55
0100
0010
0100
0010
1000
0010
0100
0001
,  // measure 56
1000
0100
1000
0001
0100
0001
1000
0010
,  // measure 57
1000
0001
0010
0001
1000
0100
0001
0200
,  // measure 58
0000
0000
0000
0000
,  // measure 59
1300
0001
1001
0000
0000
0000
0000
0000
,  // measure 60
1100
0000
0000
0011
0000
0110
0000
2001
,  // measure 61
0000
3010
1000
1000
,  // measure 62
0001
0010
0001
0010
0100
1000
0100
1000
,  // measure 63
0001
0010
0100
1000
0010
0100
0020
0000
,  // measure 64
1030
0100
0010
0100
1000
0001
1000
0001
,  // measure 65
0100
0010
1000
0001
0010
0100
2000
0000
,  // measure 66
3001
0100
0001
0100
0010
0100
0001
0010
,  // measure 67
0000
0010
1000
0010
0000
0010
0001
0000
,  // measure 68
0101
0000
0000
1010
0000
0110
0000
1002
,  // measure 69
0000
0013
0001
0001
,  // measure 70
1000
0010
1000
0010
0100
0001
0100
0001
,  // measure 71
0020
0130
0200
0310
,  // measure 72
0001
0100
0010
1000
0001
0010
0001
0010
,  // measure 73
0100
0010
1000
0010
0001
0100
0020
0000
,  // measure 74
1030
0100
1000
0100
0010
0100
1000
0010
,  // measure 75
0000
0010
0001
0010
0000
0010
0100
0000
,  // measure 76
0110
0000
0000
0001
1000
0000
0001
0000
,  // measure 77
1001
0000
0000
0010
0100
0000
0010
0000
,  // measure 78
0110
0000
0000
1000
0001
0000
1000
0001
,  // measure 79
0100
0010
0000
0010
0200
0000
0310
0000
,  // measure 80
2000
0000
0100
0000
0000
3100
1000
0000
,  // measure 81
0002
0000
0100
0000
0000
0103
0001
0000
,  // measure 82
1000
0010
1000
0000
0001
0100
0001
0010
,  // measure 83
0100
0010
0100
0010
0100
1000
0001
1000
,  // measure 84
0002
0000
0003
0100
0010
0000
1000
0000
,  // measure 85
0200
0000
0300
0010
0200
0000
0300
0000
,  // measure 86
2000
0000
3000
0100
0010
0000
0001
0000
,  // measure 87
0100
0010
0000
0020
0000
0000
0130
0000
,  // measure 88
0001
0010
0001
0010
0100
1000
0100
1000
,  // measure 89
0001
0010
0100
1000
0001
0010
0100
1000
,  // measure 90
0010
0100
0010
0100
0010
0000
0010
0100
,  // measure 91
0000
0100
0010
0100
0001
1000
0001
1000
,  // measure 92
0000
0120
0000
0000
,  // measure 93
1030
0010
1000
0010
0001
0010
0110
0000
,  // measure 94
1000
0100
1000
0100
0010
0001
1000
0001
,  // measure 95
0100
0010
0100
0010
1000
0010
0100
0001
,  // measure 96
1000
0001
1000
0010
1000
0001
0010
0001
,  // measure 97
1000
0100
0001
0100
0010
0010
0100
1000
,  // measure 98
0001
0100
0001
0100
0010
1000
0001
1000
,  // measure 99
0100
0010
0100
0010
0001
0010
0100
1000
,  // measure 100
0001
1000
0001
0010
0001
1000
0010
1000
,  // measure 101
0001
0100
1000
0100
0010
0010
0100
0001
,  // measure 102
1000
1000
0010
0001
0001
0010
1000
1000
,  // measure 103
0100
0001
0001
0100
1000
1000
0010
0200
,  // measure 104
0000
0000
0000
0300
,  // measure 105
0000
0000
0000
0000
,  // measure 106
0000
0000
0000
0000
,  // measure 107
0010
0100
0000
1100
0000
0101
0000
2002
,  // measure 108
0000
0000
3003
0000
;

//---------------dance-single - ----------------
#NOTES:
     dance-single:
     :
     Easy:
     11:
     0.495626,0.597505,0.228145,0.259614,0.000000,441.000000,412.000000,29.000000,33.000000,0.000000,0.000000,0.495626,0.597505,0.228145,0.259614,0.000000,441.000000,412.000000,29.000000,33.000000,0.000000,0.000000:
// measure 0
0000
0000
0000
0000
,  // measure 1
0000
0000
0000
0000
,  // measure 2
0000
0000
0000
0000
,  // measure 3
0000
0000
0000
0000
,  // measure 4
0000
0000
0000
0000
,  // measure 5
0000
0000
0000
0000
,  // measure 6
0000
0000
0000
0000
,  // measure 7
0000
0000
0000
0000
,  // measure 8
0000
0000
0000
0000
,  // measure 9
1000
0010
1000
0000
0100
0000
0100
0000
,  // measure 10
0001
0001
0100
1000
,  // measure 11
0010
1000
0010
0000
0100
0000
0100
0000
,  // measure 12
0001
0001
0010
0110
,  // measure 13
0001
0010
0001
0000
0100
0000
0100
0000
,  // measure 14
1000
1000
0100
0001
,  // measure 15
0010
0001
0010
0000
0100
0000
0100
0000
,  // measure 16
1000
1000
0010
1001
,  // measure 17
0010
0000
1000
0100
0000
0010
0001
0000
,  // measure 18
0100
0001
0000
0010
0100
0000
1000
0020
,  // measure 19
0000
0000
0000
0030
,  // measure 20
0000
0000
0000
0000
,  // measure 21
0002
0000
0203
0000
,  // measure 22
2300
0000
3000
0000
,  // measure 23
0010
0100
0000
0010
0000
0010
0000
2001
,  // measure 24
0000
3010
0100
0010
,  // measure 25
0100
0010
0100
0010
,  // measure 26
0100
0010
0100
0010
,  // measure 27
1000
0100
1000
0100
1000
0100
0000
1002
,  // measure 28
0000
0103
0010
0100
,  // measure 29
0010
0100
0010
0100
,  // measure 30
0010
0100
0010
0100
,  // measure 31
0001
0010
0001
0000
0100
0010
0100
0010
,  // measure 32
0000
1000
0100
0000
1000
0000
1000
0000
,  // measure 33
0001
0000
0001
0000
0100
0010
1000
0000
,  // measure 34
0001
0000
0001
0000
0010
0100
0010
0000
,  // measure 35
0100
1000
0000
0010
0000
0010
0000
0110
,  // measure 36
0000
1000
0001
0000
0100
0010
1000
0000
,  // measure 37
0001
0100
0001
0000
2000
0000
3100
0000
,  // measure 38
1000
0001
1000
0000
0001
0100
0010
2000
,  // measure 39
0000
0100
0001
3010
,  // measure 40
0110
0110
0110
0001
,  // measure 41
0011
0000
0011
0000
0100
0000
0000
2000
,  // measure 42
0000
0000
3001
0000
1000
0100
1000
0000
,  // measure 43
0010
0100
0010
0000
0200
0000
0310
0000
,  // measure 44
1000
0001
1000
0000
0010
0000
1000
0001
,  // measure 45
0000
0001
0010
0000
0100
1000
0000
0020
,  // measure 46
0000
1030
0001
0100
,  // measure 47
0010
1000
0010
0000
2000
0000
3001
0000
,  // measure 48
0010
0100
0010
0000
0100
0000
1000
0000
,  // measure 49
0010
0100
0000
0010
0000
0100
0000
0002
,  // measure 50
0000
0000
1003
0000
0100
1000
0100
0000
,  // measure 51
0010
0001
0010
0000
0100
0000
0100
0000
,  // measure 52
1000
0001
1000
0000
0001
0000
0100
0002
,  // measure 53
0000
0000
0103
0000
0010
1000
0000
0200
,  // measure 54
0000
0000
0310
0000
0100
1000
0000
0020
,  // measure 55
0000
0100
0001
1030
,  // measure 56
0001
0000
0010
0100
0000
1000
0010
0000
,  // measure 57
1000
0100
0000
0010
0001
0000
0100
0020
,  // measure 58
0000
0000
0000
0030
,  // measure 59
0100
0100
0100
0000
0000
0000
0000
0000
,  // measure 60
1010
0000
0000
0011
0000
0011
0000
0011
,  // measure 61
0000
0100
0010
0100
,  // measure 62
1000
0100
1000
0000
0010
0100
0010
0000
,  // measure 63
1010
0010
0011
0010
,  // measure 64
1010
0000
0010
0000
1000
0100
0010
0000
,  // measure 65
0001
0100
0010
0000
1000
0000
0100
0000
,  // measure 66
0010
0000
0010
0000
0100
1000
0100
1000
,  // measure 67
0000
0001
0010
0100
0000
1000
0010
0000
,  // measure 68
0011
0000
0000
1010
0000
1010
0000
1010
,  // measure 69
0000
0100
0010
0100
,  // measure 70
0001
0100
0001
0000
0010
0100
0010
0000
,  // measure 71
0011
0010
1010
0010
,  // measure 72
0011
0000
0010
0000
0001
0100
0010
0000
,  // measure 73
1000
0100
0010
0000
0001
0000
0100
0000
,  // measure 74
0010
0000
0010
0000
0100
0001
0100
0001
,  // measure 75
0000
1000
0010
0100
0000
0001
0010
0000
,  // measure 76
0100
0000
0000
1000
0100
0000
0100
0000
,  // measure 77
0001
0000
0000
0100
1000
0000
1000
0000
,  // measure 78
0010
0000
0000
1000
0010
0000
0010
0000
,  // measure 79
0001
0010
0000
0010
0000
0000
1000
0000
,  // measure 80
0001
0020
0030
0010
,  // measure 81
1000
0200
0300
0100
,  // measure 82
0001
0010
0000
0000
1000
0100
0000
0100
,  // measure 83
1000
0010
0000
0001
0000
0100
0000
0010
,  // measure 84
2000
3000
0100
0100
,  // measure 85
0200
0300
2000
3000
,  // measure 86
0020
0030
0001
0001
,  // measure 87
0002
0003
0020
0030
,  // measure 88
1000
1000
0001
0001
,  // measure 89
2000
3020
0230
0302
,  // measure 90
0013
0100
0010
0000
0100
0000
0010
0100
,  // measure 91
0000
0010
0100
0010
0100
0010
0100
0010
,  // measure 92
0000
2001
0000
0000
,  // measure 93
3010
0010
0010
0110
,  // measure 94
1000
0100
1000
0000
0010
0000
0010
0000
,  // measure 95
0001
0001
0010
1000
,  // measure 96
0100
1000
0100
0000
0010
0000
0010
0000
,  // measure 97
0001
0001
0100
0110
,  // measure 98
0001
0100
0001
0000
0010
0000
0010
0000
,  // measure 99
1000
1000
0010
0001
,  // measure 100
0100
0001
0100
0000
0010
0000
0010
0000
,  // measure 101
1000
1000
0100
1001
,  // measure 102
0100
0000
1000
0010
0000
0100
0001
0000
,  // measure 103
0010
0001
0000
0100
0010
0000
1000
0200
,  // measure 104
0000
0000
0000
0300
,  // measure 105
0000
0000
0000
0000
,  // measure 106
0000
0000
0000
0000
,  // measure 107
0010
0100
0000
0010
0000
0010
0000
2002
,  // measure 108
0000
0000
3003
0000
;

//---------------dance-single - ----------------
#NOTES:
     dance-single:
     :
     Beginner:
     6:
     0.264109,0.384110,0.031468,0.125873,0.000000,235.000000,231.000000,4.000000,16.000000,0.000000,0.000000,0.264109,0.384110,0.031468,0.125873,0.000000,235.000000,231.000000,4.000000,16.000000,0.000000,0.000000:
0000
0000
0000
0000
,
0000
0000
0000
0000
,
0000
0000
0000
0000
,
0000
0000
0000
0000
,
0000
0000
0000
0000
,
0000
0000
0000
0000
,
0000
0000
0000
0000
,
0000
0000
0000
0000
,
0000
0000
0000
0000
,
1000
1000
1000
0000
,
0100
0000
0010
0000
,
0001
0001
0001
0000
,
0100
0000
0010
0000
,
0100
0100
0100
0000
,
0001
0010
0001
0000
,
0010
0010
0010
0000
,
1000
0100
1000
0000
,
0001
0000
0000
0001
0000
0000
1000
0000
,
0000
1000
0000
0000
0010
0000
0000
0020
,
0000
0000
0000
0030
,
0000
0000
0000
0000
,
0200
0000
0000
0000
,
0300
0000
0000
0000
,
1000
0000
0000
0010
0000
0010
0000
0010
,
0000
0100
0100
0000
,
0100
0010
0100
0000
,
0100
0010
0100
0000
,
0001
0000
0000
0010
0000
0010
0000
0010
,
0000
0100
0100
0000
,
0100
0010
0100
0000
,
0100
0010
0100
0000
,
1000
0000
1000
0000
1000
0000
0000
0010
,
0000
0100
0100
0000
,
0001
0100
0001
0000
,
0010
0100
0010
0000
,
0100
0100
0100
0000
,
0010
0010
0010
0000
,
0001
0010
0001
0000
,
0100
0000
0100
0000
,
0020
0000
0030
0000
,
1000
1000
1000
0000
,
0001
0001
0001
0000
,
1000
0000
0100
0000
,
1000
0000
0100
0000
,
1000
0000
1000
0000
,
0010
0010
0010
0000
,
0001
0000
0100
0000
,
0001
0000
0001
0000
,
0001
0100
0001
0000
,
0010
0010
0010
0000
,
0100
0000
0100
0000
,
1000
0000
0100
0000
,
1000
0000
0010
0000
,
0100
0000
0100
0000
,
0002
0000
0003
0000
,
2000
0000
3000
0000
,
0001
0000
0000
0001
0000
0000
1000
0000
,
0000
1000
0000
0000
0010
0000
0000
0020
,
0000
0000
0000
0030
,
0110
0000
0000
0000
,
1001
0000
0000
0100
0000
0100
0000
0100
,
0000
1000
0001
1000
,
0001
0000
0001
0000
,
1000
0100
1000
0000
,
0010
0000
0100
0000
,
0010
0010
0010
0000
,
1000
0000
1000
0000
1000
0000
0000
0100
,
0000
0000
0000
0010
0000
0000
0001
0000
,
1001
0000
0000
0010
0000
0010
0000
0010
,
0000
0001
1000
0001
,
1000
0000
1000
0000
,
0001
0010
0001
0000
,
0100
0000
0010
0000
,
0100
0100
0100
0000
,
0001
0001
0001
0000
,
0020
0000
0030
0000
,
0100
0000
0100
0000
,
1000
0000
1000
0000
,
0001
0000
0100
0000
,
0002
0000
0003
0000
,
1000
1000
0000
1000
,
2000
3000
0020
0030
,
1000
0000
0100
0000
,
1000
1000
1000
1000
,
0001
0000
0001
0000
,
0010
0000
0001
0000
,
1000
0000
0010
0000
,
2000
0000
3000
0000
,
0001
0000
0001
0000
,
0002
0000
0003
0000
,
0010
0000
0010
0000
0010
0000
0000
0100
,
0000
0000
0010
0000
0100
0000
0000
0010
,
0000
0220
0000
0000
,
0330
0000
0000
0000
,
0001
0001
0001
0000
,
0010
0000
0100
0000
,
1000
1000
1000
0000
,
0010
0000
0100
0000
,
0010
0010
0010
0000
,
1000
0100
1000
0000
,
0100
0100
0100
0000
,
0001
0010
0001
0000
,
1000
0000
0000
1000
0000
0000
0001
0000
,
0000
0001
0000
0000
0100
0000
0000
0200
,
0000
0000
0000
0300
,
0000
0000
0000
0000
,
0000
0000
0000
0000
,
0001
0000
0000
0100
0000
1000
0000
0020
,
0000
0000
0030
0000
;
