#TITLE:失礼しますが、RIP♡;
#SUBTITLE:;
#ARTIST:森 カリオペ;
#TITLETRANSLIT:Excuse My Rudeness, But Could You Please RIP?;
#SUBTITLETRANSLIT:;
#ARTISTTRANSLIT:Calliope Mori;
#GENRE:Variety;
#CREDIT:;
#BANNER:Excuse My Rudeness But Could You Please RIP.png;
#BACKGROUND:Excuse My Rudeness But Could You Please RIP-bg.png;
#LYRICSPATH:;
#CDTITLE:../cdtitle.png;
#MUSIC:Excuse My Rudeness But Could You Please RIP.ogg;
#OFFSET:2.022000;
#SAMPLESTART:11.524000;
#SAMPLELENGTH:15.000000;
#LASTBEATHINT:2.112134;
#SELECTABLE:YES;
#BPMS:0.000000=124.000000
,120.000000=62.000000
,121.000000=124.000000
,127.000000=62.000000
,128.000000=124.000000
,134.000000=62.000000
,135.000000=124.000000
,141.000000=62.000000
,142.000000=124.000000
;
#STOPS:26.000000=0.484000,
119.000000=1.452000,
148.000000=0.484000
;
#BGCHANGES:3.750=Excuse My Rudeness But Could You Please RIP.avi=1.000=0=0=0=StretchNoLoop====,
99999=-nosongbg-=1.000=0=0=0 // don't automatically add -songbackground-
;
#KEYSOUNDS:;
#ATTACKS:;

//---------------dance-single - ----------------
#NOTES:
     dance-single:
     :
     Challenge:
     15:
     0.639966,0.728760,0.218970,0.209846,0.734462,491.000000,467.000000,24.000000,23.000000,8.000000,0.000000,0.639966,0.728760,0.218970,0.209846,0.734462,491.000000,467.000000,24.000000,23.000000,8.000000,0.000000:
0000
0000
0000
0000
,
0000
0000
0000
0000
,
0000
0000
0000
0000
,
0000
0000
0000
0000
,
0000
0000
0000
0000
,
0000
0000
0000
0000
,
0000
0000
0000
0000
0000
0000
0000
0000
MMMM
0000
0000
0000
1000
0100
1000
0000
,
0110
0000
0100
1000
0001
1000
0000
1001
0000
0001
0100
0010
1000
0000
0010
0000
,
0001
0000
0010
0000
1000
0000
0100
0010
0000
0010
0100
0000
1000
0100
0010
0000
,
0011
0000
0001
1000
0001
0000
0100
0001
0000
1000
0010
0100
0010
0000
1000
0000
,
0100
0000
0001
0000
0100
0010
0000
0010
0000
0100
0000
1000
0001
0000
1000
0000
,
0100
0000
1000
0000
0001
0100
0001
0000
1100
0000
0001
0000
1000
0000
0010
0000
,
0100
0010
0100
0010
1000
0001
1000
0001
0010
0000
0100
1000
0100
0000
0010
0001
,
0010
0000
0100
1000
0000
0001
0000
1000
0100
0000
0010
0000
0001
0000
0100
0001
,
0100
0000
0001
1000
0000
0001
1000
0000
0200
0000
0300
0000
0110
0000
0001
0010
,
0001
0000
1000
0100
0000
1000
0000
0001
1000
0000
0010
0000
0100
0001
0100
0001
,
1000
0000
0010
0100
0000
0001
0000
1000
0100
0000
1000
0000
1000
0001
1000
0000
,
1001
0000
0001
0100
0010
1000
0001
1000
0000
0100
0010
0100
1000
0001
0000
1000
,
0100
0010
0001
0100
0020
0000
0030
0000
2000
0000
3000
0000
1001
0000
0001
0000
,
0010
0000
0001
0000
0100
0000
0010
1000
0100
0010
0000
0110
0000
0100
1000
0001
,
1000
0001
0100
0010
2000
0000
3000
0000
0002
0000
0003
0000
0100
0000
0001
0100
,
0001
0000
1000
0100
1000
0001
1000
0010
0100
0000
0001
1000
0001
0000
0100
0010
,
0100
0001
0010
0100
2000
0000
3000
0000
0002
0000
0003
0000
2000
0000
0000
0000
,
0100
0000
0000
0000
3002
0000
0000
0100
0000
0000
0103
0000
0010
0000
1000
0100
,
0000
1000
0100
0000
0020
0000
0000
0000
0031
0000
0000
0000
0100
0000
0001
0000
,
1000
0000
0001
0000
0100
0010
0000
1000
0000
0000
1000
0000
0001
0000
0010
0000
,
1000
0000
0010
0000
0001
0100
0000
0010
0000
0000
0020
0000
1030
0000
0100
0000
,
0001
0000
0100
0000
1000
0000
0010
0000
0001
0000
0010
0000
1000
0000
0010
1000
,
0000
1000
0100
0000
0010
0000
0100
1000
0000
1000
0001
0000
0001
0010
0100
1000
,
0000
1000
0001
0100
0001
0100
0010
1000
0000
1000
0100
0010
0001
0000
0000
0000
,
0220
0000
0330
0000
1000
0100
1000
0100
1000
0000
1000
0010
1000
0010
1000
0000
,
1001
0000
0100
0000
0110
0000
0001
0000
0100
0010
0100
0010
2000
0000
3000
0000
,
0001
0010
0001
0000
0010
0000
1000
0010
1000
0010
0001
0000
0010
0001
0010
0001
,
0100
0000
0010
0000
1000
0100
1000
0100
0002
0000
0003
0000
0100
0010
0100
0010
,
0100
0000
1000
0001
1000
0001
1000
0000
1001
0000
0010
0000
0110
0000
0001
0000
,
1000
0000
0001
0000
1000
0000
0000
0000
0100
0000
0000
0000
0010
0000
0000
0000
0002
0000
0000
0000
0000
0000
0000
0000
0003
0000
0000
0000
0000
0000
0001
0100
0001
0000
0000
0000
1000
0000
0000
0000
0001
0000
0000
0000
1000
0000
0000
0000
0010
0000
0000
0000
0000
0000
0000
0000
0100
0000
0010
0000
0100
0000
0000
0000
,
0001
1000
0100
0000
1000
0100
0010
0001
0100
0000
0010
0000
0100
0001
0010
0100
,
2000
3000
0000
0000
0000
0000
0000
0000
0000
0000
0000
0000
0000
0000
0000
0000
0110
0000
0000
0000
0000
0000
0000
0000
0001
0000
0000
0000
0000
0000
0000
0000
1000
0000
0000
0000
0100
0000
0000
0000
1000
0000
0000
0000
0000
0000
0000
0000
0001
0000
0000
0000
0100
0000
0000
0000
0000
0000
0000
0000
0100
0000
0000
0000
,
0001
0000
1000
0000
0010
0000
0100
0001
0010
0000
0100
1000
0020
0000
0000
0000
,
0130
0000
0000
0000
0010
0000
1000
0100
0010
0000
0100
0000
1000
0001
0000
0001
,
0100
0000
0001
0000
1000
0000
0010
0100
0000
0001
1000
0000
1001
0000
0001
0000
,
0010
0000
0010
0000
1000
0000
0010
0001
0000
0001
1000
0000
0010
0000
0010
0000
,
0001
0000
0000
0000
0000
0000
0001
0000
0000
0000
0000
0000
0010
0000
0000
0000
0000
0000
1000
0000
0000
0001
0000
0000
0000
0000
0000
0001
0000
0000
0010
0000
0000
0000
0000
0000
0100
0000
0000
0000
1000
0000
0000
0000
0010
0000
0000
0000
,
0001
0000
0010
0000
1000
0000
0100
0000
0001
0000
0100
0000
1000
0000
0001
0000
1000
0000
0020
0000
0000
0030
0000
0000
,
1000
0100
0010
0001
0100
0000
0010
0000
1000
0000
0100
0000
0020
0000
0000
0000
,
0030
0000
0000
0000
0110
0000
0001
0000
1000
0010
1000
0000
0001
0010
0100
0010
,
0001
0000
1000
0000
0100
0010
0100
0010
0001
0000
0100
0010
2000
0000
3100
0000
,
0001
0000
0100
0000
1000
0000
0010
0100
0010
0000
1000
0001
0010
0001
0000
1000
,
0100
0000
0010
0000
0001
0000
0001
0100
0010
1000
0010
0100
0001
0000
0101
0000
,
0001
1001
0001
0101
0001
0011
1000
1100
,
1000
0000
1001
0000
1000
0000
1100
0000
1000
0000
1010
0000
0100
0001
0100
0001
,
1000
0010
1000
0010
0100
0001
0100
0010
1000
0100
0010
0100
2000
0000
3000
0000
,
0100
1000
0001
0010
0100
0000
0010
0000
0001
0000
0100
0000
0020
0000
0000
0000
,
0030
MMMM
0000
0000
;

//---------------dance-single - ----------------
#NOTES:
     dance-single:
     :
     Hard:
     11:
     0.441850,0.461548,0.100361,0.218970,0.136856,339.000000,328.000000,11.000000,24.000000,0.000000,0.000000,0.441850,0.461548,0.100361,0.218970,0.136856,339.000000,328.000000,11.000000,24.000000,0.000000,0.000000:
0000
0000
0000
0000
,
0000
0000
0000
0000
,
0000
0000
0000
0000
,
0000
0000
0000
0000
,
0000
0000
0000
0000
,
0000
0000
0000
0000
,
0000
0000
0000
0000
0000
0000
1000
0100
,
0001
0000
0100
0000
1000
0000
0000
0001
0000
0000
0001
0000
0010
0000
1000
0000
,
0010
0000
0001
0000
1000
0000
0000
0010
0000
0000
0010
0000
0100
0000
0001
0000
,
0010
0000
1000
0000
0001
0000
0000
0100
0000
0000
0100
0000
1000
0000
0010
0000
,
0001
0010
2000
3000
0002
0003
0110
0001
,
1000
0010
1000
0100
0010
0010
0100
1000
,
0001
0010
0001
0100
0010
0010
1000
0100
,
1100
0000
0010
0001
0011
0000
0001
0100
,
0010
1000
0002
0000
0023
0000
0130
1000
,
0001
1000
0010
0100
0001
0001
0100
0001
,
1000
0001
0010
0100
1000
1000
0001
0010
,
0100
0000
0010
0000
0001
0000
0000
0001
0000
0000
0100
0000
0010
0000
0000
0000
,
1000
0100
2000
0000
3002
0000
1003
0010
,
0001
0000
0010
0000
1000
0000
0100
0000
0001
0000
0000
1000
0000
0000
1000
0000
,
0010
0001
0010
0100
0010
0001
1000
0010
,
1010
0000
0100
0001
0101
0000
1000
0100
,
0010
0100
2000
0000
3002
0000
2003
0000
,
0100
0000
0000
0000
3002
0000
0000
0100
0000
0000
0103
0000
0010
0000
1000
0100
,
0000
0010
0100
0000
2000
0000
0000
0000
3001
0000
0000
0000
1000
0000
0100
0000
,
0001
0000
0100
0000
1000
0000
0000
0001
0000
0000
0101
0000
1000
0000
0010
0000
,
0001
0000
0010
0000
1000
0000
0000
0001
0000
0000
0011
0000
0100
0000
1000
0000
,
0010
0000
1000
0000
0001
0000
0010
0000
0100
0000
1000
0000
0001
0000
0010
0001
,
0000
0000
0001
0000
0100
0000
0010
1000
0000
0000
1000
0000
0001
0000
0010
0100
,
0000
0100
0010
0000
0001
0000
0100
0010
0000
0010
1000
0000
0001
0000
0000
0000
,
0220
0000
0330
0000
0001
0100
0000
0000
0001
1000
0000
0000
0100
1000
0000
0000
,
1001
0000
0000
0000
0001
0100
0000
0000
0010
0000
1000
0000
0002
0000
0003
0000
,
1000
0100
0000
0000
0001
0000
0000
0000
0100
0000
0000
0000
0010
0001
0000
0000
,
1000
0010
0000
0000
0100
0000
0001
0000
2000
0000
3000
0000
0001
0010
0000
0000
,
0100
1000
0000
0000
0010
1000
0000
0000
0110
0000
0000
0000
0002
0000
0003
0000
,
0010
0100
2000
3000
0001
0100
0001
0000
,
1100
0000
0001
0010
1000
0010
0001
1000
,
0020
0030
0000
0000
0000
0000
0000
0000
0000
0000
0000
0000
0000
0000
0000
0000
1000
0000
0000
0000
0000
0000
0000
0000
0100
0000
0000
0000
0000
0000
0000
0000
1000
0000
0000
0000
0000
0000
0000
0000
1000
0000
0000
0000
0000
0000
0000
0000
0010
0000
0000
0000
0000
0000
0000
0000
0100
0000
0000
0000
0000
0000
0000
0000
,
0001
0010
0100
0100
0010
0001
2000
0000
,
3001
0000
1000
0010
0001
0010
1000
0001
,
0010
0000
0010
0000
1000
0000
0010
0001
0000
1000
0100
0000
1000
0000
0001
0000
,
1000
0001
0100
0001
0100
0001
0100
0010
,
0100
0010
1000
0100
1000
0100
1000
0010
,
0001
0010
1000
0100
0001
0100
0020
0030
,
0001
1000
0010
0010
0100
0001
0020
0000
,
0030
0000
0001
0010
0001
0001
0100
0010
,
1000
0100
0010
0010
0100
1000
0002
0000
,
1003
0000
0001
0100
1000
0100
0001
1000
,
0100
0000
0100
0000
0001
0000
0100
1000
0000
0001
0010
0000
0100
0000
0100
0000
,
1000
1000
0010
0010
0100
0100
0001
0001
,
0010
0010
1000
1000
0010
0010
0001
1000
,
0100
0001
0100
1000
0010
0001
0020
0030
,
1000
0001
0010
0010
0100
1000
0020
0000
,
0030
0100
0000
0000
;

//---------------dance-single - ----------------
#NOTES:
     dance-single:
     :
     Medium:
     8:
     0.341489,0.364380,0.164228,0.237218,0.000000,262.000000,244.000000,18.000000,26.000000,0.000000,0.000000,0.341489,0.364380,0.164228,0.237218,0.000000,262.000000,244.000000,18.000000,26.000000,0.000000,0.000000:
0000
0000
0000
0000
,
0000
0000
0000
0000
,
0000
0000
0000
0000
,
0000
0000
0000
0000
,
0000
0000
0000
0000
,
0000
0000
0000
0000
,
0000
0000
0000
0000
0000
0000
0010
0100
,
0010
0000
0100
0000
0011
0000
1000
0100
,
0001
0000
0001
0100
1000
0000
0001
0100
,
0001
0000
1000
0000
0110
0000
0001
1000
,
0010
0200
0320
0130
,
1001
0000
0100
0100
0010
0000
0001
1000
,
0100
0000
0010
0010
0001
0000
1000
0100
,
1000
0000
0010
0001
0010
0000
1000
0010
,
1000
0000
0200
0000
0320
0000
0130
1000
,
0001
0000
0010
0000
1100
0000
0010
1000
,
0001
0000
0100
0000
1010
0000
0001
0100
,
0010
0000
0100
0001
0010
0000
0100
0000
,
0100
0010
0200
0000
2300
0000
3001
0000
,
0101
0000
1000
0010
1010
0000
1000
0000
,
1100
0000
0002
0000
0023
0000
0031
0100
,
0001
0000
1000
0100
1000
0000
0010
0100
,
0010
0200
0302
2003
,
0100
0000
0000
0000
0100
0000
3001
0100
,
0010
0000
2000
0000
3000
0000
0001
0010
,
0001
0000
0010
0100
0010
0000
0100
1000
,
0100
0200
0300
0010
,
0010
0000
0001
0000
0001
0000
0100
0010
,
1000
0000
0100
0010
0001
0000
0100
0100
,
1000
0000
0010
0010
0001
0000
0100
0000
,
2020
3030
0011
0000
1000
0000
0110
0000
,
0001
0000
0101
0000
0010
1000
0002
0003
,
1100
0001
0110
1000
,
1010
0000
0100
0001
2000
3000
0101
0000
,
1000
0110
0001
0011
,
0100
1000
0002
0003
0010
0001
0100
0000
,
0020
0000
0030
0000
1000
0100
0001
0000
,
0200
0300
0000
0000
0000
0000
0000
0000
0000
0000
0000
0000
0000
0000
0000
0000
1000
0000
0000
0000
0000
0000
0000
0000
1000
0000
0000
0000
0000
0000
0000
0000
0100
0000
0000
0000
0000
0000
0000
0000
0000
0000
0000
0000
0000
0000
0000
0000
0001
0000
0000
0000
0000
0000
0000
0000
0001
0000
0000
0000
0000
0000
0000
0000
,
0100
0000
1000
0100
0010
0000
0002
0000
,
0103
0000
0010
1000
0001
0000
0001
0010
,
0100
0000
1000
0001
0100
0010
1000
1000
,
0100
0000
1000
1000
0010
0000
0100
0100
,
0001
0000
0010
0010
0001
0000
1000
0100
,
0010
0000
0001
0100
0010
0000
2000
3000
,
1000
0010
0100
0001
0010
0000
0200
0000
,
0300
0000
1000
1000
0010
0000
0001
0001
,
0010
0000
1000
0010
0100
0000
0002
0000
,
0013
0000
0100
1000
0001
0000
0001
0100
,
0010
0000
1000
0001
0010
0100
1000
1000
,
0010
0000
1000
1000
0100
0000
0010
0010
,
0001
0000
0100
0100
0001
0000
1000
0010
,
0100
0000
0001
0010
0100
0000
2000
3000
,
1000
0100
0010
0001
0100
0000
0020
0000
,
0030
0100
0000
0000
;

//---------------dance-single - ----------------
#NOTES:
     dance-single:
     :
     Easy:
     6:
     0.252858,0.315796,0.255465,0.273713,0.000000,194.000000,166.000000,28.000000,30.000000,0.000000,0.000000,0.252858,0.315796,0.255465,0.273713,0.000000,194.000000,166.000000,28.000000,30.000000,0.000000,0.000000:
0000
0000
0000
0000
,
0000
0000
0000
0000
,
0000
0000
0000
0000
,
0000
0000
0000
0000
,
0000
0000
0000
0000
,
0000
0000
0000
0000
,
0000
0000
0000
1000
,
0100
1000
0101
0001
,
0010
0001
1010
1000
,
1100
1000
1010
0001
,
0101
0020
0030
1000
,
1000
1000
1001
0001
,
0001
0001
1001
0010
,
1100
0010
0101
1000
,
0001
0020
0030
0001
,
0001
0001
0100
1000
,
1000
1000
0010
0001
,
0100
0002
0003
0020
,
0030
0100
0100
1000
,
0010
1000
0011
0001
,
0100
0001
1100
1000
,
1010
1000
1100
0010
,
0100
2000
3002
2003
,
0000
3200
0000
1300
,
1000
0020
0030
0100
,
0100
0200
0300
0001
,
0001
0002
0003
1000
,
0100
0001
0100
2000
,
3000
0002
0003
0100
,
0010
0100
0010
0100
,
2002
3003
0020
0000
0030
0000
0100
0000
,
0100
0000
1001
0000
0010
0000
0220
0330
,
0002
0003
1000
1000
,
0110
0000
0001
0000
2002
3003
0200
0000
,
0300
0010
0010
0110
,
0001
0000
2000
3000
0002
0000
0003
0000
,
0110
1000
0010
0001
,
0100
1000
0001
1000
,
1100
0001
1000
0002
,
0003
0100
0010
0100
,
0101
0010
0010
1000
,
1000
1000
0011
0001
,
0001
0001
1100
1000
,
0100
0001
0010
2000
,
3000
0100
0010
0200
,
0300
1000
0001
1000
,
1010
0001
1000
0002
,
0003
0010
0100
0010
,
0011
0100
0100
1000
,
1000
1000
0101
0001
,
0001
0001
1010
1000
,
0010
0001
0100
2000
,
3000
0010
0100
0020
,
0030
0100
0000
0000
;

//---------------dance-single - ----------------
#NOTES:
     dance-single:
     :
     Beginner:
     3:
     0.144677,0.194336,0.045619,0.072990,0.000000,111.000000,106.000000,5.000000,8.000000,0.000000,0.000000,0.144677,0.194336,0.045619,0.072990,0.000000,111.000000,106.000000,5.000000,8.000000,0.000000,0.000000:
// measure 0
0000
0000
0000
0000
,  // measure 1
0000
0000
0000
0000
,  // measure 2
0000
0000
0000
0000
,  // measure 3
0000
0000
0000
0000
,  // measure 4
0000
0000
0000
0000
,  // measure 5
0000
0000
0000
0000
,  // measure 6
0000
0000
0000
1000
,  // measure 7
1000
1000
0000
0001
,  // measure 8
0001
0001
0000
0100
,  // measure 9
0000
0010
0000
2000
,  // measure 10
0000
3000
0000
0001
,  // measure 11
0001
0001
0000
1000
,  // measure 12
1000
1000
0000
0100
,  // measure 13
0000
0010
0000
0200
,  // measure 14
0000
0300
0000
1000
,  // measure 15
1000
1000
0000
0010
,  // measure 16
0010
0010
0000
0001
,  // measure 17
0000
0001
0000
0100
,  // measure 18
0000
0100
0000
1000
,  // measure 19
1000
1000
0000
0001
,  // measure 20
0001
0001
0000
0100
,  // measure 21
0000
0010
0000
1000
,  // measure 22
0000
0001
0000
2000
,  // measure 23
0000
3000
0000
0200
,  // measure 24
0000
0300
0000
0002
,  // measure 25
0000
0003
0000
0020
,  // measure 26
0000
0030
0000
1000
,  // measure 27
0000
1000
0000
0100
,  // measure 28
0000
0100
0000
0001
,  // measure 29
0000
0100
0000
0010
,  // measure 30
1001
0001
0000
0001
,  // measure 31
0000
0100
0000
0110
,  // measure 32
1000
0000
0001
0000
,  // measure 33
1000
0000
0110
0010
,  // measure 34
0000
0010
0000
0001
,  // measure 35
0000
1001
0001
0000
,  // measure 36
1000
0000
0110
0000
,  // measure 37
0001
1000
0000
0100
,  // measure 38
0000
0001
0001
0001
,  // measure 39
0000
0001
0000
0010
,  // measure 40
0000
1000
0000
0100
,  // measure 41
0100
0100
0000
0010
,  // measure 42
0010
0010
0000
0001
,  // measure 43
0000
1000
0000
0010
,  // measure 44
0000
0100
0100
0200
,  // measure 45
0300
0001
0000
0010
,  // measure 46
0000
1000
1000
1000
,  // measure 47
0000
1000
0000
0100
,  // measure 48
0000
0001
0000
0010
,  // measure 49
0010
0010
0000
0100
,  // measure 50
0100
0100
0000
1000
,  // measure 51
0000
0001
0000
0100
,  // measure 52
0000
0010
0010
0020
,  // measure 53
0000
0030
0000
0000
;
