#TITLE:Everlasting Last;
#SUBTITLE:;
#ARTIST:HHH×MM×ST;
#TITLETRANSLIT:;
#SUBTITLETRANSLIT:;
#ARTISTTRANSLIT:;
#GENRE:BEMANI;
#CREDIT:;
#BANNER:Everlasting Last.png;
#BACKGROUND:Everlasting Last-bg.png;
#LYRICSPATH:;
#CDTITLE:../cdtitle.png;
#MUSIC:Everlasting Last.ogg;
#OFFSET:0.732000;
#SAMPLESTART:3.529000;
#SAMPLELENGTH:15.000000;
#SELECTABLE:YES;
#BPMS:0.000000=140.000000
;
#STOPS:244.000000=0.214000
;
#BGCHANGES:2.333=Everlasting Last.avi=1.000=0=0=0=StretchNoLoop====,
99999=-nosongbg-=1.000=0=0=0 // don't automatically add -songbackground-
;
#KEYSOUNDS:;
#ATTACKS:;

//---------------dance-single - ----------------
#NOTES:
     dance-single:
     :
     Beginner:
     2:
     0.087302,0.110913,0.007937,0.071429,0.000000,77.000000,76.000000,1.000000,9.000000,0.000000,0.000000,0.087302,0.110913,0.007937,0.071429,0.000000,77.000000,76.000000,1.000000,9.000000,0.000000,0.000000:
0000
0000
0000
0000
,
0000
0000
0000
0000
,
0000
0000
0000
0000
,
1000
0000
0000
0000
,
0001
0000
0000
0000
,
1000
0000
0000
0000
,
0001
0000
0001
0000
,
0001
0000
0000
0000
,
1000
0000
0000
0000
,
0001
0000
0000
0000
,
2000
0000
3000
0000
,
0010
0000
0010
0000
,
0010
0000
0000
0000
,
0100
0000
0100
0000
,
0100
0000
0000
0000
,
0001
0000
0001
0000
,
0001
0000
0000
0000
,
1000
0000
1000
0000
,
1000
0000
0000
0000
,
0001
0000
0000
0000
,
1000
0000
0000
0000
,
0010
0000
0000
0000
,
0100
0000
0000
0000
,
0001
0000
0000
0000
,
1000
0000
0000
0000
,
0100
0000
0000
0000
,
0010
0000
0000
0000
,
0001
0000
0001
0000
,
0001
0000
0000
0000
,
1000
0000
1000
0000
,
1000
0000
0000
0000
,
0100
0000
0100
0000
,
0100
0000
0000
0000
,
0020
0000
0000
0000
,
0030
0000
0000
0000
,
0001
0000
0000
0000
,
1000
0000
0000
0000
,
0001
0000
0000
0000
,
1000
0000
1000
0000
,
1000
0000
0000
0000
,
0001
0000
0000
0000
,
1000
0000
0000
0000
,
0002
0000
0003
0000
,
0001
0000
1000
0000
,
0001
0000
0000
0000
,
0010
0000
0100
0000
,
0010
0000
0000
0000
,
1000
0000
0001
0000
,
1000
0000
0000
0000
,
0100
0000
0010
0000
,
0200
0000
0000
0000
,
0300
0000
0000
0000
,
0002
0000
0000
0000
,
0003
0000
0000
0000
,
2000
0000
0000
0000
,
3000
0000
0000
0000
,
1000
0000
0000
0000
,
0001
0000
0000
0000
,
0010
0000
0000
0000
,
0200
0000
0000
0000
,
0300
0000
0000
0000
,
0000
1000
0000
0000
0000
0000
0000
0001
,
0000
0000
0000
0000
0000
0000
0000
1000
,
0000
0000
0000
0000
0000
0000
0000
0001
,
0000
0000
0000
0001
0000
0000
0000
0001
,
0000
0000
0000
0000
0000
0000
0000
1000
,
0000
0000
0000
0000
0000
0000
0000
0001
,
0000
0000
0000
0000
0000
0000
0000
1000
,
0000
0000
0000
0000
0000
0000
0000
2002
,
0000
0000
0000
0000
0000
0000
0000
3003
;

//---------------dance-single - ----------------
#NOTES:
     dance-single:
     :
     Hard:
     12:
     0.521542,0.554563,0.126984,0.293651,0.130952,460.000000,444.000000,16.000000,37.000000,0.000000,0.000000,0.521542,0.554563,0.126984,0.293651,0.130952,460.000000,444.000000,16.000000,37.000000,0.000000,0.000000:
0000
0000
0000
0000
,
0000
0000
0000
0000
,
0000
0000
0000
0000
,
2100
0000
3010
0000
0100
0001
0010
0100
,
0020
0000
0031
0000
1000
0010
0001
0010
,
2000
0000
3001
0000
0010
0100
1000
0100
,
0010
0010
0001
1000
1001
0000
0101
0000
,
2010
0000
3100
0000
0010
0001
0100
0010
,
0200
0000
0301
0000
1000
0100
0001
0100
,
2000
0000
3001
0000
0100
0010
1000
0010
,
0100
0100
0001
1000
0001
0001
0010
0100
,
1000
0100
0001
0100
1000
0100
0001
0100
,
1000
0010
0001
0010
1000
0100
0010
0001
,
1000
0010
0001
0010
1000
0100
0001
0100
,
1000
0010
0001
0010
0110
0000
1001
0000
,
0001
0010
1000
0010
0001
0010
1000
0010
,
0001
0100
1000
0100
0001
0010
0100
1000
,
0001
0100
1000
0100
0001
0010
1000
0010
,
0001
0100
1000
0100
0001
1000
0001
1000
,
0002
0100
2003
0100
,
3002
0000
0100
0000
1003
0010
0100
0010
,
2000
0000
0010
0000
3001
0010
0100
0010
,
0001
0100
0010
1000
1001
0000
0110
0000
,
2000
0010
3002
0010
,
2003
0000
0010
0000
3001
0100
0010
0100
,
0002
0000
0100
0000
1003
0100
0010
0100
,
1000
1000
0001
0100
1000
1000
0100
0001
,
1000
0000
0000
1000
0100
0000
0010
0000
0100
0000
0000
0100
1000
0000
0001
0000
,
0020
0000
0031
1000
0010
0010
0100
0001
,
1000
0000
0000
1000
0001
0000
0010
0000
0100
0000
0010
0000
0001
0000
1000
0000
,
0200
0000
1300
0001
1000
1000
0010
0100
,
0001
0000
0000
0001
1000
0000
0100
0000
0001
0000
0000
0001
0100
0000
1000
0000
,
0002
0000
0013
0000
0100
1000
0010
0100
,
0010
0010
1000
0001
0010
0010
0100
1000
,
0020
0000
0001
1030
,
1002
0000
0000
0000
0013
0000
0100
0000
1000
0000
1000
0001
0000
0000
1000
0000
,
0010
0000
0100
0000
0001
0000
0100
0000
0001
0000
1000
0100
0000
0000
1000
0000
,
0001
0000
0010
0000
0100
0000
0010
0000
0001
0000
0001
1000
0000
0000
0010
0000
,
0100
0100
0001
1000
1001
0000
0110
0000
,
2001
0000
0000
0000
3010
0000
0100
0000
0001
0000
1000
0010
0000
0000
1000
0000
,
0100
0000
0010
0000
0001
0000
1000
0000
0100
0000
1000
0001
0000
0000
0100
0000
,
0001
0000
0010
0000
0100
0000
0010
0000
0001
0000
1000
0001
0000
0000
1000
0000
,
0010
0010
0100
0001
1000
1000
0100
0010
,
0001
0000
0000
0001
0010
0000
0100
0000
0010
0000
0000
0010
0001
0000
1000
0000
,
0200
0000
1300
0001
0100
0100
0010
1000
,
0001
0000
0000
0001
1000
0000
0100
0000
0010
0000
0100
0000
1000
0000
0001
0000
,
0020
0000
0031
1000
0001
0001
0100
0010
,
1000
0000
0000
1000
0001
0000
0010
0000
1000
0000
0000
1000
0010
0000
0001
0000
,
2000
0000
3100
0000
0010
0001
0100
0010
,
0100
0001
0100
0001
1000
0100
0010
0001
,
1000
0100
1000
0100
0010
0001
0100
0010
,
2000
0000
0000
0000
,
3002
0000
0023
0000
,
0230
0000
2300
0000
,
3020
0000
0230
0000
,
0302
0000
2003
3002
,
2003
0000
0000
0000
3100
0000
0010
0000
0001
0000
1000
0100
0000
0000
1000
0000
,
0001
0000
1000
0000
0010
0000
0100
0000
0001
0000
0100
0001
0000
0000
1000
0000
,
0100
0000
0010
0000
0100
0000
1000
0000
0001
0000
0010
0001
0000
0000
1000
0000
,
0010
0100
0010
0100
0001
1000
0100
0010
,
0200
0000
0001
1000
,
0300
0000
1001
0000
0010
0000
0001
0000
0001
1000
0000
1000
0010
0000
0100
0000
,
0010
0000
1000
0000
0001
0000
0010
0000
0100
0010
0000
0010
0001
0000
1000
0000
,
0100
0000
0010
0000
0100
0000
1000
0000
1000
0001
0000
0001
0100
0000
0010
0000
,
0010
1000
0001
1001
0000
0110
0000
1002
,
0000
0000
0103
0000
0010
0000
1000
0000
0001
0100
0000
0100
0001
0000
0010
0000
,
0100
0000
1000
0000
0001
0000
0010
0000
0001
1000
0000
1000
0010
0000
0100
0000
,
0001
0000
1000
0000
0100
0000
0010
0000
0100
1000
0000
1000
0001
0000
0010
0000
,
0010
0100
0000
0100
1000
0000
0100
0000
0100
0000
0010
0000
0001
0000
2000
0000
,
0000
0000
0000
0000
0000
0000
0000
3000
;

//---------------dance-single - ----------------
#NOTES:
     dance-single:
     :
     Challenge:
     15:
     0.672336,0.720932,0.126984,0.357143,0.551587,593.000000,577.000000,16.000000,45.000000,4.000000,0.000000,0.672336,0.720932,0.126984,0.357143,0.551587,593.000000,577.000000,16.000000,45.000000,4.000000,0.000000:
// measure 0
0000
0000
0000
0000
,  // measure 1
0000
0000
0000
0000
,  // measure 2
0000
0000
0000
0000
,  // measure 3
0110
0000
1000
0000
0001
0000
0010
0000
0100
0000
0100
0010
0000
0001
1000
0000
,  // measure 4
0010
0000
0001
0000
0010
0000
1000
0000
0001
0000
0001
0100
0000
0010
1000
0000
,  // measure 5
0100
0000
0010
0000
1000
0000
0010
0000
0001
0000
0001
1000
0000
0100
0010
0000
,  // measure 6
0001
0100
0010
1000
2020
3030
0022
0033
,  // measure 7
0110
0000
1000
0000
0001
0000
0100
0000
0010
0000
0010
0100
0000
0001
1000
0000
,  // measure 8
0100
0000
0001
0000
0100
0000
1000
0000
0001
0000
0001
0010
0000
0100
1000
0000
,  // measure 9
0010
0000
0100
0000
1000
0000
0100
0000
0001
0000
0001
1000
0000
0010
0100
0000
,  // measure 10
0001
0000
0100
0010
0000
1000
0001
0000
0100
0000
0001
0010
0100
1000
0100
0000
,  // measure 11
1000
0100
0000
0010
0001
0000
1000
0100
0000
0010
0001
0000
1000
0000
0100
0000
,  // measure 12
1000
0010
0000
0100
0001
0000
1000
0010
0100
0001
0100
0010
1000
0000
0010
1000
,  // measure 13
0001
0010
0000
0100
1000
0000
0001
0010
0000
0100
1000
0000
0001
0000
0010
0000
,  // measure 14
0001
0100
0010
1000
0000
0010
0100
0001
2000
0000
3000
0000
2002
0000
3003
0000
,  // measure 15
0001
0100
0000
0010
1000
0000
0001
0100
0000
0010
1000
0000
0001
0000
0100
0000
,  // measure 16
0001
0010
0000
0100
1000
0000
0001
0010
0100
1000
0100
0000
0010
0000
0001
0000
,  // measure 17
1000
0010
0000
0100
0001
0000
1000
0010
0000
0100
0001
1000
0000
0100
0010
0100
,  // measure 18
1000
0000
0001
0010
0000
0010
0100
0000
1000
0001
1000
0001
0100
0010
0100
0010
,  // measure 19
1000
0001
0010
0001
1000
0001
0010
0001
,  // measure 20
1000
0000
0010
0000
0100
0000
0010
0000
1000
0000
0010
0000
0100
0000
0001
0100
,  // measure 21
0001
0000
0010
0000
0100
0000
0010
0000
0001
0000
0010
0000
0100
0000
1000
0100
,  // measure 22
1000
0001
0100
0010
1100
0000
0110
0000
,  // measure 23
0101
1000
0100
1000
0001
1000
0100
1000
,  // measure 24
0001
0000
0100
0000
0010
0000
0100
0000
0001
0000
0100
0000
0010
0000
1000
0010
,  // measure 25
1000
0000
0100
0000
0010
0000
0100
0000
1000
0000
0100
0000
0010
0000
0001
0010
,  // measure 26
0001
0000
1000
0000
0010
0000
0100
0000
0001
1000
0001
1000
0100
0010
0001
1000
,  // measure 27
0200
0000
1300
0010
0001
0000
0010
0000
0200
0000
0301
0010
1000
0000
0010
0000
,  // measure 28
0200
1000
1300
0001
0100
0010
0100
1000
,  // measure 29
0200
0000
0301
0010
1000
0000
0010
0000
0100
0000
1000
0000
0001
0000
0010
0100
,  // measure 30
2000
0100
3100
1000
0010
0100
0010
1000
,  // measure 31
0020
0000
1030
0100
0010
0000
0100
0000
0020
0000
0031
0100
0010
0000
0100
0000
,  // measure 32
0002
0000
1000
0000
1003
0000
0001
0000
0100
0000
0010
1000
0000
1000
0001
0000
,  // measure 33
1000
0000
0100
0000
0010
0000
0100
0000
1000
0001
1000
0010
0100
0001
0010
0100
,  // measure 34
2000
0000
0001
3001
,  // measure 35
0110
0000
0001
0000
1000
0000
0010
0000
0100
0000
0100
0010
0000
1000
0001
0000
,  // measure 36
0010
0000
1000
0000
0010
0000
0001
0000
1000
0000
1000
0100
0000
0010
0001
0000
,  // measure 37
0100
0000
0010
0000
0001
0000
0010
0000
1000
0000
1000
0001
0000
0100
0010
0000
,  // measure 38
1000
0100
0010
0001
0022
0033
2020
3030
,  // measure 39
0110
0000
0001
0000
1000
0000
0100
0000
0010
0000
0010
0100
0000
1000
0001
0000
,  // measure 40
0100
0000
1000
0000
0100
0000
0001
0000
1000
0000
1000
0010
0000
0100
0001
0000
,  // measure 41
0010
0000
0100
0000
0001
0000
0100
0000
1000
0000
1000
0001
0000
0010
0100
0000
,  // measure 42
1000
0000
0100
0010
0000
0001
1000
0000
0010
0100
0001
0100
0010
1000
0001
0100
,  // measure 43
0020
0000
1030
0100
0001
0000
0100
0000
0020
0000
0031
0100
1000
0000
0100
0000
,  // measure 44
0020
1000
1030
0001
0010
0100
0010
1000
,  // measure 45
0020
0000
0031
0100
1000
0000
0100
0000
0010
0000
1000
0000
0001
0000
0100
0010
,  // measure 46
2000
0010
3010
1000
0100
0010
0100
1000
,  // measure 47
0200
0000
1300
0010
0100
0000
0010
0000
0200
0000
0301
0010
0100
0000
0010
0000
,  // measure 48
0002
0000
1000
0000
1003
0000
0001
0000
0100
0000
0010
1000
0000
1000
0001
0000
,  // measure 49
1000
0100
1000
0100
0010
0001
1000
0010
,  // measure 50
0100
0001
0100
0001
1000
0100
1000
0100
0010
0001
0010
0100
1000
0010
0100
0001
,  // measure 51
2000
0000
0000
0000
,  // measure 52
3002
0000
0203
0000
,  // measure 53
2300
0000
3020
0000
,  // measure 54
0032
0000
2003
0000
,  // measure 55
3020
0000
0032
0023
,  // measure 56
1030
0000
0100
0000
1000
0000
0001
0000
0100
0000
0010
1000
0000
0100
1000
0000
,  // measure 57
0001
0000
0010
0000
0001
0000
1000
0000
0010
0000
0100
0001
0000
0010
0001
0000
,  // measure 58
1000
0000
0010
0000
0100
0000
0010
0000
1000
0000
0001
0010
0000
0100
1000
0000
,  // measure 59
0001
0000
0010
0001
0010
0000
0100
1000
0001
0010
0100
0010
0001
1000
0001
1000
,  // measure 60
0020
0000
0000
0000
0100
0000
0100
0030
,  // measure 61
MMMM
0000
2001
0000
3100
0000
0010
0000
0010
0100
0000
1000
0001
0000
0100
0000
,  // measure 62
1000
0000
0100
0000
0001
0000
1000
0000
1000
0010
0000
0100
0001
0000
0010
0000
,  // measure 63
0100
0000
0001
0000
0100
0000
1000
0000
1000
0001
0000
0010
0100
0000
1000
0000
,  // measure 64
0010
0100
0001
0202
0303
2200
3300
0110
,  // measure 65
0001
0000
1000
0000
0010
0000
0100
0000
0100
0010
0000
1000
0001
0000
0010
0000
,  // measure 66
1000
0000
0010
0000
0001
0000
1000
0000
1000
0100
0000
0010
0001
0000
0100
0000
,  // measure 67
0010
0000
0001
0000
0010
0000
1000
0000
1000
0001
0000
0100
0010
0000
1000
0000
,  // measure 68
0010
0100
0000
0001
1000
0000
0100
0010
0001
0010
0100
1000
0010
0100
0002
0000
,  // measure 69
0000
0000
0000
0000
0000
0000
0000
0003
;

//---------------dance-single - ----------------
#NOTES:
     dance-single:
     :
     Easy:
     6:
     0.276644,0.332738,0.150794,0.428571,0.000000,244.000000,225.000000,19.000000,54.000000,0.000000,0.000000,0.276644,0.332738,0.150794,0.428571,0.000000,244.000000,225.000000,19.000000,54.000000,0.000000,0.000000:
0000
0000
0000
0000
,
0000
0000
0000
0000
,
0000
0000
0000
0000
,
0220
0330
0001
0001
,
2000
3000
0010
0010
,
0200
0300
0001
0001
,
1000
0100
0010
0010
,
0220
0330
1000
1000
,
0002
0003
0010
0010
,
0200
0300
1000
1000
,
0001
0100
0010
0010
,
1000
0100
0001
0100
,
1000
0010
0001
0001
,
1000
0100
0001
0010
,
1000
0010
0001
0110
,
1000
0010
0001
0010
,
1000
0100
0001
0001
,
1000
0010
0001
0100
,
1000
0100
0001
0001
,
2000
3100
0002
0103
,
2000
3100
0001
1000
,
0002
0103
2000
3100
,
0002
0103
0010
0010
,
2000
3010
0002
0013
,
2000
3010
0001
1000
,
0002
0013
2000
3010
,
0002
0010
0100
0100
,
1003
1100
0010
0011
,
2000
0100
3010
0010
,
0100
0101
0001
0010
,
0200
0300
0100
1000
,
0001
0011
0100
1100
,
0002
0010
0103
0100
,
0010
1000
0100
0010
,
2002
0000
0000
3003
,
0220
0330
1000
1000
,
0002
0003
0100
0100
,
0020
0030
1000
1000
,
0001
0010
0100
0100
,
0220
0330
0001
0001
,
2000
3000
0100
0100
,
0020
0030
0001
0001
,
1000
0010
0100
0100
,
0001
0101
0010
1010
,
0002
0100
0013
0010
,
0100
1100
1000
0010
,
0200
0300
0100
0001
,
1000
1010
0100
0101
,
2000
0010
3100
0100
,
0010
0001
0100
0010
,
1000
0100
0010
0001
,
2000
0000
0000
0000
,
3002
0000
0103
0000
,
0200
0000
1300
0000
,
2000
0000
3010
0000
,
0020
0000
0032
0000
,
2003
3000
0010
0010
,
0002
0003
0100
0100
,
2000
3000
0010
0010
,
0001
0010
1000
0100
,
0020
0000
0000
0000
,
0030
0110
0000
1000
0000
1000
0000
0002
,
0000
0003
0000
0010
0000
0010
0000
0200
,
0000
0300
0000
1000
0000
1000
0000
0001
,
0000
0100
0000
0010
0000
0010
0000
0220
,
0000
0330
0000
0001
0000
0001
0000
2000
,
0000
3000
0000
0010
0000
0010
0000
0200
,
0000
0300
0000
0001
0000
0001
0000
1000
,
0000
0100
0000
0010
0000
0010
0000
2002
,
0000
0000
0000
0000
0000
0000
0000
3003
;

//---------------dance-single - ----------------
#NOTES:
     dance-single:
     :
     Medium:
     9:
     0.402494,0.471379,0.214286,0.365079,0.051587,355.000000,328.000000,27.000000,46.000000,0.000000,0.000000,0.402494,0.471379,0.214286,0.365079,0.051587,355.000000,328.000000,27.000000,46.000000,0.000000,0.000000:
0000
0000
0000
0000
,
0000
0000
0000
0000
,
0000
0000
0000
0000
,
0201
0000
0310
0000
1000
0100
0010
0000
,
0002
0000
1003
0000
0010
0100
0001
0000
,
2000
0000
3100
0000
1000
0001
0010
0000
,
0100
1000
0001
0000
1001
0000
0101
0000
,
1020
0000
0130
0000
0001
0010
0100
0000
,
2000
0000
3001
0000
0100
0010
1000
0000
,
0002
0000
0013
0000
0001
1000
0010
0000
,
0100
0001
1000
0000
0100
1000
0100
1000
,
0001
0000
0000
0010
0000
0000
0100
0000
0000
1000
0000
0000
0100
0000
0010
0000
,
0001
0000
0000
0010
0000
0000
0100
0000
1000
0000
1000
0000
0100
0000
0010
0000
,
0001
0000
0000
0100
0000
0000
0010
0000
0000
1000
0000
0000
0010
0000
0100
0000
,
0001
0000
0000
0100
0000
0000
0010
0000
1010
0000
0000
0000
0101
0000
0000
0000
,
1000
0000
0000
0100
0000
0000
0010
0000
0000
0001
0000
0000
0010
0000
0100
0000
,
1000
0000
0000
0100
0000
0000
0010
0000
0001
0000
0001
0000
0010
0000
0100
0000
,
1000
0000
0000
0010
0000
0000
0100
0000
0000
0001
0000
0100
0000
0000
0010
0000
,
1000
0000
0000
0010
0000
0000
0100
0000
0001
0000
0001
0000
0010
0000
0100
0000
,
2000
3100
0002
0013
,
2000
0000
3100
0000
0001
0010
0001
0000
,
2000
3010
0002
0103
,
2000
3010
0110
0101
,
0002
0103
2000
3010
,
0002
0000
0103
0000
1000
0010
1000
0000
,
0002
0013
2000
3100
,
0001
0010
0001
0000
1000
0010
1000
0010
,
0100
0101
0010
1010
,
0002
0000
0100
0000
1003
0100
0010
0000
,
0001
0000
0011
0000
0001
0100
0010
0000
,
2000
0000
3100
0000
1000
0001
0010
0000
,
0100
1100
0010
0011
,
2000
0100
3001
0001
,
1000
0010
1000
0010
0100
0001
0100
0001
,
2000
0000
0100
3100
,
0021
0000
0130
0000
1000
0010
0100
0000
,
0002
0000
1003
0000
0100
0010
0001
0000
,
2000
0000
3010
0000
1000
0001
0100
0000
,
0010
1000
0001
0000
1001
0000
0011
0000
,
1200
0000
0310
0000
0001
0100
0010
0000
,
2000
0000
3001
0000
0010
0100
1000
0000
,
0002
0000
0103
0000
0001
1000
0100
0000
,
0010
0001
1000
0000
0010
0100
0001
1000
,
0100
1100
0010
0011
,
2000
0000
0100
0000
3001
0100
0010
0000
,
1000
0000
1010
0000
1000
0100
0010
0000
,
0002
0000
0103
0000
0001
1000
0010
0000
,
0100
0101
0010
1010
,
0002
0100
1003
1000
,
0001
0010
0001
0010
0100
1000
0100
1000
,
0010
0100
0010
0100
0001
1000
0001
1000
,
0002
0000
0000
0000
,
2003
0000
0100
0000
,
3002
0000
0100
0000
,
2003
0000
0010
0000
,
3002
0000
0010
0013
,
2200
0000
3300
0000
0001
1000
0010
0000
,
0200
0000
0300
0000
0001
1000
0100
0000
,
0020
0000
0030
0000
0100
1000
0010
0000
,
0100
0001
0100
0001
1000
0100
1000
0100
,
0020
0000
0100
0100
,
0030
0110
0000
0001
0100
0010
0000
2000
,
0000
3001
0000
0010
0100
1000
0000
0002
,
0000
0013
0000
0001
1000
0010
0000
0100
,
0001
1000
0000
1001
0000
1100
0000
0021
,
0000
0130
0000
1000
0010
0001
0000
0020
,
0000
1030
0000
0001
0010
0100
0000
2000
,
0000
3001
0000
0100
0010
1000
0000
0001
,
0010
0100
0010
0001
1000
0010
0100
0002
,
0000
0000
0000
0000
0000
0000
0000
0003
;
