#VERSION:0.83;
#TITLE:Eggnog;
#SUBTITLE:;
#ARTIST:Kawai Sprite;
#TITLETRANSLIT:;
#SUBTITLETRANSLIT:;
#ARTISTTRANSLIT:;
#GENRE:Friday Night Funkin';
#ORIGIN:;
#CREDIT:;
#BANNER:Eggnog.png;
#BACKGROUND:../bg.png;
#PREVIEWVID:;
#JACKET:Eggnog-jacket.png;
#CDIMAGE:;
#DISCIMAGE:;
#LYRICSPATH:;
#CDTITLE:../cdtitle.png;
#MUSIC:Eggnog.ogg;
#OFFSET:1.597000;
#SAMPLESTART:16.002001;
#SAMPLELENGTH:15.000000;
#SELECTABLE:YES;
#BPMS:0.000=150.000;
#STOPS:;
#DELAYS:;
#WARPS:;
#TIMESIGNATURES:0.000=4=4;
#TICKCOUNTS:0.000=4;
#COMBOS:0.000=1;
#SPEEDS:0.000=1.000=0.000=0;
#SCROLLS:0.000=1.000;
#FAKES:;
#LABELS:0.000=Song Start;
#BGCHANGES: -1.000=Eggnog.avi=1.000=0=0=0=StretchNoLoop====,
99999=-nosongbg-=1.000=0=0=0 // don't automatically add -songbackground-
;
#KEYSOUNDS:;
#ATTACKS:
;

//---------------dance-single - ----------------
#NOTEDATA:;
#CHARTNAME:;
#STEPSTYPE:dance-single;
#DESCRIPTION:;
#CHARTSTYLE:;
#DIFFICULTY:Hard;
#METER:14;
#RADARVALUES:0.670400,0.661811,0.052966,0.169492,0.280720,443.000000,438.000000,5.000000,16.000000,0.000000,0.000000,0.000000,0.000000,0.000000,0.670400,0.661811,0.052966,0.169492,0.280720,443.000000,438.000000,5.000000,16.000000,0.000000,0.000000,0.000000,0.000000,0.000000;
#CREDIT:led_light;
#NOTES:
// measure 0
0000
0000
0000
0000
,  // measure 1
0000
0000
0000
0000
,  // measure 2
0000
0000
0000
0000
,  // measure 3
1000
0100
0000
0100
0000
0100
0001
0100
,  // measure 4
1000
0100
0000
0100
0001
0100
1000
0010
,  // measure 5
0100
0001
0000
0001
0000
0001
0010
0001
,  // measure 6
0100
0001
0000
0001
1000
0100
0010
0001
,  // measure 7
1000
0010
0000
0010
0000
0010
0001
0010
,  // measure 8
1000
0010
0000
0010
0001
0010
1000
0100
,  // measure 9
0010
0001
0000
0001
0000
0001
0100
0001
,  // measure 10
0010
0001
0000
0001
1000
0010
0100
0001
,  // measure 11
0010
0100
0010
0000
0100
2000
0000
3000
0002
0000
0003
0000
1000
0000
0100
0000
,  // measure 12
0010
0000
0001
0000
0000
0000
0001
0000
0000
0000
0001
0100
0010
0000
2000
0000
,  // measure 13
0100
3000
1100
0000
0001
0000
0100
0001
,  // measure 14
1000
0010
1000
0010
0100
0010
1000
0000
,  // measure 15
0100
0010
0100
0000
0010
0002
0000
0003
2000
0000
3000
0000
0001
0000
0010
0000
,  // measure 16
0100
0000
1000
0000
0000
0000
1000
0000
0000
0000
1000
0010
0100
0000
0002
0000
,  // measure 17
0010
0003
0011
0000
1000
0000
0010
1000
,  // measure 18
0001
0100
0001
0100
0010
0100
0002
0000
,  // measure 19
1003
0000
0100
0000
0010
0000
0001
0010
0001
0000
0100
0000
0010
0000
1000
0010
,  // measure 20
1000
0000
0100
0000
0010
0000
0001
0010
0001
0000
0100
0000
0010
0000
1000
0000
,  // measure 21
0001
0000
0100
0000
0010
0000
1000
0010
1000
0000
0100
0000
0010
0000
0001
0010
,  // measure 22
0001
0000
0100
0000
0010
0000
1000
0000
0001
0010
0100
0000
1000
0000
0001
0000
,  // measure 23
1000
0000
0100
0000
0010
0000
0001
0010
0001
0000
0100
0000
0010
0000
1000
0010
,  // measure 24
1000
0000
0100
0000
0010
0000
0001
0010
0001
0000
0100
0000
0010
0000
1000
0000
,  // measure 25
0001
0000
0100
0000
0010
0000
1000
0010
1000
0000
0100
0000
0010
0000
0001
0010
,  // measure 26
0001
0000
0100
0000
0010
0000
1000
0000
0001
0010
0100
0000
1000
0000
0001
0000
,  // measure 27
1000
0100
1000
0000
0100
0000
0001
0000
1000
0000
0010
0000
0001
0000
1000
0000
,  // measure 28
0001
0100
0001
0000
0100
0000
1000
0000
0001
0000
0010
0000
1000
0000
0001
0000
,  // measure 29
1000
0100
1000
0000
0100
0000
0001
0000
1000
0000
0010
0000
0001
0000
1000
0000
,  // measure 30
0001
0100
0001
0000
0100
0000
1000
0000
0001
0000
0010
0000
1000
0000
0001
0000
,  // measure 31
1000
0000
0100
0000
0000
0000
0100
0000
0000
0000
0100
0000
0010
0001
1000
0000
,  // measure 32
0000
0000
0100
0000
0000
0000
0100
0000
0000
0000
0100
0000
1000
0001
1000
0000
,  // measure 33
0010
0000
0100
0000
0000
0000
0100
0000
0000
0000
0100
0000
0010
1000
0001
0000
,  // measure 34
0000
0000
0010
0000
0000
0000
0010
0000
0000
0000
0010
0000
0100
0010
0001
0000
,  // measure 35
1000
0000
0010
0000
0000
0000
0010
0000
0000
0000
0010
0000
0100
0001
1000
0000
,  // measure 36
0000
0000
0010
0000
0000
0000
0010
0000
0000
0000
0010
0000
1000
0001
1000
0000
,  // measure 37
0100
0000
0010
0000
0000
0000
0010
0000
0000
0000
0010
0000
0100
1000
0001
0000
,  // measure 38
0000
0000
0100
0000
0000
0000
0100
0000
0000
0000
0100
0000
0010
0100
0001
0000
,  // measure 39
1000
1000
0100
0100
0010
0010
0001
0001
,  // measure 40
0100
0001
0100
0000
0010
1000
0010
0000
1000
0000
0001
0000
0020
0000
0000
0000
,  // measure 41
0031
0001
0010
0010
0100
0100
1000
1000
,  // measure 42
0010
1000
0010
0000
0100
0001
0100
0000
0001
0000
1000
0000
0200
0000
0000
0000
,  // measure 43
1300
1000
2000
0000
3001
1000
0100
1000
,  // measure 44
0001
0100
0001
0000
1000
0010
1000
0010
0100
0000
0000
0000
1001
0000
0000
0000
,  // measure 45
0001
0001
0002
0000
1003
0001
0100
0001
,  // measure 46
1000
0100
1000
0000
0001
0010
0001
0010
0100
0000
0000
0000
1001
0000
0000
0000
,  // measure 47
0100
0010
0100
0000
0010
0002
0000
0003
2000
0000
3000
0000
0001
0000
0010
0000
,  // measure 48
0100
0000
1000
0000
0000
0000
1000
0000
0000
0000
1000
0010
0100
0000
0002
0000
,  // measure 49
0010
0003
0011
0000
1000
0000
0010
1000
,  // measure 50
0001
0100
0001
0100
0010
0100
0002
0000
,  // measure 51
1003
0000
0100
0000
0010
0000
0001
0010
0001
0000
0100
0000
0010
0000
1000
0010
,  // measure 52
1000
0000
0100
0000
0010
0000
0001
0010
0001
0000
0100
0000
0010
0000
1000
0000
,  // measure 53
0001
0000
0100
0000
0010
0000
1000
0010
1000
0000
0100
0000
0010
0000
0001
0010
,  // measure 54
0001
0000
0100
0000
0010
0000
1000
0000
0001
0010
0100
0000
1000
0000
0001
0000
,  // measure 55
1000
0100
1000
0000
0100
0000
0001
0000
1000
0000
0010
0000
0001
0000
1000
0000
,  // measure 56
0001
0100
0001
0000
0100
0000
1000
0000
0001
0000
0010
0000
1000
0000
0001
0000
,  // measure 57
1000
0100
1000
0000
0100
0000
0001
0000
1000
0000
0010
0000
0001
0000
1000
0000
,  // measure 58
0001
0100
0001
0000
0100
0000
1000
0000
0001
0000
0010
0000
1000
0000
0001
0000
,  // measure 59
2000
0000
3000
0000
;

//---------------dance-single - ----------------
#NOTEDATA:;
#CHARTNAME:;
#STEPSTYPE:dance-single;
#DESCRIPTION:;
#CHARTSTYLE:;
#DIFFICULTY:Medium;
#METER:10;
#RADARVALUES:0.464588,0.472722,0.042373,0.042373,0.000000,307.000000,303.000000,4.000000,4.000000,0.000000,0.000000,0.000000,0.000000,0.000000,0.464588,0.472722,0.042373,0.042373,0.000000,307.000000,303.000000,4.000000,4.000000,0.000000,0.000000,0.000000,0.000000,0.000000;
#CREDIT:led_light;
#NOTES:
0000
0000
0000
0000
,
0000
0000
0000
0000
,
0000
0000
0000
0000
,
0000
1000
0000
1000
0000
1000
0100
1000
,
0000
0001
0000
0001
0100
0010
1000
0001
,
0000
1000
0000
1000
0000
1000
0010
1000
,
0000
0001
0000
0001
0010
0100
0010
0001
,
0000
0100
0000
0100
0000
0100
1000
0100
,
0000
0010
0000
0010
0001
0010
1000
0001
,
0000
0010
0000
0010
0000
0010
1000
0010
,
0000
0100
0000
0100
0001
0100
1000
0001
,
1000
0100
1000
0000
0001
0000
0100
0001
,
0000
0100
0000
0001
0000
0100
0010
0000
,
2000
0000
3100
0000
0001
0000
0100
1000
,
0000
1000
0000
0100
0000
0010
0001
0000
,
0001
0100
0001
0000
1000
0000
0100
1000
,
0000
0100
0000
1000
0000
0100
0010
0000
,
0002
0000
0103
0000
1000
0000
0100
0001
,
0000
0001
0000
0100
0000
0010
1000
0000
,
1000
0100
1000
0000
0100
0001
0100
0000
,
0001
0010
0001
0000
0010
1000
0010
0000
,
1000
0100
1000
0000
0100
0001
0100
0000
,
0001
0010
0001
0000
0010
1000
0100
0000
,
1000
0010
1000
0000
0010
0001
0010
0000
,
0001
0100
0001
0000
0100
1000
0100
0000
,
1000
0010
1000
0000
0010
0001
0010
0000
,
0001
0100
0001
0000
0100
1000
0010
0000
,
1000
0100
0001
0000
0100
0000
1000
0000
,
1000
0100
0001
0000
0100
0000
1000
0000
,
1000
0010
0001
0000
0010
0000
1000
0000
,
1000
0010
0001
0000
0010
0000
1000
0000
,
0001
0010
0000
0010
0000
0010
1000
0010
,
0000
0001
0000
0001
0000
0001
0100
0010
,
0000
0100
0000
0100
0000
0100
1000
0100
,
0000
0001
0000
0001
0000
0001
0010
0100
,
0000
1000
0000
1000
0000
1000
0100
0010
,
0000
0001
0000
0001
0000
0001
0100
0010
,
0000
1000
0000
1000
0000
1000
0010
0100
,
0000
0001
0000
0001
0000
0001
0010
0100
,
1000
0100
0010
0000
0001
1000
0010
0000
,
0100
0001
1000
0010
0100
0000
1001
0000
,
0001
0100
0010
0000
1000
0001
0010
0000
,
0100
1000
0001
0010
0100
0000
1001
0000
,
1000
1000
1000
0000
0001
0100
0001
0000
,
0100
0010
0100
0100
0010
0000
0110
0000
,
0001
0001
0001
0000
1000
0100
1000
0000
,
0100
0010
0100
0100
0010
0000
0110
0000
,
0001
0100
0001
0000
1000
0000
0100
1000
,
0000
0100
0000
1000
0000
0100
0010
0000
,
0002
0000
0103
0000
1000
0000
0100
0001
,
0000
0001
0000
0100
0000
0010
1000
0000
,
1000
0100
1000
0000
0100
0001
0100
0000
,
0001
0010
0001
0000
0010
1000
0010
0000
,
1000
0100
1000
0000
0100
0001
0100
0000
,
0001
0010
0001
0000
0010
1000
0010
0000
,
1000
0100
0001
0000
0100
0000
1000
0000
,
1000
0100
0001
0000
0100
0000
1000
0000
,
1000
0010
0001
0000
0010
0000
1000
0000
,
1000
0010
0001
0000
0010
0000
1000
0000
,
0002
0000
0003
0000
;

//---------------dance-single - ----------------
#NOTEDATA:;
#CHARTNAME:;
#STEPSTYPE:dance-single;
#DESCRIPTION:;
#CHARTSTYLE:;
#DIFFICULTY:Easy;
#METER:7;
#RADARVALUES:0.337470,0.346663,0.063559,0.127119,0.000000,223.000000,217.000000,6.000000,12.000000,0.000000,0.000000,0.000000,0.000000,0.000000,0.337470,0.346663,0.063559,0.127119,0.000000,223.000000,217.000000,6.000000,12.000000,0.000000,0.000000,0.000000,0.000000,0.000000;
#CREDIT:led_light;
#NOTES:
0000
0000
0000
0000
,
0000
0000
0000
0000
,
0000
0000
0000
0000
,
0000
1000
0000
1000
0000
0100
1000
0000
,
0000
0001
0000
0001
0100
0000
1001
0000
,
0000
0001
0000
0001
0000
0100
0001
0000
,
0000
1000
0000
0100
1000
0000
0110
0000
,
0000
1000
0000
1000
0000
0010
1000
0000
,
0000
0001
0000
0001
0010
0000
1001
0000
,
0000
0001
0000
0001
0000
0010
0001
0000
,
0000
1000
0000
0010
1000
0000
0110
0000
,
0001
0100
0001
0000
1000
0000
1000
0000
,
0100
0010
0100
0010
,
0002
1003
0100
1000
,
0010
0100
0010
0000
,
1000
0010
1000
0000
0001
0000
0001
0000
,
0010
0100
0010
0100
,
2000
3001
0010
0001
,
0100
0010
0100
0000
,
0001
0001
1000
1000
,
0001
0001
1000
0001
,
1000
1000
0001
0001
,
1000
1000
0001
1000
,
0100
0100
0010
0010
,
0100
0100
0010
0100
,
0010
0010
0100
0100
,
0010
0010
0100
0010
,
0002
0103
0000
0100
,
2000
3100
0000
0100
,
0002
0013
0000
0010
,
2000
3010
0000
0010
,
0000
0001
0000
0001
0000
0100
0001
0000
,
0000
1000
0000
1000
0000
0100
1000
0000
,
0000
0001
0000
0001
0000
0010
0001
0000
,
0000
1000
0000
1000
0000
0010
1000
0000
,
0000
0100
0000
0100
0000
0010
0100
0000
,
0000
0100
0000
0100
0000
0010
0100
0000
,
0000
1000
0000
1000
0000
0001
0100
0000
,
0000
1000
0000
1000
0000
0001
0010
0000
,
1000
0001
0100
0010
,
1000
0100
1000
1000
,
0001
1000
0100
0010
,
0001
0100
0001
0001
,
1000
1000
0010
0010
,
1000
0100
1000
1001
,
0001
0001
0100
0100
,
0001
0010
0001
1001
,
1000
0100
1000
0000
0001
0000
0001
0000
,
0100
0010
0100
0010
,
2000
3001
0100
0001
,
0010
0100
0010
0000
,
0001
0001
1000
1000
,
0001
0001
1000
0001
,
1000
1000
0001
0001
,
1000
1000
0001
1000
,
0002
0103
0000
0100
,
2000
3100
0000
0100
,
0002
0013
0000
0010
,
2000
3010
0000
0010
,
0002
0000
0003
0000
;

//---------------dance-single - ----------------
#NOTEDATA:;
#CHARTNAME:;
#STEPSTYPE:dance-single;
#DESCRIPTION:;
#CHARTSTYLE:;
#DIFFICULTY:Beginner;
#METER:3;
#RADARVALUES:0.155872,0.220604,0.000000,0.010593,0.000000,103.000000,103.000000,0.000000,1.000000,0.000000,0.000000,0.000000,0.000000,0.000000,0.155872,0.220604,0.000000,0.010593,0.000000,103.000000,103.000000,0.000000,1.000000,0.000000,0.000000,0.000000,0.000000,0.000000;
#CREDIT:led_light;
#NOTES:
0000
0000
0000
0000
,
0000
0000
0000
0000
,
0000
0000
0000
0000
,
1000
0000
0000
0000
,
1000
0000
0000
0000
,
1000
0000
0000
0000
,
1000
0000
0000
0000
,
0001
0000
0000
0000
,
0001
0000
0000
0000
,
0001
0000
0000
0000
,
0001
0000
0000
0000
,
1000
0000
1000
0000
,
0100
0000
0001
0000
,
0010
0000
0001
0000
,
1000
0000
0100
0000
,
0001
0000
0001
0000
,
0010
0000
1000
0000
,
0100
0000
1000
0000
,
0001
0000
0010
0000
,
1000
1000
1000
0000
,
1000
1000
1000
0000
,
0001
0001
0001
0000
,
0001
0001
0001
0000
,
0010
0010
0010
0000
,
0010
0010
0010
0000
,
0100
0100
0100
0000
,
0100
0100
0100
0000
,
1000
0000
0000
0000
,
0001
0000
0000
0000
,
1000
0000
0000
0000
,
0001
0000
0000
0000
,
1000
0000
0000
0000
,
1000
0000
0000
0000
,
1000
0000
0000
0000
,
1000
0000
0000
0000
,
0001
0000
0000
0000
,
0001
0000
0000
0000
,
0001
0000
0000
0000
,
0001
0000
0000
0000
,
0010
0000
0100
0000
,
1000
0000
1000
0000
,
0010
0000
0100
0000
,
0001
0000
0001
0000
,
1000
0000
0100
0000
,
0010
0010
0010
0000
,
0001
0000
0100
0000
,
0010
0010
0010
0000
,
1000
0000
1000
0000
,
0100
0000
0001
0000
,
0010
0000
0001
0000
,
1000
0000
0100
0000
,
0010
0010
0010
0000
,
0010
0010
0010
0000
,
0100
0100
0100
0000
,
0100
0100
0100
0000
,
0001
0000
0000
0000
,
1000
0000
0000
0000
,
0001
0000
0000
0000
,
1000
0000
0000
0000
,
0200
0000
0300
0000
;

//---------------dance-single - FNF Hard----------------
#NOTEDATA:;
#CHARTNAME:;
#STEPSTYPE:dance-single;
#DESCRIPTION:FNF Hard;
#CHARTSTYLE:;
#DIFFICULTY:Edit;
#METER:14;
#RADARVALUES:0.649213,0.661811,0.000000,0.349576,0.301907,429.000000,429.000000,0.000000,33.000000,0.000000,0.000000,0.000000,0.000000,0.000000,0.649213,0.661811,0.000000,0.349576,0.301907,429.000000,429.000000,0.000000,33.000000,0.000000,0.000000,0.000000,0.000000,0.000000;
#CREDIT:led_light (FNF Hard);
#NOTES:
// measure 0
0000
0000
0000
0000
,  // measure 1
0000
0000
0000
0000
,  // measure 2
0000
0000
0000
0000
,  // measure 3
0000
0100
0000
0100
0000
0100
0001
0010
,  // measure 4
0000
0100
0000
0100
0001
0010
0001
0100
,  // measure 5
0000
0100
0000
0100
0000
0100
0001
0010
,  // measure 6
0000
0100
0000
0100
0001
0010
1000
0100
,  // measure 7
0000
0100
0000
0100
0000
0100
0001
0010
,  // measure 8
0000
0100
0000
0100
0001
0010
0001
0100
,  // measure 9
0000
0100
0000
0100
0000
0100
0001
0010
,  // measure 10
0000
0100
0000
0100
0001
0010
1000
0100
,  // measure 11
0010
0000
1000
0000
0002
0003
0000
0000
0100
0000
0020
0000
0000
0000
0030
0000
0002
0003
0000
0000
0000
0000
0000
0000
1000
0000
0000
0000
0010
0000
0000
0000
,  // measure 12
0000
0000
1000
0000
0000
0000
1000
0000
0000
0000
1000
0100
0010
0000
0002
0000
,  // measure 13
0000
0000
0000
0000
0003
0000
0000
0000
0200
0300
0000
0000
0000
0000
0000
0000
0002
0003
0000
0000
0000
0000
0000
0000
0100
0000
0000
0000
1000
0000
0000
0000
,  // measure 14
0000
0000
1000
0000
0000
0000
0100
0000
0000
0000
0100
0000
0020
0000
0000
0030
,  // measure 15
0010
0000
1000
0000
0002
0003
0000
0000
0100
0000
0020
0000
0000
0000
0030
0000
0002
0003
0000
0000
0000
0000
0000
0000
1000
0000
0000
0000
0010
0000
0000
0000
,  // measure 16
0000
0000
1000
0000
0000
0000
1000
0000
0000
0000
1000
0100
0010
0000
0002
0000
,  // measure 17
0000
0000
0000
0000
0003
0000
0000
0000
0200
0300
0000
0000
0000
0000
0000
0000
0002
0003
0000
0000
0000
0000
0000
0000
0100
0000
0000
0000
1000
0000
0000
0000
,  // measure 18
0000
0000
1000
0000
0000
0000
0100
0000
0000
0000
0100
0000
0020
0000
0000
0030
,  // measure 19
2000
0000
0001
3000
0100
0000
1000
0001
0010
0000
0001
0000
0100
0000
1000
0001
,  // measure 20
0010
0000
0001
0000
0100
0000
1000
0001
0010
0000
0001
0000
0001
0000
1000
0000
,  // measure 21
0001
0000
0001
0000
0100
0000
1000
0001
0010
0000
0001
0000
0100
0000
1000
0001
,  // measure 22
0010
0000
0000
0000
0001
0000
0000
0000
0100
0000
0000
0000
1000
0000
0000
0000
0100
0000
1000
0000
0020
0030
0000
0000
0001
0000
0000
0000
0100
0000
0000
0000
,  // measure 23
0002
0003
0001
0000
0100
0000
1000
0001
0010
0000
0001
0000
0100
0000
1000
0001
,  // measure 24
0010
0000
0001
0000
0100
0000
1000
0001
0010
0000
0001
0000
0001
0000
1000
0000
,  // measure 25
0001
0000
0001
0000
0100
0000
1000
0001
0010
0000
0001
0000
0100
0000
1000
0001
,  // measure 26
0010
0000
0000
0000
0001
0000
0000
0000
0100
0000
0000
0000
1000
0000
0000
0000
0100
0000
1000
0000
0020
0030
0000
0000
0001
0000
0000
0000
0100
0000
0000
0000
,  // measure 27
1000
0010
0001
0000
0010
0000
1000
0000
0100
0000
1000
0000
0100
0000
0001
0000
,  // measure 28
1000
0010
0001
0000
0010
0000
1000
0000
0100
0000
1000
0000
0100
0000
0001
0000
,  // measure 29
1000
0010
0001
0000
0010
0000
1000
0000
0100
0000
1000
0000
0100
0000
0001
0000
,  // measure 30
1000
0010
0001
0000
0010
0000
1000
0000
0100
0000
1000
0000
0100
0000
0001
0000
,  // measure 31
0002
0000
0100
0000
0003
0000
0100
0000
0000
0000
0100
0000
0010
1000
0001
0000
,  // measure 32
0000
0000
0100
0000
0000
0000
0100
0000
0000
0000
0100
0000
0001
1000
0001
0000
,  // measure 33
0000
0000
0100
0000
0000
0000
0100
0000
0000
0000
0100
0000
0010
1000
0001
0000
,  // measure 34
0000
0000
0100
0000
0000
0000
0100
0000
0000
0000
0100
0000
0001
1000
0001
0000
,  // measure 35
0000
0000
0100
0000
0000
0000
0100
0000
0000
0000
0100
0000
0010
1000
0001
0000
,  // measure 36
0000
0000
0100
0000
0000
0000
0100
0000
0000
0000
0100
0000
0001
1000
0001
0000
,  // measure 37
0000
0000
0100
0000
0000
0000
0100
0000
0000
0000
0100
0000
0010
1000
0001
0000
,  // measure 38
0000
0000
0100
0000
0000
0000
0100
0000
0000
0000
0100
0000
0001
1000
0001
0000
,  // measure 39
0010
0001
1000
0001
0100
1000
0100
0001
,  // measure 40
1000
0000
0001
0000
0100
0000
0000
0000
1000
0000
0100
0000
0002
0003
0000
0000
0100
0000
0000
0000
0010
0000
0000
0000
0002
0000
0000
0000
0003
0000
0000
0000
,  // measure 41
0010
0001
1000
0001
0100
1000
0100
0001
,  // measure 42
1000
0000
0001
0000
0100
0000
0000
0000
1000
0000
0100
0000
0002
0003
0000
0000
0100
0000
0000
0000
0010
0000
0000
0000
0002
0000
0000
0000
0003
0000
0000
0000
,  // measure 43
0100
0001
2000
3000
0100
0100
0100
0010
,  // measure 44
0001
1000
0001
0000
0100
1000
0100
1000
0020
0000
0000
0030
0020
0000
0000
0030
,  // measure 45
0100
0001
2000
3000
0100
1000
0100
0010
,  // measure 46
0001
1000
0001
0000
0100
1000
0100
1000
0020
0000
0000
0030
0020
0000
0000
0030
,  // measure 47
0010
1000
0001
0000
0100
0000
1000
0001
0010
0000
0001
0000
0100
0000
1000
0001
,  // measure 48
0010
0000
0001
0000
0100
0000
1000
0001
0010
0000
0001
0000
0001
0000
1000
0000
,  // measure 49
0001
0000
0001
0000
0100
0000
1000
0001
0010
0000
0001
0000
0100
0000
1000
0001
,  // measure 50
0010
0000
0000
0000
0001
0000
0000
0000
0100
0000
0000
0000
1000
0000
0000
0000
0100
0000
1000
0000
0020
0030
0000
0000
0001
0000
0000
0000
0100
0000
0000
0000
,  // measure 51
0002
0003
0001
0000
0100
0000
1000
0001
0010
0000
0001
0000
0100
0000
1000
0001
,  // measure 52
0010
0000
0001
0000
0100
0000
1000
0001
0010
0000
0001
0000
0001
0000
1000
0000
,  // measure 53
0001
0000
0001
0000
0100
0000
1000
0001
0010
0000
0001
0000
0100
0000
1000
0001
,  // measure 54
0010
0000
0000
0000
0001
0000
0000
0000
0100
0000
0000
0000
1000
0000
0000
0000
0100
0000
1000
0000
0020
0030
0000
0000
0001
0000
0000
0000
0100
0000
0000
0000
,  // measure 55
1000
0010
0001
0000
0010
0000
1000
0000
0100
0000
1000
0000
0100
0000
0001
0000
,  // measure 56
1000
0010
0001
0000
0010
0000
1000
0000
0100
0000
1000
0000
0100
0000
0001
0000
,  // measure 57
1000
0010
0001
0000
0010
0000
1000
0000
0100
0000
1000
0000
0100
0000
0001
0000
,  // measure 58
1000
0010
0001
0000
0010
0000
1000
0000
0100
0000
1000
0000
0100
0000
0001
0000
,  // measure 59
0002
0000
0003
0000
;
