#VERSION:0.83;
#TITLE:Eggnog;
#SUBTITLE:[B-Side Remix];
#ARTIST:JADS;
#TITLETRANSLIT:;
#SUBTITLETRANSLIT:;
#ARTISTTRANSLIT:;
#GENRE:Friday Night Funkin';
#ORIGIN:;
#CREDIT:;
#BANNER:Eggnog [B-Side Remix].png;
#BACKGROUND:../bg.png;
#PREVIEWVID:;
#JACKET:Eggnog [B-Side Remix]-jacket.png;
#CDIMAGE:;
#DISCIMAGE:;
#LYRICSPATH:;
#CDTITLE:../cdtitle.png;
#MUSIC:Eggnog [B-Side Remix].ogg;
#OFFSET:1.550000;
#SAMPLESTART:16.049000;
#SAMPLELENGTH:15.000000;
#SELECTABLE:YES;
#BPMS:0.000=150.000;
#STOPS:;
#DELAYS:;
#WARPS:;
#TIMESIGNATURES:0.000=4=4;
#TICKCOUNTS:0.000=4;
#COMBOS:0.000=1;
#SPEEDS:0.000=1.000=0.000=0;
#SCROLLS:0.000=1.000;
#FAKES:;
#LABELS:0.000=Song Start;
#BGCHANGES: -1.000=Eggnog [B-Side Remix].avi=1.000=0=0=0=StretchNoLoop====,
99999=-nosongbg-=1.000=0=0=0 // don't automatically add -songbackground-
;
#KEYSOUNDS:;
#ATTACKS:
;

//---------------dance-single - FNF Hard----------------
#NOTEDATA:;
#CHARTNAME:;
#STEPSTYPE:dance-single;
#DESCRIPTION:FNF Hard;
#CHARTSTYLE:;
#DIFFICULTY:Edit;
#METER:17;
#RADARVALUES:0.800564,0.828982,0.000000,0.319931,0.779186,543.000000,543.000000,0.000000,31.000000,0.000000,0.000000,0.000000,0.000000,0.000000,0.800564,0.828982,0.000000,0.319931,0.779186,543.000000,543.000000,0.000000,31.000000,0.000000,0.000000,0.000000,0.000000,0.000000;
#CREDIT:led_light (FNF Hard);
#NOTES:
0000
0000
0000
0000
,
0000
0000
0000
0000
,
0000
0000
0000
0000
,
0000
0000
0001
0100
0001
0000
0000
0000
0001
0000
0001
0000
1000
0000
0010
0000
,
0000
0000
0001
1000
0001
0000
0001
0000
0100
0000
0010
1000
0001
0000
0010
0000
,
0000
0000
0001
0100
0001
0000
0000
0000
0001
0000
0001
0000
1000
0000
0010
0000
,
0000
0000
0001
1000
0001
0000
0001
0000
0100
0000
0010
1000
0001
0000
0010
0000
,
0000
0000
1000
0010
1000
0000
0000
0000
1000
0000
1000
0000
0001
0000
0100
0000
,
0000
0000
1000
0001
1000
0000
1000
0000
0010
0000
0100
0001
1000
0000
0100
0000
,
0000
0000
1000
0010
1000
0000
0000
0000
1000
0000
1000
0000
0001
0000
0100
0000
,
0000
0000
1000
0001
1000
0000
1000
0000
0010
0000
0100
0001
1000
0000
0100
0000
,
0010
1000
0010
1000
0100
0002
0000
0000
2003
0000
0000
0000
3100
0000
0001
0000
,
0001
0000
0010
0000
0000
0000
0010
0000
0000
0000
0010
1000
0100
0000
0002
0000
,
0000
0000
0013
0000
0100
0100
0001
2000
,
0000
0000
3000
0000
0000
0000
1000
0000
0000
0000
0000
0000
0000
0000
0000
0000
0000
0000
0001
0000
0000
0100
0000
0000
0001
0000
0000
0000
0000
0000
0001
0000
0000
0000
0000
0000
0020
0000
0000
0000
0000
0000
0000
0000
0000
0000
0000
0000
,
0130
0001
0100
0001
0010
2000
0000
0000
3002
0000
0000
0000
0013
0000
1000
0000
,
1000
0000
0100
0000
0000
0000
0100
0000
0000
0000
0100
0001
0010
0000
2000
0000
,
0000
0000
3100
0000
0010
0010
1000
0002
,
0000
0000
0003
0000
0000
0000
0001
0000
0000
0000
0000
0000
0000
0000
0000
0000
0000
0000
1000
0000
0000
0010
0000
0000
1000
0000
0000
0000
0000
0000
1000
0000
0000
0000
0000
0000
0200
0000
0000
0000
0000
0000
0000
0000
0000
0000
0000
0000
,
0302
0000
0010
0000
1003
0000
0100
0010
0001
1000
0100
0000
1000
0000
0100
0010
,
0001
1000
0100
0000
1000
0000
0100
0010
0001
1000
0100
0000
0001
0010
0100
0000
,
0010
0000
0010
0000
1000
0000
0100
0010
0001
1000
0100
0000
1000
0000
0100
0010
,
0001
1000
0100
0000
1000
0000
0001
0000
1000
0010
0001
0100
0010
0001
1000
0000
,
0020
0000
0100
0000
0031
0000
0010
0100
1000
0001
0010
0000
0001
0000
0010
0100
,
1000
0001
0010
0000
0001
0000
0010
0100
1000
0001
0010
0000
1000
0100
0010
0000
,
0100
0000
0100
0000
0001
0000
0010
0100
1000
0001
0010
0000
0001
0000
0010
0100
,
1000
0001
0010
0000
0001
0000
1000
0000
0001
0100
1000
0010
0100
1000
0001
0000
,
0200
1000
0001
0000
0310
0000
1000
0000
0001
0010
0100
0000
0010
0100
1000
0000
,
0020
0001
1000
0000
0130
0000
0001
0000
1000
0100
0010
0000
0100
0010
0001
0000
,
0200
1000
0001
0000
0310
0001
1000
0100
0001
0010
0100
0000
0010
0100
1000
0000
,
0020
0001
1000
0000
0130
1000
0001
0010
1000
0100
0010
0000
0100
0010
0001
0000
,
0200
0000
0001
1000
0301
0000
0000
0000
0001
0100
0001
0000
0001
0010
1000
0100
,
0000
0000
0001
1000
0001
0000
0001
0000
0100
1000
0100
0000
0001
0010
1000
0000
,
0000
0000
0001
1000
0001
0000
0000
0000
0001
0100
0001
0000
0001
0010
1000
0100
,
0000
0000
0001
1000
0001
0000
0001
0000
0100
1000
0100
0000
0001
0010
1000
0000
,
0000
0000
1000
0001
1000
0000
0000
0000
1000
0010
1000
0000
1000
0100
0001
0010
,
0000
0000
1000
0001
1000
0000
1000
0000
0010
0001
0010
0000
1000
0100
0001
0000
,
0000
0000
1000
0001
1000
0000
0000
0000
1000
0010
1000
0000
1000
0100
0001
0010
,
0000
0000
1000
0001
1000
0000
1000
0000
0010
0001
0010
0000
1000
0100
0001
0000
,
1000
0001
0010
0000
0001
0100
1000
0000
0001
0000
1000
0000
0100
0000
0010
0000
,
1000
0001
0010
0000
0100
0010
0001
0000
1000
0000
0010
0000
2000
0000
0000
0000
,
3001
1000
0100
0000
1000
0010
0001
0000
1000
0000
0001
0000
0010
0000
0100
0000
,
0001
1000
0100
0000
0010
0100
1000
0000
0001
0000
0100
0000
0002
0000
0000
0000
,
0103
0100
0010
0000
0001
0000
1000
0000
0010
0000
1000
0000
0100
1000
0100
0001
,
1000
0000
0000
0001
0000
0000
0100
0000
0000
0000
0000
0000
0010
0000
0000
1000
0000
0000
0010
0000
0000
0001
0000
0000
0100
0000
0000
0010
0000
0000
1000
0000
0000
0000
0000
0000
0020
0000
0000
0000
0000
0000
0000
0000
0030
0000
0000
0000
,
0010
0010
0100
0000
1000
0000
0001
0000
0100
0000
0001
0000
0010
0001
0010
1000
,
0001
0000
0000
1000
0000
0000
0010
0000
0000
0000
0000
0000
0100
0000
0000
0001
0000
0000
0100
0000
0000
1000
0000
0000
0010
0000
0000
0100
0000
0000
0001
0000
0000
0000
0000
0000
0200
0000
0000
0000
0000
0000
0000
0000
0300
0000
0000
0000
,
0100
0001
0100
0001
0010
2000
0000
0000
3002
0000
0000
0000
0013
0000
1000
0000
,
1000
0000
0100
0000
0000
0000
0100
0000
0000
0000
0100
0001
0010
0000
2000
0000
,
0000
0000
3100
0000
0010
0010
1000
0002
,
0000
0000
0003
0000
0000
0000
0001
0000
0000
0000
0000
0000
0000
0000
0000
0000
0000
0000
1000
0000
0000
0010
0000
0000
1000
0000
0000
0000
0000
0000
1000
0000
0000
0000
0000
0000
0200
0000
0000
0000
0000
0000
0000
0000
0000
0000
0000
0000
,
0301
0000
0100
0000
0001
0000
0010
0100
1000
0001
0010
0000
0001
0000
0010
0100
,
1000
0001
0010
0000
0001
0000
0010
0100
1000
0001
0010
0000
1000
0100
0010
0000
,
0100
0000
0100
0000
0001
0000
0010
0100
1000
0001
0010
0000
0001
0000
0010
0100
,
1000
0001
0010
0000
0001
0000
1000
0000
0001
0100
1000
0010
0100
1000
0001
0000
,
0200
1000
0001
0000
0310
0000
1000
0000
0001
0010
0100
0000
0010
0100
1000
0000
,
0020
0001
1000
0000
0130
0000
0001
0000
1000
0100
0010
0000
0100
0010
0001
0000
,
0200
1000
0001
0000
0310
0001
1000
0100
0001
0010
0100
0000
0010
0100
1000
0000
,
0020
0001
1000
0000
0130
1000
0001
0010
1000
0100
0010
0000
0100
0010
0001
0000
,
0200
0000
0300
0000
;

//---------------dance-single - ----------------
#NOTEDATA:;
#CHARTNAME:;
#STEPSTYPE:dance-single;
#DESCRIPTION:;
#CHARTSTYLE:;
#DIFFICULTY:Beginner;
#METER:3;
#RADARVALUES:0.157754,0.184218,0.000000,0.010320,0.000000,107.000000,107.000000,0.000000,1.000000,0.000000,0.000000,0.000000,0.000000,0.000000,0.157754,0.184218,0.000000,0.010320,0.000000,107.000000,107.000000,0.000000,1.000000,0.000000,0.000000,0.000000,0.000000,0.000000;
#CREDIT:led_light;
#NOTES:
0000
0000
0000
0000
,
0000
0000
0000
0000
,
0000
0000
0000
0000
,
1000
0000
0000
0000
,
1000
0000
0000
0000
,
1000
0000
0000
0000
,
1000
0000
0000
0000
,
0001
0000
0000
0000
,
0001
0000
0000
0000
,
0001
0000
0000
0000
,
0001
0000
0000
0000
,
1000
0000
1000
0000
,
0100
0000
0000
0000
,
0010
0000
0001
0000
,
1000
0000
0000
0000
,
0001
0000
0001
0000
,
0100
0000
0000
0000
,
0010
0000
0010
0000
,
0010
0010
0010
0000
,
1000
0000
1000
0000
,
1000
1000
1000
0000
,
0001
0000
0001
0000
,
0001
0001
0001
0000
,
0010
0000
0010
0000
,
0010
0010
0010
0000
,
0100
0000
0100
0000
,
0100
0100
0100
0000
,
1000
0000
0010
0000
,
0001
0000
0010
0000
,
1000
0000
0100
0000
,
0001
0000
0100
0000
,
1000
0000
0000
0000
,
1000
0000
0000
0000
,
1000
0000
0000
0000
,
1000
0000
0000
0000
,
0001
0000
0000
0000
,
0001
0000
0000
0000
,
0001
0000
0000
0000
,
0001
0000
0000
0000
,
0010
0000
0100
0000
,
1000
1000
1000
0000
,
0100
0000
0010
0000
,
0001
0001
0001
0000
,
0010
0000
0100
0000
,
0010
0010
0010
0000
,
0001
0000
1000
0000
,
0001
0001
0001
0000
,
1000
0000
1000
0000
,
1000
1000
1000
0000
,
0001
0000
0001
0000
,
0001
0001
0001
0000
,
0100
0000
0100
0000
,
0100
0100
0100
0000
,
0010
0000
0010
0000
,
0010
0010
0010
0000
,
1000
0000
0100
0000
,
0001
0000
0100
0000
,
1000
0000
0010
0000
,
0001
0000
0010
0000
,
0200
0000
0300
0000
;

//---------------dance-single - ----------------
#NOTEDATA:;
#CHARTNAME:;
#STEPSTYPE:dance-single;
#DESCRIPTION:;
#CHARTSTYLE:;
#DIFFICULTY:Easy;
#METER:6;
#RADARVALUES:0.303713,0.337733,0.072242,0.061922,0.000000,206.000000,199.000000,7.000000,6.000000,0.000000,0.000000,0.000000,0.000000,0.000000,0.303713,0.337733,0.072242,0.061922,0.000000,206.000000,199.000000,7.000000,6.000000,0.000000,0.000000,0.000000,0.000000,0.000000;
#CREDIT:led_light;
#NOTES:
0000
0000
0000
0000
,
0000
0000
0000
0000
,
0000
0000
0000
0000
,
0000
0001
0001
0001
,
0000
1000
0100
0001
,
0000
1000
1000
1000
,
0000
0001
0100
1000
,
0000
0010
0010
0010
,
0000
0100
0001
0010
,
0000
0100
0100
0100
,
0000
0010
0001
0100
,
0010
0001
0020
0030
,
1000
0000
1000
0000
,
0020
0030
0010
0000
,
0100
0100
0001
0000
,
0010
1000
0020
0030
,
0001
0000
0001
0000
,
0010
0000
0010
0000
,
0100
0100
1000
0001
,
1000
0100
0001
0100
,
1000
0100
0001
0001
,
1000
0010
0001
0010
,
1000
0010
0001
1001
,
0001
0100
1000
0100
,
0001
0100
1000
1000
,
0001
0010
1000
0010
,
0001
0010
1000
1001
,
0001
0001
0100
0001
,
1000
1000
0100
1000
,
0010
0010
0100
0001
,
0010
0010
0100
1000
,
0002
0103
0100
0100
,
0000
0010
1000
0100
,
0000
0010
0010
0010
,
0000
0100
1000
0010
,
0000
0001
0001
0001
,
0000
1000
0100
0001
,
0000
1000
1000
1000
,
0000
0001
0100
1000
,
0100
0100
0001
0001
,
0010
0100
0010
0110
,
0100
0100
1000
1000
,
0010
0100
0010
0110
,
1000
0100
1000
1000
,
0010
0100
0001
1100
,
0001
0100
0001
0001
,
0010
0100
1000
0101
,
0010
1000
0010
0010
,
0001
1000
0001
1000
,
0020
0130
0010
1000
,
0100
0100
1000
0001
,
1000
0100
0001
0100
,
1000
0100
0001
0001
,
1000
0010
0001
0010
,
1000
0010
0001
1001
,
1000
1000
0010
1000
,
0001
0001
0010
0001
,
0100
0100
0010
1000
,
0100
0100
0010
0001
,
2000
0000
3000
0000
;

//---------------dance-single - ----------------
#NOTEDATA:;
#CHARTNAME:;
#STEPSTYPE:dance-single;
#DESCRIPTION:;
#CHARTSTYLE:;
#DIFFICULTY:Medium;
#METER:10;
#RADARVALUES:0.458518,0.460545,0.041281,0.103203,0.000000,311.000000,307.000000,4.000000,10.000000,0.000000,0.000000,0.000000,0.000000,0.000000,0.458518,0.460545,0.041281,0.103203,0.000000,311.000000,307.000000,4.000000,10.000000,0.000000,0.000000,0.000000,0.000000,0.000000;
#CREDIT:led_light;
#NOTES:
0000
0000
0000
0000
,
0000
0000
0000
0000
,
0000
0000
0000
0000
,
0000
0001
0100
0000
0001
0000
0001
0000
,
0000
1000
0100
0000
0010
0100
0010
0000
,
0000
0001
0100
0000
0001
0000
0001
0000
,
0000
1000
0100
0000
0010
0100
0010
0100
,
0000
1000
0100
0000
1000
0000
1000
0000
,
0000
0001
0100
0000
0010
0100
0010
0000
,
0000
1000
0100
0000
1000
0000
1000
0000
,
0000
0001
0100
0000
0010
0100
0010
0100
,
0002
0103
0200
0310
,
1000
0100
0000
0100
0000
1000
0010
0000
,
2000
0000
3100
0000
0001
0100
0001
0100
,
0000
0100
0000
1000
0100
0010
0001
0000
,
2000
3010
0020
0130
,
0001
0010
0000
0010
0000
0001
0100
0000
,
0002
0000
0013
0000
1000
0010
1000
0010
,
0000
0010
0000
0001
0010
0100
1000
0000
,
0001
0100
0001
0000
0100
1000
0100
0000
,
0001
0100
0001
0000
0100
0010
0100
0010
,
1000
0100
1000
0000
0100
0001
0100
0000
,
1000
0100
1000
0000
0001
0010
1000
0010
,
0001
0010
0001
0000
0010
1000
0010
0000
,
0001
0010
0001
0000
0010
0100
0010
0100
,
1000
0010
1000
0000
0010
0001
0010
0000
,
1000
0010
1000
0000
0001
0100
1000
0100
,
0001
1000
0001
0000
0010
0000
0100
0000
,
1000
0100
1000
0000
0001
0000
0100
0000
,
0001
1000
0001
0000
0100
0000
0010
0000
,
1000
0010
1000
0000
0001
0000
0010
0000
,
0002
1003
0100
0000
1000
0100
1000
0000
,
0000
0001
0100
0000
0010
0100
0010
0000
,
0000
1000
0100
0000
1000
0100
1000
0000
,
0000
0001
0100
0000
0010
0100
0010
0100
,
0000
0001
0100
0000
0001
0100
0001
0000
,
0000
1000
0100
0000
0010
0100
0010
0000
,
0000
0001
0100
0000
0001
0100
0001
0000
,
0000
1000
0100
0000
0010
0100
0010
0100
,
1000
0100
1000
0000
0001
0100
0001
0000
,
1000
0100
0010
0000
0001
0000
1100
0000
,
0001
0100
0001
0000
1000
0100
1000
0000
,
0001
0100
0010
0000
1000
0000
0101
0000
,
0010
0010
0010
0000
1000
0001
1000
0000
,
0100
1000
0100
0010
0001
0000
0110
0000
,
0100
0100
0100
0000
1000
0001
1000
0000
,
0010
1000
0010
0100
0001
0000
0110
0000
,
1000
0100
0100
0000
0200
0000
0310
0000
,
0001
0100
0000
0100
0000
0001
0010
0000
,
0002
0000
0103
0000
1000
0100
1000
0100
,
0000
0100
0000
0001
0100
0010
1000
0000
,
0001
0010
0001
0000
0010
1000
0010
0000
,
0001
0010
0001
0000
0010
0100
0010
0100
,
1000
0010
1000
0000
0010
0001
0010
0000
,
1000
0010
1000
0000
0001
0100
1000
0100
,
0001
1000
0001
0000
0010
0000
0100
0000
,
1000
0100
1000
0000
0001
0000
0100
0000
,
0001
1000
0001
0000
0100
0000
0010
0000
,
1000
0010
1000
0000
0001
0000
0010
0000
,
0200
0000
0300
0000
;

//---------------dance-single - ----------------
#NOTEDATA:;
#CHARTNAME:;
#STEPSTYPE:dance-single;
#DESCRIPTION:;
#CHARTSTYLE:;
#DIFFICULTY:Hard;
#METER:15;
#RADARVALUES:0.782872,0.767576,0.072242,0.185766,0.670822,531.000000,524.000000,7.000000,18.000000,0.000000,0.000000,0.000000,0.000000,0.000000,0.782872,0.767576,0.072242,0.185766,0.670822,531.000000,524.000000,7.000000,18.000000,0.000000,0.000000,0.000000,0.000000,0.000000;
#CREDIT:led_light;
#NOTES:
// measure 0
0000
0000
0000
0000
,  // measure 1
0000
0000
0000
0000
,  // measure 2
0000
0000
0000
0000
,  // measure 3
0000
0000
1000
0100
1000
0000
0000
0000
0001
0000
0100
0000
0001
0000
0100
0000
,  // measure 4
0000
0000
1000
0100
1000
0000
0100
0000
0001
0000
0100
0001
0100
0000
0010
0000
,  // measure 5
0000
0000
1000
0100
1000
0000
0000
0000
0001
0000
0100
0000
0001
0000
0100
0000
,  // measure 6
0000
0000
1000
0100
1000
0000
0100
0000
0001
0000
0010
0100
1000
0000
0100
0000
,  // measure 7
0000
0000
1000
0010
1000
0000
0000
0000
0001
0000
0010
0000
0001
0000
0010
0000
,  // measure 8
0000
0000
1000
0010
1000
0000
0010
0000
0001
0000
0010
0001
0010
0000
0100
0000
,  // measure 9
0000
0000
1000
0010
1000
0000
0000
0000
0001
0000
0010
0000
0001
0000
0010
0000
,  // measure 10
0000
0000
1000
0010
1000
0000
0010
0000
0001
0000
0100
0010
1000
0000
0010
0000
,  // measure 11
1000
0100
1000
0000
0100
0020
0000
0030
0002
0000
0003
0000
0001
0000
0100
0000
,  // measure 12
0010
0000
0100
0000
0000
0000
0100
0000
0000
0000
0001
0010
0100
0000
2000
0000
,  // measure 13
0010
3000
1010
0000
1000
0100
0010
0100
,  // measure 14
0000
0000
0100
0000
0000
0000
1000
0001
0100
0000
0010
0000
2000
0000
3000
0000
,  // measure 15
0001
0100
0001
0000
0100
0020
0000
0030
2000
0000
3000
0000
1000
0000
0100
0000
,  // measure 16
0010
0000
0100
0000
0000
0000
0100
0000
0000
0000
1000
0010
0100
0000
0002
0000
,  // measure 17
0010
0003
0011
0000
0001
0100
0010
0100
,  // measure 18
0000
0000
0100
0000
0000
0000
0001
1000
0100
0000
0010
0000
0002
0000
0000
0000
,  // measure 19
1003
0000
0100
0000
0001
0000
0100
0010
0100
0000
1000
0000
0001
0000
0010
0100
,  // measure 20
0010
1000
0010
0000
0001
0000
1000
0100
0010
0100
0010
0000
0001
0100
0010
0000
,  // measure 21
1000
0000
0001
0000
0010
0000
1000
0010
1000
0000
0001
0000
0100
0000
1000
0100
,  // measure 22
1000
0100
0010
0000
0001
0000
1000
0000
0001
0010
0100
0010
0100
1000
0100
0000
,  // measure 23
1000
0000
0010
0000
0001
0000
0010
0100
0010
1000
0001
0000
1000
0000
0001
0100
,  // measure 24
0010
0100
0010
0000
1000
0000
0010
0100
0010
0100
0001
0000
0010
0100
1000
0000
,  // measure 25
0001
0000
0010
0000
0100
0000
1000
0100
0010
0100
0010
0000
0100
0000
1000
0001
,  // measure 26
0010
0100
0010
0000
0001
0000
1000
0000
0100
0010
0001
0100
0010
0000
0100
0000
,  // measure 27
0010
0100
0010
0000
1000
0000
0010
0000
1000
0100
0010
0000
0100
0010
0001
0000
,  // measure 28
0010
0100
0010
0000
0001
0000
0010
0000
0001
0100
0010
0000
0100
0010
1000
0000
,  // measure 29
0100
0010
0100
0000
0001
0000
1000
0000
0010
0100
1000
0000
0100
0010
0001
0000
,  // measure 30
0010
0100
0010
0000
1000
0000
0001
0000
0100
0010
0001
0000
0010
0100
1000
0000
,  // measure 31
0002
0000
1003
0100
1000
0000
0000
0000
0001
0100
0001
0000
0100
0010
0100
0010
,  // measure 32
0000
0000
0100
0001
1000
0000
0100
0000
1000
0001
0010
0000
0001
1000
0010
0000
,  // measure 33
1000
0000
0001
0100
0001
0000
0000
0000
1000
0100
1000
0000
0100
0010
0100
0010
,  // measure 34
0000
0000
0100
1000
0100
0000
1000
0000
0001
1000
0100
0000
1000
0001
0100
0000
,  // measure 35
0001
0000
1000
0010
1000
0000
0000
0000
0001
0010
0001
0000
0010
0100
0010
0100
,  // measure 36
0000
0000
0010
0001
1000
0000
0010
0000
1000
0001
0100
0000
0001
1000
0100
0000
,  // measure 37
1000
0000
0001
0010
0001
0000
0000
0000
1000
0010
1000
0000
0010
0100
0010
0100
,  // measure 38
0000
0000
0010
1000
0010
0000
1000
0000
0001
1000
0010
0000
1000
0001
0010
0000
,  // measure 39
0100
1000
0100
0000
1000
0100
1000
0000
0001
0000
0100
0000
0010
0000
1000
0000
,  // measure 40
0100
0010
0100
0000
0001
0100
0001
0000
0100
0000
1000
0000
0002
0000
0000
0000
,  // measure 41
0013
0001
0010
0000
0001
0010
0001
0000
1000
0000
0010
0000
0100
0000
0001
0000
,  // measure 42
0010
0100
0010
0000
1000
0010
1000
0000
0010
0000
0001
0000
2000
0000
0000
0000
,  // measure 43
3100
0000
0010
0000
0210
0000
0000
0000
1300
0000
1000
0000
0001
0100
0001
0000
,  // measure 44
0100
0010
1000
0000
0001
0010
0100
1000
0100
0000
0000
0000
0110
0000
0000
0000
,  // measure 45
0010
0000
0100
0000
0120
0000
0000
0000
0031
0000
0001
0000
1000
0010
1000
0000
,  // measure 46
0010
0100
0001
0000
1000
0100
0010
0001
0010
0000
0000
0000
0110
0000
0000
0000
,  // measure 47
0001
0100
0001
0000
0100
0020
0000
0030
2000
0000
3000
0000
1000
0000
0100
0000
,  // measure 48
0010
0000
0100
0000
0000
0000
0100
0000
0000
0000
1000
0010
0100
0000
0002
0000
,  // measure 49
0010
0003
0011
0000
0001
0100
0010
0100
,  // measure 50
0000
0000
0100
0000
0000
0000
0001
1000
0100
0000
0010
0000
0002
0000
0000
0000
,  // measure 51
1003
0000
0010
0000
0001
0000
0010
0100
0010
1000
0001
0000
1000
0000
0001
0100
,  // measure 52
0010
0100
0010
0000
1000
0000
0010
0100
0010
0100
0001
0000
0010
0100
1000
0000
,  // measure 53
0001
0000
0010
0000
0100
0000
1000
0100
0010
0100
0010
0000
0100
0000
1000
0001
,  // measure 54
0010
0100
0010
0000
0001
0000
1000
0000
0100
0010
0001
0100
0010
0000
0100
0000
,  // measure 55
0010
0100
0010
0000
1000
0000
0010
0000
1000
0100
0010
0000
0100
0010
0001
0000
,  // measure 56
0010
0100
0010
0000
0001
0000
0010
0000
0001
0100
0010
0000
0100
0010
1000
0000
,  // measure 57
0100
0010
0100
0000
0001
0000
1000
0000
0010
0100
1000
0000
0100
0010
0001
0000
,  // measure 58
0010
0100
0010
0000
1000
0000
0001
0000
0100
0010
0001
0000
0010
0100
1000
0000
,  // measure 59
0002
0000
0003
0000
;
