#TITLE:Eclipse;
#SUBTITLE:;
#ARTIST:Dreamcatcher;
#TITLETRANSLIT:;
#SUBTITLETRANSLIT:;
#ARTISTTRANSLIT:;
#GENRE:Anime/Game;
#CREDIT:;
#BANNER:Eclipse.png;
#BACKGROUND:Eclipse-bg.png;
#LYRICSPATH:;
#CDTITLE:../cdtitle.png;
#MUSIC:Eclipse.ogg;
#OFFSET:0.104000;
#SAMPLESTART:59.585999;
#SAMPLELENGTH:15.000000;
#SELECTABLE:YES;
#BPMS:0.000000=195.000000
;
#STOPS:
;
#BGCHANGES:0.375=Eclipse.avi=1.000=0=0=0=StretchNoLoop====,
99999=-nosongbg-=1.000=0=0=0 // don't automatically add -songbackground-
;
#KEYSOUNDS:;
#ATTACKS:;

//---------------dance-single - ----------------
#NOTES:
     dance-single:
     :
     Beginner:
     2:
     0.088298,0.158317,0.010844,0.130124,0.000000,57.000000,56.000000,1.000000,12.000000,0.000000,0.000000,0.088298,0.158317,0.010844,0.130124,0.000000,57.000000,56.000000,1.000000,12.000000,0.000000,0.000000:
0000
0000
0000
0000
,
0000
0000
0000
0000
,
0000
0000
0000
0000
,
0000
0000
0000
0000
,
0000
0000
0000
0000
,
0000
0000
0000
0000
,
0000
0000
0000
0000
,
0000
0000
0000
0000
,
0000
0000
0000
0000
,
0010
0000
0000
0000
,
0010
0000
0000
0000
,
1000
0000
0000
0000
,
0001
0000
0000
0000
,
0010
0000
0000
0000
,
0100
0000
0000
0000
,
2000
0000
0000
0000
,
0000
0000
3000
0000
,
0001
0000
0000
0000
,
0001
0000
0000
0000
,
0200
0000
0000
0000
,
0300
0000
0000
0000
,
0010
0000
0000
0000
,
0010
0000
0000
0000
,
2000
0000
0000
0000
,
3000
0000
0000
0000
,
0200
0000
0000
0000
,
0300
0000
0000
0000
,
0002
0000
0000
0000
,
0003
0000
0000
0000
,
0020
0000
0000
0000
,
0030
0000
0000
0000
,
2000
0000
0000
0000
,
3000
0000
0000
0000
,
0001
0000
0000
0000
,
0001
0000
0000
0000
,
1000
0000
0000
0000
,
1000
0000
0000
0000
,
0001
0000
0000
0000
,
0010
0000
0000
0000
,
0200
0000
0000
0000
,
0300
0000
0000
0000
,
1000
0000
0000
0000
,
0000
0000
0000
0000
,
0001
0000
0000
0000
,
0000
0000
0000
0000
,
1000
0000
0000
0000
,
0010
0000
0000
0000
,
0200
0000
0000
0000
,
0300
0000
0000
0000
,
0010
0000
0010
0000
,
0010
0000
0000
0000
,
1000
0000
1000
0000
,
1000
0000
0000
0000
,
0100
0000
0000
0000
,
0010
0000
0000
0000
,
0001
0000
0001
0000
,
0001
0000
0000
0000
,
0010
0000
0010
0000
,
0010
0000
0000
0000
,
0100
0000
0100
0000
,
0100
0000
0000
0000
,
2000
0000
3000
0000
,
0002
0000
0003
0000
,
1001
0000
0000
0000
,
0000
0000
0000
0000
,
0010
0000
0000
0000
,
0010
0000
0000
0000
,
0001
0000
0000
0000
,
1000
0000
0000
0000
,
0010
0000
0000
0000
,
0100
0000
0000
0000
,
0002
0000
0000
0000
,
0000
0000
0000
0000
,
0003
0000
0000
0000
;

//---------------dance-single - ----------------
#NOTES:
     dance-single:
     :
     Hard:
     13:
     0.537534,0.672848,0.130124,0.401214,0.000000,347.000000,335.000000,12.000000,37.000000,0.000000,0.000000,0.537534,0.672848,0.130124,0.401214,0.000000,347.000000,335.000000,12.000000,37.000000,0.000000,0.000000:
0000
0000
0000
0000
,
0000
0000
0000
0000
,
0000
0000
0000
0000
,
0000
0000
0000
0000
,
0000
0000
0000
0000
,
0000
0000
0000
0000
,
0000
0000
0000
0000
,
0000
0000
0000
0000
,
0100
1000
0100
1000
0020
0000
0030
0000
,
0011
0000
1000
0001
0100
0010
1000
0000
,
1100
0000
0001
0100
0010
1000
0001
0000
,
0020
0000
1030
0010
0001
1000
0010
0000
,
0200
0000
0310
0000
0100
0001
0010
0000
,
1010
0000
0001
0010
0100
1000
0010
0000
,
2000
0000
3100
0010
0001
0100
0010
0000
,
1000
0100
1000
0001
0100
0001
0010
0100
,
0010
0001
0100
1000
0100
0010
1000
0000
,
0002
0000
0100
0000
,
2003
0000
0100
0000
,
3020
0000
0100
0000
,
2000
0000
0030
0000
,
3002
0000
0100
0000
,
0023
0000
0100
0000
,
0032
0000
2000
0000
,
0003
0000
3000
0000
,
0012
0000
0100
0000
,
0203
0000
1000
0000
,
0320
0000
1000
0000
,
2000
0000
0030
0000
,
3200
0000
0001
0000
,
0302
0000
0100
0000
,
0203
0000
0020
0000
,
0300
0000
0130
1000
,
0010
0000
0010
1000
0100
0010
0001
0010
,
0000
0100
1000
0000
0001
0100
0001
0000
,
1000
0000
0010
0100
0001
0100
0010
0100
,
0000
0001
1000
0000
0001
0100
0010
0100
,
1000
0000
0100
0010
0100
0001
0010
0100
,
0000
0100
1000
0000
0100
0010
0100
0000
,
1000
0000
0001
0010
0100
1000
0100
1000
,
0001
0100
0001
0000
0010
1000
0010
0000
,
0110
0000
0001
1000
0010
0100
0001
1000
,
0000
0001
0100
0000
1000
0100
0010
0000
,
2000
0000
3001
0010
0100
0010
1000
0000
,
0010
0100
0010
0001
0010
0100
1000
0000
,
0020
0000
1030
0100
0010
0000
0001
0000
,
0200
0000
0301
0010
0100
0000
1000
0000
,
2200
0000
0000
0000
,
3300
0000
0020
0130
,
1001
0000
0001
0100
0010
1000
0010
1000
,
0100
0010
0100
0010
1000
0010
0001
1000
,
0010
1000
0010
0100
0010
0001
1000
0100
,
0001
0100
0001
1000
0100
0010
0001
0100
,
0001
1000
0100
1000
0010
0100
0001
1000
,
0001
0010
0100
0001
0100
0010
0001
0100
,
0010
0001
0010
0001
0010
1000
0010
1000
,
0001
0100
0010
1000
0100
0010
0100
0000
,
1001
0000
1000
0010
0100
0001
0100
0001
,
0010
0100
0010
0100
0001
0100
1000
0001
,
0100
0001
0100
0010
0100
1000
0001
0010
,
1000
0010
1000
0001
0010
0100
1000
0010
,
2000
3100
0020
0031
,
0200
0320
2030
3001
,
0100
1000
1000
0100
0001
0001
0010
0100
,
0100
1000
0001
1000
2200
0000
3300
0000
,
0011
0000
1000
0001
0100
0010
1000
0000
,
1100
0000
0001
0100
0010
1000
0001
0000
,
0020
0000
1030
0010
0001
1000
0010
0000
,
0200
0000
0310
0000
0100
0001
0010
0000
,
1010
0000
0001
0010
0100
1000
0010
0000
,
2000
0000
3100
0010
0001
0100
0010
0000
,
1000
0100
1000
0001
0100
0001
0010
0100
,
0010
0001
0100
1000
0100
0010
2000
0000
,
3000
0000
0000
0000
;

//---------------dance-single - ----------------
#NOTES:
     dance-single:
     :
     Medium:
     9:
     0.340800,0.514530,0.140967,0.466276,0.000000,220.000000,207.000000,13.000000,43.000000,0.000000,0.000000,0.340800,0.514530,0.140967,0.466276,0.000000,220.000000,207.000000,13.000000,43.000000,0.000000,0.000000:
0000
0000
0000
0000
,
0000
0000
0000
0000
,
0000
0000
0000
0000
,
0000
0000
0000
0000
,
0000
0000
0000
0000
,
0000
0000
0000
0000
,
0000
0000
0000
0000
,
0000
0000
0000
0000
,
0000
0000
0000
0000
,
0011
0000
0100
1000
0000
1000
0100
0000
,
0010
0000
0001
0100
0000
0100
0010
0000
,
2000
0000
3001
0010
0100
0000
1000
0000
,
0200
0310
0020
0130
,
1100
0000
0010
0001
0000
0001
0010
0000
,
0100
0000
1000
0001
0100
0000
0010
0000
,
1000
0000
0100
0001
0000
0100
1000
0000
,
0000
0100
0010
0000
0100
0000
0110
0000
,
0002
0000
0000
0000
,
2003
0000
0000
0000
,
3200
0000
0000
0000
,
0320
0000
0030
0000
,
0200
0000
0000
0000
,
2300
0000
0000
0000
,
3002
0000
0000
0000
,
0000
0000
0003
0000
,
2100
0000
0000
0000
,
3002
0000
0000
0000
,
0203
0000
0000
0000
,
0320
0000
0030
0000
,
0200
0000
0000
0000
,
0302
0000
0000
0000
,
2003
0000
0000
0000
,
3000
0000
1000
0001
,
0100
0000
0000
0010
0000
0100
0000
0002
,
0000
0003
0001
1000
,
0100
0000
0000
0010
0000
0001
0000
0200
,
0000
0300
0001
1000
,
0001
0000
0000
0010
0000
0100
0000
2000
,
0000
3100
0010
0100
,
2000
0000
3002
0000
,
0203
0000
0301
1000
,
0010
0000
0000
0100
0000
0010
0000
2000
,
0000
3000
1000
0001
,
0020
0000
0000
0230
0000
0000
1300
0000
,
0020
0000
0000
2030
0000
0000
3001
0000
,
0200
0000
0310
1000
,
0200
0000
0301
0100
,
2002
0000
0000
0000
,
3003
0000
0000
0000
,
0110
0000
1000
0100
0001
0000
0100
0000
,
1000
0010
0001
0010
,
1000
0000
0001
0100
0010
0000
1000
0000
,
0100
0010
0100
1000
,
1001
0000
0001
0100
0000
0010
0000
1000
,
0000
0001
0010
0000
0100
0010
0001
0000
,
1000
0000
0010
0100
0000
0001
0000
1100
,
0000
0001
0100
0000
0010
0100
0010
0000
,
0110
0000
0001
0010
1000
0000
0010
0000
,
0001
0100
1000
0100
,
0001
0000
1000
0010
0100
0000
0001
0000
,
0010
0100
0010
0001
,
2000
0100
3200
0010
,
0320
0001
0032
0103
,
0010
0000
1000
0001
0000
0100
0000
0010
,
0000
0100
0001
0000
2200
0000
3300
0000
,
0011
0000
0100
1000
0000
1000
0100
0000
,
0010
0000
0001
0100
0000
0100
0010
0000
,
2000
0000
3001
0010
0100
0000
1000
0000
,
0200
0310
0020
0130
,
1100
0000
0010
0001
0000
0001
0010
0000
,
0100
0000
1000
0001
0100
0000
0010
0000
,
1000
0000
0100
0001
0000
0100
1000
0000
,
0000
0100
0010
0000
0100
0000
0220
0000
,
0330
0000
0000
0000
;

//---------------dance-single - ----------------
#NOTES:
     dance-single:
     :
     Easy:
     5:
     0.199833,0.356213,0.108436,0.498807,0.000000,129.000000,119.000000,10.000000,46.000000,0.000000,0.000000,0.199833,0.356213,0.108436,0.498807,0.000000,129.000000,119.000000,10.000000,46.000000,0.000000,0.000000:
0000
0000
0000
0000
,
0000
0000
0000
0000
,
0000
0000
0000
0000
,
0000
0000
0000
0000
,
0000
0000
0000
0000
,
0000
0000
0000
0000
,
0000
0000
0000
0000
,
0000
0000
0000
0000
,
0000
0000
0000
0000
,
1001
1000
0200
0300
,
1001
0001
0200
0300
,
0020
0000
2030
0000
,
3002
0000
0013
0000
,
0110
0100
2000
3000
,
0020
0000
0130
0010
,
0220
0000
0000
0000
,
0000
0000
0000
0330
,
2000
0000
0000
0000
,
3002
0000
0000
0000
,
0203
0000
0000
0000
,
0300
0000
0000
0000
,
0020
0000
0000
0000
,
2030
0000
0000
0000
,
3200
0000
0000
0000
,
0000
0000
0300
0000
,
2001
0000
0000
0000
,
3002
0000
0000
0000
,
0023
0000
0000
0000
,
0030
0000
0000
0000
,
0200
0000
0000
0000
,
2300
0000
0000
0000
,
3020
0000
0000
0000
,
0000
0000
0030
0000
,
1000
0000
1000
0000
,
1000
0000
0000
0000
,
0001
0000
0001
0000
,
0002
0000
0003
0000
,
0020
0000
1030
0000
,
0020
0000
0031
0000
,
2000
0000
0020
0000
,
0000
3000
1030
0001
,
0200
0000
1300
0000
,
0100
0010
1000
0000
,
0002
0000
0013
0000
,
0001
0100
0010
0000
,
2000
0000
3100
0000
,
0002
0000
0103
0000
,
0220
0000
0000
0000
,
0330
0000
0000
0000
,
1000
0000
1000
0100
,
0001
0000
0001
0000
,
0010
0000
0010
1000
,
0001
0000
0001
0000
,
0010
0100
0010
0000
,
0001
0100
0001
0000
,
1000
0100
0001
0100
,
0020
0030
0100
0010
,
0001
0000
0001
0010
,
1000
0000
1000
0000
,
0100
0000
0100
0001
,
1000
0000
0001
0100
,
0020
0000
0230
0000
,
0302
0000
1003
0000
,
0100
0000
0100
0100
,
0001
0100
2000
3000
,
1001
1000
0020
0030
,
1001
0001
0020
0030
,
0200
0000
2300
0000
,
3002
0000
0103
0000
,
0110
0010
2000
3000
,
0200
0000
0310
0100
,
0220
0000
0000
0000
,
0000
0000
0000
0000
,
0330
0000
0000
0000
;

//---------------dance-double - ----------------
#NOTES:
     dance-double:
     :
     Easy:
     5:
     0.190538,0.316634,0.043375,0.487964,0.000000,123.000000,119.000000,4.000000,45.000000,0.000000,0.000000,0.190538,0.316634,0.043375,0.487964,0.000000,123.000000,119.000000,4.000000,45.000000,0.000000,0.000000:
00000000
00000000
00000000
00000000
,
00000000
00000000
00000000
00000000
,
00000000
00000000
00000000
00000000
,
00000000
00000000
00000000
00000000
,
00000000
00000000
00000000
00000000
,
00000000
00000000
00000000
00000000
,
00000000
00000000
00000000
00000000
,
00000000
00000000
00000000
00000000
,
00000000
00000000
00000000
00000000
,
00000100
00010000
00002000
00003000
,
01000000
00001000
00020000
00030000
,
00000200
00000000
00002300
00000000
,
00003002
00000000
00000103
00000000
,
00000010
00010000
00002000
00003000
,
00200000
00000000
00301000
00010000
,
00022000
00000000
00000000
00000000
,
00000000
00000000
00000000
00033000
,
00200000
00000000
00300000
00000000
,
00020000
00000000
00030000
00000000
,
20000000
00000000
00000000
00000000
,
30000000
00000000
00000000
00000000
,
00200000
00000000
00300000
00000000
,
02000000
00000000
03000000
00000000
,
00002000
00000000
00000000
00000000
,
00000000
00000000
00003000
00000000
,
00010200
00000000
00000300
00000000
,
00002000
00000000
00003000
00000000
,
00000002
00000000
00000000
00000000
,
00000003
00000000
00000000
00000000
,
00000200
00000000
00000300
00000000
,
00000020
00000000
00000030
00000000
,
00020000
00000000
00000000
00000000
,
00030000
00000000
00000000
00000000
,
00010000
00000000
00010000
00000000
,
00010000
00000000
00000000
00000000
,
00001000
00000000
00001000
00000000
,
00002000
00000000
00003000
00000000
,
02000000
00000000
03010000
00000000
,
00020000
00000000
10030000
00000000
,
01000000
00000000
00200000
00000000
,
00000000
00300000
01000000
10000000
,
02000000
00000000
03010000
00001000
,
00010000
00000000
00001000
00000000
,
00000200
00000000
00000310
00000000
,
00001000
00000100
00001000
00000000
,
00000002
00000000
00000103
00000000
,
00002000
00000000
00003100
00000000
,
00000220
00000000
00000000
00000000
,
00000330
00000000
00000000
00000000
,
00000001
00000000
00000001
00000100
,
00000001
00000000
00001000
00000000
,
00000100
00000000
00000100
00000010
,
00000100
00000000
00010000
00000000
,
00001000
00010000
00001000
00000000
,
01000000
00100000
01000000
00000000
,
00010000
00100000
00010000
10000000
,
00200000
00300000
01000000
00100000
,
10000000
00000000
10000000
01000000
,
10000000
00000000
00010000
00000000
,
01000000
00000000
01000000
00100000
,
01000000
00000000
00001000
00010000
,
00002000
00000000
00023000
00000000
,
00030200
00000000
00000310
00000000
,
00000100
00000000
00000100
00000100
,
00001000
00000001
00000200
00000300
,
00000010
00010000
00002000
00003000
,
00100000
00001000
00020000
00030000
,
00000020
00000000
00002030
00000000
,
00003002
00000000
00000013
00000000
,
00000100
00010000
00002000
00003000
,
02000000
00000000
03001000
00010000
,
00022000
00000000
00000000
00000000
,
00000000
00000000
00000000
00000000
,
00033000
00000000
00000000
00000000
;

//---------------dance-double - ----------------
#NOTES:
     dance-double:
     :
     Medium:
     9:
     0.337702,0.474951,0.130124,0.520494,0.000000,218.000000,206.000000,12.000000,48.000000,0.000000,0.000000,0.337702,0.474951,0.130124,0.520494,0.000000,218.000000,206.000000,12.000000,48.000000,0.000000,0.000000:
00000000
00000000
00000000
00000000
,
00000000
00000000
00000000
00000000
,
00000000
00000000
00000000
00000000
,
00000000
00000000
00000000
00000000
,
00000000
00000000
00000000
00000000
,
00000000
00000000
00000000
00000000
,
00000000
00000000
00000000
00000000
,
00000000
00000000
00000000
00000000
,
00000000
00000000
00000000
00000000
,
00001100
00000000
00000001
00000100
00000010
00000000
00001000
00000000
,
00000001
00000000
00000010
00000100
00000010
00000000
00000100
00000000
,
00002000
00000000
00003010
00001000
00000010
00000000
00010000
00000000
,
00000200
00000310
00002000
00013000
,
00110000
00000000
10000000
00100000
01000000
00000000
00010000
00000000
,
20000000
00000000
31000000
00100000
01000000
00000000
00100000
00000000
,
00010000
00000000
01000000
00001000
00000000
00010000
00001000
00000000
,
00000000
00100000
00001000
00000000
00010000
00000000
00011000
00000000
,
00002000
00000000
00000000
00000000
,
00203000
00000000
00000000
00000000
,
02300000
00000000
00000000
00000000
,
23000000
00000000
30000000
00000000
,
00200000
00000000
00000000
00000000
,
00320000
00000000
00000000
00000000
,
00032000
00000000
00000000
00000000
,
00000000
00000000
00003000
00000000
,
00021000
00000000
00000000
00000000
,
00030200
00000000
00000000
00000000
,
00000320
00000000
00000000
00000000
,
00000032
00000000
00000003
00000000
,
00000200
00000000
00000000
00000000
,
00002300
00000000
00000000
00000000
,
00023000
00000000
00000000
00000000
,
00030000
00000000
00001000
00010000
,
00000100
00000000
00000000
00010000
00000000
00001000
00000000
00020000
,
00000000
00030000
01000000
00010000
,
00001000
00000000
00000000
00100000
00000000
00010000
00000000
00200000
,
00000000
00300000
01000000
10000000
,
00010000
00000000
00000000
00010000
00000000
01000000
00000000
00020000
,
00000000
10030000
00100000
01000000
,
00002000
00000000
00023000
00000000
,
00030200
00000000
00000310
00000100
,
00001000
00000000
00000000
00001000
00000000
00000001
00000000
00002000
,
00000000
00003000
00000001
00000100
,
00000020
00000000
00000000
00002030
00000000
00000000
00003100
00000000
,
00200000
00000000
00000000
00320000
00000000
00000000
01030000
00000000
,
00200000
00000000
01300000
00001000
,
00020000
00000000
00030100
00010000
,
00022000
00000000
00000000
00000000
,
00033000
00000000
00000000
00000000
,
00011000
00000000
00010000
01000000
10000000
00000000
01000000
00000000
,
00100000
00001000
00010000
00000010
,
00001000
00000000
00000100
00000010
00000001
00000000
00000010
00000000
,
00000100
00000010
00001000
00010000
,
00011000
00000000
00010000
00000100
00000000
00010000
00000000
00001000
,
00000000
01000000
00010000
00000000
01000000
00100000
10000000
00000000
,
00010000
00000000
00100000
10000000
00000000
00100000
00000000
00020000
,
00000000
00130000
01000000
00000000
00020000
00000000
00031000
00000000
,
00011000
00000000
00001000
00000100
00000001
00000000
00000100
00000000
,
00000010
00010000
00001000
00100000
,
00010000
00000000
01000000
00100000
10000000
00000000
00100000
00000000
,
01000000
00100000
00010000
00001000
,
00000020
00000001
00000032
00000100
,
00000203
00000320
00020030
00031000
,
00100000
00000000
01000000
10000000
00000000
01000000
00000000
00010000
,
00000000
00001000
00010000
00000000
00022000
00000000
00033000
00000000
,
00001100
00000000
00000001
00000100
00000010
00000000
00001000
00000000
,
00000001
00000000
00000010
00000100
00000010
00000000
00000100
00000000
,
00002000
00000000
00003010
00001000
00000010
00000000
00010000
00000000
,
00000200
00000310
00002000
00013000
,
00110000
00000000
10000000
00100000
01000000
00000000
00010000
00000000
,
20000000
00000000
31000000
00100000
01000000
00000000
00100000
00000000
,
00010000
00000000
01000000
00001000
00000000
00010000
00001000
00000000
,
00000000
00100000
00001000
00000000
00010000
00000000
00022000
00000000
,
00033000
00000000
00000000
00000000
;

//---------------dance-double - ----------------
#NOTES:
     dance-double:
     :
     Hard:
     13:
     0.529789,0.672848,0.162655,0.444589,0.000000,342.000000,327.000000,15.000000,41.000000,0.000000,0.000000,0.529789,0.672848,0.162655,0.444589,0.000000,342.000000,327.000000,15.000000,41.000000,0.000000,0.000000:
// measure 0
00000000
00000000
00000000
00000000
,  // measure 1
00000000
00000000
00000000
00000000
,  // measure 2
00000000
00000000
00000000
00000000
,  // measure 3
00000000
00000000
00000000
00000000
,  // measure 4
00000000
00000000
00000000
00000000
,  // measure 5
00000000
00000000
00000000
00000000
,  // measure 6
00000000
00000000
00000000
00000000
,  // measure 7
00000000
00000000
00000000
00000000
,  // measure 8
00100000
00001000
00100000
00001000
00020000
00000000
00030000
00000000
,  // measure 9
00011000
00000000
00010000
00000100
00001000
00000010
00000100
00000000
,  // measure 10
00001100
00000000
00000010
00001000
00000100
00000010
00001000
00000000
,  // measure 11
00020000
00000000
01030000
00100000
01000000
00000000
10000000
00000000
,  // measure 12
00020000
00000000
01030000
00000000
00100000
00010000
00001000
00000000
,  // measure 13
00011000
00000000
00001000
00100000
00010000
10000000
00100000
00000000
,  // measure 14
20000000
00000000
31000000
00010000
01000000
00100000
00010000
00000000
,  // measure 15
10000000
00100000
10000000
01000000
00100000
01000000
00010000
00001000
,  // measure 16
00000100
00000010
00001000
00000010
00001000
00000100
00000010
00000000
,  // measure 17
00000002
00000000
00000100
00000000
,  // measure 18
00002003
00000000
00000100
00000000
,  // measure 19
00003200
00000000
00000010
00000000
,  // measure 20
00020000
00000000
00000300
00000000
,  // measure 21
00030200
00000000
00000010
00000000
,  // measure 22
00002300
00000000
00000010
00000000
,  // measure 23
00003020
00000000
00000200
00000000
,  // measure 24
00000030
00000000
00000300
00000000
,  // measure 25
00001002
00000000
00000010
00000000
,  // measure 26
00000023
00000000
00001000
00000000
,  // measure 27
00002030
00000000
00100000
00000000
,  // measure 28
00200000
00000000
00003000
00000000
,  // measure 29
00302000
00000000
00010000
00000000
,  // measure 30
00023000
00000000
00100000
00000000
,  // measure 31
00230000
00000000
20000000
00000000
,  // measure 32
00300000
00000000
30010000
01000000
,  // measure 33
00100000
00000000
10000000
01000000
00100000
00010000
00100000
01000000
,  // measure 34
00000000
10000000
00010000
00000000
01000000
00010000
01000000
00000000
,  // measure 35
00100000
00000000
00010000
00001000
00100000
00001000
00100000
00010000
,  // measure 36
00000000
00010000
00100000
00000000
00001000
00010000
00001000
00010000
,  // measure 37
00000020
00000000
00001030
00000010
00000100
00000010
00001000
00000002
,  // measure 38
00000000
00000103
00000001
00000000
00001000
00000100
00001000
00000000
,  // measure 39
00000011
00000000
00000001
00000100
00000010
00001000
00000010
00010000
,  // measure 40
00001000
00100000
00001000
00000000
00001000
00010000
00001000
00000000
,  // measure 41
00011000
00000000
00010000
00001000
00100000
00010000
10000000
00010000
,  // measure 42
00000000
01000000
00100000
00000000
01000000
00001000
00010000
00000000
,  // measure 43
00002000
00000000
00103000
20000000
00000000
30100000
02000000
00000000
,  // measure 44
13000000
01000000
10000000
00010000
01000000
00100000
10000000
00000000
,  // measure 45
00200000
00000000
00310000
00001000
00010000
00000000
00001000
00000000
,  // measure 46
00000020
00000000
00000130
00001000
00000100
00000000
00010000
00000000
,  // measure 47
00022000
00000000
00000000
00000000
,  // measure 48
00033000
00000000
00200000
01300000
,  // measure 49
10010000
00000000
00010000
01000000
00100000
10000000
00100000
10000000
,  // measure 50
00010000
00100000
00010000
00100000
01000000
00010000
00001000
00000100
,  // measure 51
00000001
00001000
00000001
00001000
00000001
00000100
00000010
00001000
,  // measure 52
00000001
00000010
00000001
00000010
00001000
00000010
00000001
00000000
,  // measure 53
00001001
00000000
00000001
00000100
00000010
00001000
00000010
00001000
,  // measure 54
00000100
00000010
00000100
00000001
00000100
00000010
00001000
00010000
,  // measure 55
00001000
00100000
00001000
00100000
00010000
01000000
00010000
01000000
,  // measure 56
00100000
10000000
01000000
00010000
00001000
00000100
00000001
00000000
,  // measure 57
00001001
00000000
00001000
00000100
00000010
00000001
00000010
00000001
,  // measure 58
00001000
00000010
00001000
00000010
00000100
00001000
00010000
01000000
,  // measure 59
10000000
00010000
10000000
00010000
10000000
01000000
00100000
00010000
,  // measure 60
10000000
00100000
10000000
00100000
00010000
00001000
00000010
00000001
,  // measure 61
00002000
00003100
00000020
00000130
,  // measure 62
00020000
00032000
00203000
00310000
,  // measure 63
10010000
00000000
00010000
01000000
00100000
01000000
00100000
00010000
,  // measure 64
00000000
00001000
00010000
00000000
00022000
00000000
00033000
00000000
,  // measure 65
00011000
00000000
00010000
00000100
00001000
00000010
00000100
00000000
,  // measure 66
00001100
00000000
00000010
00001000
00000100
00000010
00001000
00000000
,  // measure 67
00020000
00000000
01030000
00100000
01000000
00000000
10000000
00000000
,  // measure 68
00020000
00000000
01030000
00000000
00100000
00010000
00001000
00000000
,  // measure 69
00011000
00000000
00001000
00100000
00010000
10000000
00100000
00000000
,  // measure 70
20000000
00000000
31000000
00010000
01000000
00100000
00010000
00000000
,  // measure 71
10000000
00100000
10000000
01000000
00100000
01000000
00010000
00001000
,  // measure 72
00000100
00000010
00001000
00000010
00001000
00000100
00000020
00000000
,  // measure 73
00000030
00000000
00000000
00000000
;
