#VERSION:0.83;
#TITLE:EVERYBODY;
#SUBTITLE:(Feat. DJ Juice);
#ARTIST:YOUNITE;
#TITLETRANSLIT:;
#SUBTITLETRANSLIT:;
#ARTISTTRANSLIT:;
#GENRE:K-Pop;
#ORIGIN:;
#CREDIT:;
#BANNER:EVERYBODY (Feat. DJ Juice).png;
#BACKGROUND:EVERYBODY (Feat. DJ Juice)-bg.png;
#PREVIEWVID:;
#JACKET:EVERYBODY (Feat. DJ Juice)-jacket.png;
#CDIMAGE:;
#DISCIMAGE:;
#LYRICSPATH:;
#CDTITLE:../cdtitle.png;
#MUSIC:EVERYBODY (Feat. DJ Juice).ogg;
#OFFSET:0.656000;
#SAMPLESTART:68.641998;
#SAMPLELENGTH:15.000000;
#SELECTABLE:YES;
#BPMS:0.000=100.000;
#STOPS:;
#DELAYS:;
#WARPS:;
#TIMESIGNATURES:0.000=4=4;
#TICKCOUNTS:0.000=4;
#COMBOS:0.000=1;
#SPEEDS:0.000=1.000=0.000=0;
#SCROLLS:0.000=1.000;
#FAKES:;
#LABELS:0.000=Song Start;
#BGCHANGES:1.000=EVERYBODY (Feat. DJ Juice).avi=1.000=0=0=0=StretchNoLoop====,
99999=-nosongbg-=1.000=0=0=0 // don't automatically add -songbackground-
;
#KEYSOUNDS:;
#ATTACKS:
;

//---------------dance-single - ----------------
#NOTEDATA:;
#CHARTNAME:;
#STEPSTYPE:dance-single;
#DESCRIPTION:;
#CHARTSTYLE:;
#DIFFICULTY:Beginner;
#METER:1;
#RADARVALUES:0.058652,0.102071,0.009124,0.036495,0.000000,45.000000,44.000000,1.000000,4.000000,0.000000,0.000000,0.000000,0.000000,0.000000,0.058652,0.102071,0.009124,0.036495,0.000000,45.000000,44.000000,1.000000,4.000000,0.000000,0.000000,0.000000,0.000000,0.000000;
#CREDIT:led_light;
#NOTES:
0000
0000
0000
0000
,
0000
0000
0000
0000
,
0000
0000
0000
0000
,
0000
0000
0000
0000
,
0000
0000
0000
0000
,
0100
0000
0000
0000
,
1000
0000
0000
0000
,
0001
0000
0000
0000
,
0001
0000
0000
0000
,
0010
0000
0000
0000
,
0001
0000
0000
0000
,
1000
0000
0000
0000
,
1000
0000
0000
0000
,
0001
0000
0001
0000
,
0001
0000
0000
0000
,
1000
0000
1000
0000
,
1000
0000
0000
0000
,
0001
0000
0000
0000
,
1000
0000
0000
0000
,
0010
0000
0000
0000
,
0010
0000
0000
0000
,
2000
0000
0000
0000
,
3000
0000
0000
0000
,
0002
0000
0000
0000
,
0003
0000
0000
0000
,
0020
0000
0000
0000
,
0030
0000
0000
0000
,
0200
0000
0000
0000
,
0300
0000
0000
0000
,
1000
0000
1000
0000
,
1000
0000
0000
0000
,
0001
0000
0001
0000
,
0001
0000
0000
0000
,
0010
0000
0000
0000
,
1000
0000
0000
0000
,
0001
0000
0000
0000
,
0001
0000
0000
0000
,
1000
0000
1000
0000
,
1000
0000
0000
0000
,
0001
0000
0001
0000
,
0001
0000
0000
0000
,
0100
0000
0000
0000
,
1000
0000
0000
0000
,
0001
0000
0001
0000
,
0001
0000
0000
1001
;

//---------------dance-single - ----------------
#NOTEDATA:;
#CHARTNAME:;
#STEPSTYPE:dance-single;
#DESCRIPTION:;
#CHARTSTYLE:;
#DIFFICULTY:Easy;
#METER:3;
#RADARVALUES:0.118608,0.163314,0.009124,0.036495,0.000000,91.000000,90.000000,1.000000,4.000000,0.000000,0.000000,0.000000,0.000000,0.000000,0.118608,0.163314,0.009124,0.036495,0.000000,91.000000,90.000000,1.000000,4.000000,0.000000,0.000000,0.000000,0.000000,0.000000;
#CREDIT:led_light;
#NOTES:
0000
0000
0000
0000
,
0000
0000
0000
0000
,
0000
0000
0000
0000
,
0000
0000
0000
0000
,
0000
0000
0000
0000
,
0010
0000
0010
0000
,
0001
1000
0001
0000
,
1000
0000
1000
0000
,
0001
0000
1000
0000
,
0100
0000
0100
0000
,
1000
0001
1000
0000
,
0001
0000
0001
0000
,
1000
0000
0001
0000
,
1000
1000
1000
0000
,
1000
0000
0000
0000
,
0001
0001
0001
0000
,
0001
0000
0000
0000
,
1000
0000
1000
0000
,
0010
0100
0010
0000
,
0100
0000
0100
0000
,
0010
0000
0100
0000
,
0002
0000
0003
0000
,
1000
0000
0100
0000
,
0020
0000
0030
0000
,
0001
0000
1000
0001
,
2000
0000
3000
0000
,
0001
0000
0100
0000
,
0020
0000
0030
0000
,
1000
0001
1000
0000
,
0001
0000
0001
0000
,
1000
0100
0001
0000
,
1000
0000
1000
0000
,
0001
0010
1000
0000
,
0000
0001
0000
0010
,
0000
1000
0010
0001
,
1000
0000
1000
0000
,
0001
0100
0010
0000
,
1000
0000
1000
0000
,
0001
0100
1000
0000
,
0001
0000
0001
0000
,
1000
0010
0001
0000
,
0000
1000
0000
0010
,
0000
0001
0010
1000
,
0001
0000
0001
0000
,
1000
0100
0010
1001
;

//---------------dance-single - ----------------
#NOTEDATA:;
#CHARTNAME:;
#STEPSTYPE:dance-single;
#DESCRIPTION:;
#CHARTSTYLE:;
#DIFFICULTY:Medium;
#METER:5;
#RADARVALUES:0.195507,0.224556,0.118608,0.036495,0.000000,150.000000,137.000000,13.000000,4.000000,0.000000,0.000000,0.000000,0.000000,0.000000,0.195507,0.224556,0.118608,0.036495,0.000000,150.000000,137.000000,13.000000,4.000000,0.000000,0.000000,0.000000,0.000000,0.000000;
#CREDIT:led_light;
#NOTES:
0000
0000
0000
0000
,
0000
0000
0000
0000
,
0000
0000
0000
0000
,
0000
0000
0000
0000
,
0000
0000
0000
0000
,
1010
0000
0100
1001
,
0010
0100
0010
0001
,
1000
1000
0001
0001
,
1000
0001
0100
0001
,
1010
0000
0001
0110
,
1000
0001
1000
0100
,
0010
0010
0100
0100
,
0010
0100
0001
0100
,
1000
1000
0100
1000
,
0001
0000
1000
0101
,
0010
0010
1000
0010
,
0100
0000
0010
1000
,
0011
0000
1000
0110
,
0001
1000
0001
0100
,
0010
0010
0100
0100
,
0010
0100
1000
0100
,
0002
0000
1000
0000
,
1003
0000
0100
1000
,
0020
0000
0100
0000
,
0130
0000
0100
0001
,
2000
0000
0001
0000
,
3001
0000
0010
0001
,
0200
0000
0010
0000
,
0310
1000
0001
0000
,
0001
0100
0001
0001
,
1000
0001
1000
1100
,
1000
0001
0100
0100
,
0010
1000
0001
0011
,
0000
1000
0000
1000
,
0000
0001
0100
0010
,
1000
1000
0001
0001
,
1000
0100
0010
1100
,
1000
0010
1000
1000
,
0001
1000
0001
0011
,
0001
1000
0010
0010
,
0100
0001
1000
1100
,
0000
0001
0000
0001
,
0000
1000
0010
0100
,
0001
0001
1000
1000
,
0001
0010
0100
1001
;

//---------------dance-single - ----------------
#NOTEDATA:;
#CHARTNAME:;
#STEPSTYPE:dance-single;
#DESCRIPTION:;
#CHARTSTYLE:;
#DIFFICULTY:Hard;
#METER:6;
#RADARVALUES:0.226788,0.244971,0.100360,0.054742,0.000000,174.000000,163.000000,11.000000,6.000000,0.000000,0.000000,0.000000,0.000000,0.000000,0.226788,0.244971,0.100360,0.054742,0.000000,174.000000,163.000000,11.000000,6.000000,0.000000,0.000000,0.000000,0.000000,0.000000;
#CREDIT:led_light;
#NOTES:
0000
0000
0000
0000
,
0000
0000
0000
0000
,
0000
0000
0000
0000
,
0000
0000
0000
0000
,
0000
0000
0000
0000
,
0110
0000
0000
0000
0001
0100
0001
0000
,
1000
1000
0001
0000
1000
1000
0100
0000
,
0010
0010
0100
0100
,
1000
0000
0001
0000
1000
0001
0100
0000
,
0110
0000
0000
0000
0001
0010
0001
0000
,
1000
1000
0001
0000
1000
0000
0010
0000
,
0100
0100
0010
0010
,
1000
0000
0001
0000
1000
0001
0010
0000
,
0100
0100
0100
1000
,
0110
0000
0000
0000
0001
0010
0001
0000
,
0100
0100
0100
0010
,
1001
0000
0000
0000
0001
0010
0001
0000
,
1100
0000
0000
0000
0001
0100
0010
0000
,
1000
1000
1000
0000
0001
1000
0001
0000
,
0010
0010
0100
0100
,
0010
0000
0001
0000
1000
0010
0100
0000
,
0002
1000
0000
1000
,
0000
0010
0000
0010
,
2003
0100
0000
0100
,
0000
0001
0000
0100
,
3020
0100
0000
1000
,
0000
0100
0000
0001
,
0230
1000
0000
0010
,
0301
1000
0002
0003
,
1000
0100
1000
1000
,
0100
0010
0001
0000
0010
0000
1010
0000
,
0001
0010
0001
0001
,
1000
0010
0100
0000
0001
0000
0011
0000
,
0000
1000
0100
0000
0000
0001
0100
0000
,
0000
1000
0100
0000
0100
0010
0001
0000
,
0200
0010
0000
0310
,
0100
0001
1000
0110
,
0001
0010
0001
0001
,
0010
0100
1000
0000
0100
0000
0101
0000
,
1000
0100
1000
1000
,
0001
0100
0010
0000
1000
0000
1100
0000
,
0000
0001
0010
0000
0000
1000
0010
0000
,
0000
0001
0010
0000
0010
0100
1000
0000
,
0010
0100
0010
0010
,
1000
0100
0010
0000
0100
0000
1001
0000
;

//---------------dance-single - ----------------
#NOTEDATA:;
#CHARTNAME:;
#STEPSTYPE:dance-single;
#DESCRIPTION:;
#CHARTSTYLE:;
#DIFFICULTY:Challenge;
#METER:8;
#RADARVALUES:0.314115,0.347042,0.255463,0.072989,0.000000,241.000000,213.000000,28.000000,8.000000,0.000000,0.000000,0.000000,0.000000,0.000000,0.314115,0.347042,0.255463,0.072989,0.000000,241.000000,213.000000,28.000000,8.000000,0.000000,0.000000,0.000000,0.000000,0.000000;
#CREDIT:led_light;
#NOTES:
0000
0000
0000
0000
,
0000
0000
0000
0000
,
0000
0000
0000
0000
,
0000
0000
0000
0000
,
0000
0000
0000
0000
,
0011
0000
1000
0000
0100
1000
0010
0000
,
0100
0001
1000
0001
0100
0001
0010
0000
,
0001
0000
0101
0000
1000
0100
1100
0000
,
0001
0100
0010
1000
0010
0100
0001
0000
,
1100
0000
0000
0000
0010
0001
0100
0000
,
0010
1000
0001
1000
0010
1000
0100
0000
,
1000
0000
1010
0000
0001
0010
0011
0000
,
1000
0010
0100
0001
0100
0010
1000
0000
,
0001
0000
0001
0000
0100
0001
1000
0000
,
1100
0000
0000
0000
0010
0010
0100
0000
,
1000
0000
1000
0000
0010
1000
0001
0000
,
0011
0000
0000
0000
0100
0100
0010
0000
,
1010
0000
0000
0000
0100
0001
0010
0000
,
0100
1000
0001
1000
0100
1000
0010
0000
,
1000
0000
1100
0000
0001
0100
0101
0000
,
0010
0000
1100
0000
0001
1000
0100
0000
,
2000
0010
0000
0010
,
3010
0100
0001
1000
,
0002
0010
0000
0010
,
0013
0000
1000
0000
0010
0000
0010
0001
,
2000
0100
0000
0100
,
3100
0010
0001
1000
,
0002
0100
0000
0100
,
0103
0010
2000
3001
,
1000
0001
0011
0000
1000
0000
0101
0000
,
1000
0100
0001
0100
1000
0001
1001
0000
,
0001
1000
1100
0000
0001
0000
1010
0000
,
0001
0010
1000
0010
0001
1000
1001
0000
,
0000
1000
0100
1000
0000
0001
0100
0001
,
0000
1000
0100
0010
0001
0001
1000
0100
,
1000
1000
0020
0000
0230
0000
0302
0000
,
1003
0100
0010
0100
1000
0001
0110
0000
,
0001
1000
1100
0000
0001
0000
1010
0000
,
0001
0010
1000
0010
0001
1000
1001
0000
,
1000
0001
0011
0000
1000
0000
0101
0000
,
1000
0100
0001
0100
1000
0001
1001
0000
,
0000
0001
0010
0001
0000
1000
0010
1000
,
0000
0001
0010
0100
1000
1000
0001
0010
,
0001
1000
1100
0000
0001
0000
1010
0000
,
0001
0010
0100
0010
0001
1000
0110
0000
;

//---------------dance-single - Another (Single)----------------
#NOTEDATA:;
#CHARTNAME:;
#STEPSTYPE:dance-single;
#DESCRIPTION:Another (Single);
#CHARTSTYLE:;
#DIFFICULTY:Edit;
#METER:13;
#RADARVALUES:0.529173,0.632841,0.310205,0.374071,0.643219,406.000000,372.000000,34.000000,41.000000,36.000000,0.000000,0.000000,0.000000,0.000000,0.529173,0.632841,0.310205,0.374071,0.643219,406.000000,372.000000,34.000000,41.000000,36.000000,0.000000,0.000000,0.000000,0.000000;
#CREDIT:led_light;
#NOTES:
// measure 0
0000
0000
0000
0000
,  // measure 1
0000
0000
0000
0000
,  // measure 2
0000
0000
0000
0000
,  // measure 3
0000
0000
0000
0000
,  // measure 4
0000
0000
0000
0000
,  // measure 5
0011
0000
0000
0000
0000
0000
1100
0000
0100
0010
0000
0010
0001
0000
1000
0100
0000
1000
0000
0000
0001
0100
0000
0100
,  // measure 6
0010
0000
0010
1000
0000
0001
1000
0000
0100
1000
0000
1000
0001
0000
0010
0100
0000
1000
0000
0000
0100
0010
0000
0000
,  // measure 7
0011
0000
0000
0000
0000
1000
1010
0000
0000
0000
0000
0001
0101
0000
0100
0000
0000
0010
0100
0000
0000
0001
0000
0000
,  // measure 8
1000
0100
0001
1000
0010
0001
1000
0001
,  // measure 9
0101
0000
0000
0000
0000
0000
1010
0000
0010
0100
0000
0100
0001
0000
1000
0010
0000
1000
0000
0000
0001
0010
0000
0010
,  // measure 10
0100
0000
0100
1000
0000
0001
1000
0000
0010
1000
0000
1000
0000
0000
0000
0011
0000
0000
1000
0000
0010
0100
0000
0000
,  // measure 11
0101
0000
0000
0000
0000
1000
1100
0000
0000
0000
0000
0001
0011
0000
0010
0000
0000
0100
0010
0000
0010
0000
0000
0001
,  // measure 12
1000
0010
0001
1000
0100
0001
1000
0001
,  // measure 13
0011
0010
1100
0100
0101
0100
1010
0010
,  // measure 14
0110
0000
0000
0000
0000
0000
1001
0000
0000
0001
0000
0000
0010
0000
0100
0000
1000
0000
0002
0000
0000
0003
0000
0000
,  // measure 15
0101
0100
1010
0010
0011
0010
1100
0100
,  // measure 16
0110
0000
0000
0000
0000
0000
1001
0000
0000
0001
0000
0000
0100
0000
0010
0000
1000
0000
0002
0000
0000
0003
0000
0000
,  // measure 17
1100
0000
0000
0000
0000
0000
0011
0000
0010
0100
0000
0100
1000
0000
0001
0010
0000
0001
0000
0000
1000
0010
0000
0010
,  // measure 18
0100
0000
0100
0001
0000
1000
0001
0000
0010
0001
0000
0001
1000
0000
0100
0010
0000
0001
0000
0000
0000
0010
0000
0000
,  // measure 19
1100
0000
0000
0000
0000
0001
0101
0000
0000
0000
0000
1000
1010
0000
0010
0000
0100
0000
0010
0000
1000
0000
0000
0100
,  // measure 20
0010
0000
0000
0000
0000
0100
1000
0000
0000
0001
0000
1000
0010
0000
0000
0100
0000
0000
0002
0000
0000
0000
0000
0000
,  // measure 21
2003
0000
0000
3100
0100
0000
2000
0000
0000
3010
0010
0000
,  // measure 22
0100
0100
0000
0001
0001
0000
2000
0000
0000
3200
0000
0000
,  // measure 23
2300
0000
0000
3010
0010
0000
2000
0000
0000
3100
0010
0000
,  // measure 24
0001
0000
0000
0000
1000
0000
0000
0000
0000
0000
0000
0000
0100
0000
0000
0000
1000
0000
0000
0000
0000
0000
0000
0000
0020
0000
0000
0000
0000
0000
0000
0000
0000
0000
0000
0000
0130
0000
0000
0000
0000
0000
0001
0000
0000
1000
0000
0000
,  // measure 25
0200
0000
0000
0310
0010
0000
0200
0000
0000
1300
1000
0000
,  // measure 26
0001
0001
0000
1000
1000
0000
0200
0000
0000
2300
0000
0000
,  // measure 27
3020
0000
0000
0000
0000
0000
0130
0000
0001
0000
0000
0000
1000
0000
0000
0001
0000
0000
0100
0000
0000
0000
0000
0000
,  // measure 28
0010
0000
1000
0000
0000
0000
0100
0000
0000
0010
0000
0000
0100
0000
1000
0001
0000
0000
2001
0000
0000
3001
0000
0000
,  // measure 29
0010
0000
0000
0100
0000
0000
1000
0000
0020
0000
0000
0000
1030
0000
0200
0000
0000
0000
1300
0000
0020
0000
0000
0100
,  // measure 30
0000
0030
0100
0001
0000
0001
1000
0000
0100
1000
0000
0000
0002
0000
0000
0013
0000
0100
1000
0000
0000
MMMM
0000
0000
,  // measure 31
0010
0000
0000
0001
0000
0000
0100
0000
0020
0000
0000
0000
0130
0000
0002
0000
0000
0000
0103
0000
0020
0000
0000
1000
,  // measure 32
0000
0030
1000
0100
0000
0010
0001
0000
0000
1000
0000
0000
0002
0000
0103
0010
0000
0000
0110
0000
0000
MMMM
0000
0000
,  // measure 33
1000
0000
1000
0100
0000
0100
0010
0000
0001
1000
0000
0000
MMMM
0000
0100
0010
0000
0010
0100
0000
0100
0001
0000
1000
,  // measure 34
MMMM
0000
1000
0001
0000
0001
0010
0000
0100
0010
0000
0000
0001
0000
1000
0010
0000
0000
0110
0000
0000
0001
0000
0000
,  // measure 35
0010
0000
0000
0100
0000
0000
1000
0000
0020
0000
0000
0000
1030
0000
0200
0000
0000
0000
1300
0000
0020
0000
0000
0100
,  // measure 36
0000
0030
0100
0001
0000
0001
2000
0000
0000
3200
0000
0000
0320
0000
0000
0031
0000
1000
0001
0000
0000
MMMM
0000
0000
,  // measure 37
0010
0000
0000
0100
0000
0000
0001
0000
0020
0000
0000
0000
0031
0000
0200
0000
0000
0000
0301
0000
0020
0000
0000
0100
,  // measure 38
0000
0030
0100
1000
0000
1000
0001
0000
0100
0001
0000
0000
2000
0000
0000
3010
0000
0100
0001
0000
0000
MMMM
0000
0000
,  // measure 39
0010
0000
0000
1000
0000
0000
0100
0000
0020
0000
0000
0000
0130
0000
2000
0000
0000
0000
3100
0000
0020
0000
0000
0001
,  // measure 40
0000
0030
0001
0100
0000
0010
1000
0000
0000
0001
0000
0000
2000
0000
3100
0010
0000
0000
0110
0000
0000
MMMM
0000
0000
,  // measure 41
0001
0000
0001
0100
0000
0100
0010
0000
1000
0001
0000
0000
MMMM
0000
0100
0010
0000
0010
0100
0000
0100
1000
0000
0001
,  // measure 42
MMMM
0000
0001
1000
0000
1000
0010
0000
0100
0010
0000
0000
1000
0000
0001
0010
0000
0000
0110
0000
0000
1000
0000
0000
,  // measure 43
0010
0000
0000
0100
0000
0000
0001
0000
0020
0000
0000
0000
0031
0000
0200
0000
0000
0000
0301
0000
0020
0000
0000
0100
,  // measure 44
0000
0030
0100
1000
0000
1000
0001
0000
0100
0010
0000
0000
1000
0000
0100
0010
0000
0000
1001
0000
0000
0000
0000
0000
;

//---------------dance-double - ----------------
#NOTEDATA:;
#CHARTNAME:;
#STEPSTYPE:dance-double;
#DESCRIPTION:;
#CHARTSTYLE:;
#DIFFICULTY:Easy;
#METER:3;
#RADARVALUES:0.114698,0.142899,0.009124,0.036495,0.000000,88.000000,87.000000,1.000000,4.000000,0.000000,0.000000,0.000000,0.000000,0.000000,0.114698,0.142899,0.009124,0.036495,0.000000,88.000000,87.000000,1.000000,4.000000,0.000000,0.000000,0.000000,0.000000,0.000000;
#CREDIT:led_light;
#NOTES:
00000000
00000000
00000000
00000000
,
00000000
00000000
00000000
00000000
,
00000000
00000000
00000000
00000000
,
00000000
00000000
00000000
00000000
,
00000000
00000000
00000000
00000000
,
00010000
00000000
00010000
00000000
,
00001000
00010000
00001000
00000000
,
00100000
00000000
00100000
00000000
,
01000000
00000000
00010000
00000000
,
00001000
00000000
00001000
00000000
,
00010000
00001000
00010000
00000000
,
00000010
00000000
00000010
00000000
,
00000100
00000000
00000001
00000000
,
00001000
00001000
00001000
00000000
,
00001000
00000000
00000000
00000000
,
00000001
00000001
00000001
00000000
,
00000001
00000000
00000000
00000000
,
00001000
00000000
00001000
00000000
,
00010000
00001000
00010000
00000000
,
10000000
00000000
00010000
00000000
,
00100000
00000000
01000000
00000000
,
20000000
00000000
30000000
00000000
,
00010000
00000000
10000000
00000000
,
00200000
00000000
00300000
00000000
,
01000000
00000000
00001000
00000000
,
00020000
00000000
00030000
00000000
,
00001000
00000000
00000010
00000000
,
00000002
00000000
00000003
00000000
,
00000100
00000010
00001000
00000000
,
00000001
00000000
00000001
00000000
,
00000010
00001000
00010000
00000000
,
00001000
00000000
00001000
00000000
,
00010000
00100000
10000000
00000000
,
00000000
00010000
00000000
00010000
,
00000000
00100000
00010000
00000000
,
10000000
00000000
10000000
00000000
,
00100000
01000000
00010000
00000000
,
10000000
00000000
10000000
00000000
,
01000000
00010000
00001000
00000000
,
00010000
00000000
00010000
00000000
,
00001000
00000100
00000001
00000000
,
00000000
00001000
00000000
00001000
,
00000000
00000100
00001000
00000000
,
00000001
00000000
00000001
00000000
,
00000100
00000010
00001000
00001001
;

//---------------dance-double - ----------------
#NOTEDATA:;
#CHARTNAME:;
#STEPSTYPE:dance-double;
#DESCRIPTION:;
#CHARTSTYLE:;
#DIFFICULTY:Medium;
#METER:5;
#RADARVALUES:0.192900,0.224556,0.118608,0.063866,0.000000,148.000000,135.000000,13.000000,7.000000,0.000000,0.000000,0.000000,0.000000,0.000000,0.192900,0.224556,0.118608,0.063866,0.000000,148.000000,135.000000,13.000000,7.000000,0.000000,0.000000,0.000000,0.000000,0.000000;
#CREDIT:led_light;
#NOTES:
00000000
00000000
00000000
00000000
,
00000000
00000000
00000000
00000000
,
00000000
00000000
00000000
00000000
,
00000000
00000000
00000000
00000000
,
00000000
00000000
00000000
00000000
,
00110000
00000000
00001000
00011000
,
00000010
00001000
00000001
00000100
,
00000010
00000010
00001000
00000001
,
00000100
00000100
00000001
00001000
,
00001010
00000000
00010000
00011000
,
00100000
00010000
10000000
01000000
,
00100000
00100000
00010000
10000000
,
01000000
01000000
10000000
00010000
,
00100000
00100000
00001000
00010000
,
00000100
00000000
00010000
00011000
,
00000010
00000010
00001000
00010000
,
01000000
00000000
00001000
00100000
,
00110000
00000000
00001000
00011000
,
00001000
00100000
00010000
01000000
,
00001000
00001000
00010000
00010000
,
00000010
00000010
00001000
00000010
,
00020000
00000000
00001000
00000000
,
00000100
00000000
00031000
00000010
,
00002000
00000000
00100000
00000000
,
00010000
00000000
00103000
01000000
,
00020000
00000000
00000100
00000000
,
00001000
00000000
00030010
00000100
,
00002000
00000000
01000000
00000000
,
00013000
00000100
00020000
00030000
,
00010000
00001000
00010000
00010000
,
00001000
00000010
00000001
00001001
,
00000001
00001000
00000001
00000001
,
00000100
00001000
00010000
00011000
,
00000000
00001000
00000000
00001000
,
00000000
00010000
00100000
10000000
,
00020000
00030000
00020000
00030000
,
10000000
01000000
00010000
00011000
,
00001000
00010000
00001000
00001000
,
00010000
00100000
10000000
10010000
,
10000000
00010000
10000000
10000000
,
01000000
00010000
00001000
00011000
,
00000000
00010000
00000000
00010000
,
00000000
00001000
00000010
00000001
,
00001000
00000001
00001000
00001000
,
00000001
00000100
00001000
00011000
;

//---------------dance-double - ----------------
#NOTEDATA:;
#CHARTNAME:;
#STEPSTYPE:dance-double;
#DESCRIPTION:;
#CHARTSTYLE:;
#DIFFICULTY:Hard;
#METER:6;
#RADARVALUES:0.226788,0.244971,0.100360,0.054742,0.000000,174.000000,163.000000,11.000000,6.000000,0.000000,0.000000,0.000000,0.000000,0.000000,0.226788,0.244971,0.100360,0.054742,0.000000,174.000000,163.000000,11.000000,6.000000,0.000000,0.000000,0.000000,0.000000,0.000000;
#CREDIT:led_light;
#NOTES:
00000000
00000000
00000000
00000000
,
00000000
00000000
00000000
00000000
,
00000000
00000000
00000000
00000000
,
00000000
00000000
00000000
00000000
,
00000000
00000000
00000000
00000000
,
01100000
00000000
00000000
00000000
00001000
00010000
00001000
00000000
,
01000000
00001000
00010000
00000000
00001000
00100000
00010000
00000000
,
00100000
00100000
00000010
00000010
,
00010000
00000000
00001000
00000000
00100000
00010000
01000000
00000000
,
01100000
00000000
00000000
00000000
00001000
00010000
00001000
00000000
,
00001000
00100000
00010000
00000000
01000000
00000000
00001000
00000000
,
01000000
01000000
00000100
00000100
,
00010000
00000000
00001000
00000000
01000000
00010000
00100000
00000000
,
01000000
01000000
01000000
00010000
,
00101000
00000000
00000000
00000000
00001000
00010000
00001000
00000000
,
00000010
00000010
00000010
00001000
,
00010100
00000000
00000000
00000000
00010000
00001000
00010000
00000000
,
00000110
00000000
00000000
00000000
00010000
00001000
00010000
00000000
,
00000100
00010000
00001000
00000000
00010000
00000010
00001000
00000000
,
00000010
00000010
00100000
00100000
,
00000010
00000000
00100000
00000000
00001000
00010000
00000010
00000000
,
00020000
00001000
00000000
00001000
,
00000000
00000100
00000000
00001000
,
00032000
00010000
00000000
00010000
,
00000000
00100000
00000000
00010000
,
00023000
00001000
00000000
00001000
,
00000000
00100000
00000000
00001000
,
00032000
00010000
00000000
00000100
,
00013000
00001000
00020000
00030000
,
00000010
00001000
00000001
00000001
,
00000100
00000010
00001000
00000000
00000100
00000000
00011000
00000000
,
00001000
01000000
00001000
00001000
,
00010000
00001000
00100000
00000000
00010000
00000000
11000000
00000000
,
00000000
10000000
00100000
00000000
00000000
01000000
00010000
00000000
,
00000000
00100000
00001000
00000000
00001000
00010000
00001000
00000000
,
00020000
00001000
00000000
00031000
,
00010000
00100000
10000000
10010000
,
00100000
00010000
10000000
10000000
,
01000000
00100000
00010000
00000000
01000000
00000000
00011000
00000000
,
00010000
00000100
00010000
00010000
,
00001000
00010000
00000010
00000000
00001000
00000000
00000101
00000000
,
00000000
00000001
00000010
00000000
00000000
00000100
00001000
00000000
,
00000000
00000010
00010000
00000000
00010000
00001000
00010000
00000000
,
00001000
00001000
00010000
00010000
,
00001000
00000010
00000001
00000000
00001000
00000000
00001001
00000000
;

//---------------dance-double - ----------------
#NOTEDATA:;
#CHARTNAME:;
#STEPSTYPE:dance-double;
#DESCRIPTION:;
#CHARTSTYLE:;
#DIFFICULTY:Challenge;
#METER:9;
#RADARVALUES:0.323239,0.347042,0.255463,0.072989,0.000000,248.000000,220.000000,28.000000,8.000000,0.000000,0.000000,0.000000,0.000000,0.000000,0.323239,0.347042,0.255463,0.072989,0.000000,248.000000,220.000000,28.000000,8.000000,0.000000,0.000000,0.000000,0.000000,0.000000;
#CREDIT:led_light;
#NOTES:
00000000
00000000
00000000
00000000
,
00000000
00000000
00000000
00000000
,
00000000
00000000
00000000
00000000
,
00000000
00000000
00000000
00000000
,
00000000
00000000
00000000
00000000
,
00001000
00000000
00000011
00000100
00001000
00000001
00000100
00000000
,
00000010
00010000
00001000
00010000
00000100
00010000
00001000
00000000
,
00010000
00000000
00101000
00000000
00010000
00010000
01100000
00000000
,
00010000
00100000
01000000
00100000
00010000
01000000
00100000
10000000
,
00010000
00000000
11000000
00100000
00010000
10000000
00100000
00000000
,
01000000
00001000
00010000
00001000
00000000
00001000
00100000
00000000
,
00001000
00000000
00010100
00000000
00001000
00001000
00000110
00000000
,
00001000
00000100
00000010
00000100
00001000
00000010
00000100
00000000
,
00000001
00000000
00000001
00000000
00000100
00000100
00000001
00000000
,
00001100
00000000
00000000
00010000
00001000
00001000
00010000
00000000
,
00100000
00000000
00100000
00000000
10000000
10000000
00100000
00000000
,
11000000
00000000
00000000
00100000
01000000
01000000
00100000
00000000
,
00010000
00000000
10100000
01000000
00010000
10000000
01000000
00000000
,
00100000
00001000
00010000
00001000
01000000
00001000
00010000
00000000
,
00001000
00000000
00010010
00000000
00001000
00001000
00000110
00000000
,
00000010
00000000
00001001
00000000
00000001
00001000
00000100
00000000
,
00020000
01000000
00000000
01000000
,
01030000
00100000
00000010
00000010
,
00002000
00010000
00000000
00010000
,
00013000
00000000
01000000
00000000
00001000
00000000
00001000
00010000
,
00000200
00000010
00000000
00000010
,
00000310
00000001
00001000
00001000
,
00020000
00001000
00000000
00001000
,
00031000
00010000
20000000
30010000
,
00100000
00010000
01010000
00000000
00100000
00000000
11000000
00000000
,
10000000
01000000
00010000
00001000
00000100
00000001
00001001
00000000
,
00000001
00000100
00001010
00000000
00000100
00000000
00000011
00000000
,
00000001
00000010
00001000
00010000
00100000
10000000
10010000
00000000
,
00000000
10000000
01000000
00001000
00000000
00010000
00000010
00000001
,
00000000
00001000
00010000
00001000
00000001
00000100
00001000
00000100
,
00000001
00001000
00000020
00000000
00000230
00000000
00000302
00000000
,
00000013
00001000
00010000
00001000
00010000
00100000
01100000
00000000
,
01000000
00010000
00110000
00000000
01000000
00000000
10100000
00000000
,
10000000
00100000
00010000
00001000
00000010
00000001
00001001
00000000
,
00000001
00000010
00001100
00000000
00000010
00000000
00000101
00000000
,
00000001
00000100
00001000
00010000
01000000
10000000
10010000
00000000
,
00000000
10000000
00100000
00001000
00000000
00010000
00000100
00000001
,
00000000
00001000
00010000
00001000
00000001
00000010
00001000
00000010
,
00000001
00000100
00001100
00000000
00000001
00000000
00001010
00000000
,
00000100
00001000
00010000
00001000
00010000
01000000
01100000
00000000
;

//---------------dance-double - Another (Double)----------------
#NOTEDATA:;
#CHARTNAME:;
#STEPSTYPE:dance-double;
#DESCRIPTION:Another (Double);
#CHARTSTYLE:;
#DIFFICULTY:Edit;
#METER:12;
#RADARVALUES:0.477038,0.510355,0.173350,0.346700,0.551982,366.000000,347.000000,19.000000,38.000000,80.000000,0.000000,0.000000,0.000000,0.000000,0.477038,0.510355,0.173350,0.346700,0.551982,366.000000,347.000000,19.000000,38.000000,80.000000,0.000000,0.000000,0.000000,0.000000;
#CREDIT:led_light;
#NOTES:
00000000
00000000
00000000
00000000
,
00000000
00000000
00000000
00000000
,
00000000
00000000
00000000
00000000
,
00000000
00000000
00000000
00000000
,
00000000
00000000
00000000
00000000
,
10010000
00000000
00000000
00000000
00000000
00000000
00011000
00000000
00000000
00001000
00000000
00000000
00100000
00000000
00000000
00010000
00000000
01000000
00000000
00000000
01000000
00010000
00000000
00000000
,
10000000
00000000
00100000
01000000
00000000
00000000
00010000
00000000
10000000
01000000
00000000
00000000
10000000
00000000
00000000
01000000
00000000
00100000
00000000
00000000
00100000
00010000
00000000
00000000
,
00011000
00000000
00000000
00000000
00000000
00010000
10000000
00000000
00000000
00000000
00000000
00010000
00001000
00000000
00001000
00000000
00000000
00000010
00000100
00000000
00000000
00000001
00000000
00000000
,
00001000
00000100
00000001
00000100
00001000
00000001
00000010
00001000
,
00010000
00000000
00000000
00000000
00000000
00000000
00011000
00000000
00000000
00010000
00000000
00000000
00000010
00000000
00000000
00001000
00000000
00000100
00000000
00000000
00000100
00001000
00000000
00000000
,
00000001
00000000
00001000
00000100
00000000
00000000
00001000
00000000
00000001
00000100
00000000
00000010
00000000
00000000
00000000
00001000
00000000
00000000
00010000
00000000
00010000
00001000
00000000
00000000
,
00011000
00000000
00000000
00000000
00000000
00001000
00000001
00000000
00000000
00000000
00000000
00001000
00010000
00000000
00010000
00000000
00000000
01000000
00010000
00000000
00010000
00000000
00000000
10000000
,
01000000
10000000
00010000
00100000
10000000
00100000
00110000
10000000
,
01000000
01000000
10010000
00100000
01000000
01000000
00011000
00100000
,
00010000
00000000
00000000
00000000
00000000
00000000
00001100
00000000
00000000
00010000
00000000
00000000
00001000
00000000
00000010
00000000
00000001
00000000
00002000
00000000
00000000
00003000
00000000
00000000
,
00000010
00000010
00001001
00000100
00000010
00000010
00011000
00000100
,
00001000
00000000
00000000
00000000
00000000
00000000
00110000
00000000
00000000
00001000
00000000
00000000
00010000
00000000
01000000
00000000
10000000
00000000
00020000
00000000
00000000
00030000
00000000
00000000
,
10000000
00000000
00000000
00000000
00000000
00000000
00011000
00000000
00000000
00001000
00000000
00000000
00100000
00000000
00000000
00010000
00000000
01000000
00000000
00000000
01000000
00010000
00000000
00000000
,
10000000
00000000
00100000
01000000
00000000
00000000
00010000
00000000
10000000
01000000
00000000
01000000
00100000
00000000
01000000
10000000
00000000
00010000
00000000
00000000
00000000
10000000
00000000
00000000
,
10100000
00000000
00000000
00000000
00000000
01000000
00010000
00000000
00000000
00000000
00000000
00010000
00001000
00000000
00001000
00000000
00000010
00000000
00000100
00000000
00000100
00000000
00000000
00000001
,
00000010
00000000
00000000
00000000
00000000
00000100
00000010
00000000
00000000
00000001
00000000
00000001
00001000
00000000
00000000
00000100
00000000
00000000
00000020
00000000
00000000
00000000
00000000
00000000
,
00002030
00000000
00000000
00013000
00000100
00000000
00020000
00000000
00000000
00031000
01000000
00000000
,
00001000
00010000
00000000
00010000
01000000
00000000
20000000
00000000
00000000
30200000
00000000
00000000
,
00320000
00000000
00000000
00031000
00100000
00000000
00002000
00000000
00000000
00013000
00000010
00000000
,
00010000
00000000
00000000
00000000
00001000
00000000
00000000
00000000
00000000
00000000
00000000
00000000
00001000
00000000
00000000
00000000
00000010
00000000
00000000
00000000
00000000
00000000
00000000
00000000
00000002
00000000
00000000
00000000
00000000
00000000
00000000
00000000
00000000
00000000
00000000
00000000
00000103
00000000
00000000
00000000
00000000
00000000
00001000
00000000
00000000
00010000
00000000
00000000
,
00002000
00000000
00000000
00013000
00000010
00000000
00020000
00000000
00000000
00031000
00100000
00000000
,
00001000
00010000
00000000
00010000
00100000
00000000
20000000
00000000
00000000
32000000
00000000
00000000
,
03020000
00000000
00000000
00000000
00000000
00000000
00030100
00000000
00010000
00000000
00000000
00000000
00001000
00000000
00000000
01000000
00000000
00000000
00001000
00000000
00000000
00000000
00000000
00000000
,
00010000
00000000
00000100
00000000
00000000
00000000
00000010
00000000
00000000
00000000
00000000
00000000
00000001
00000000
00001000
00000001
00000000
00000000
MMMMMMMM
00000000
00000000
00000000
00000000
00000000
,
00000010
00000000
00000000
00010000
00000000
00000000
00001000
00000000
02000000
00000000
00000000
00000000
03001000
00000000
00020000
00000000
00000000
00000000
00031000
00000000
00200000
00000000
00000000
01000000
,
00300000
00000000
10000000
01000000
00000000
10000000
00010000
00000000
01000000
00010000
00000000
00000000
20000000
00000000
00000000
30100000
00000000
01000000
00010000
00000000
00000000
MMMMMMMM
00000000
00000000
,
00010000
00000000
00000000
00100000
00000000
00000000
01000000
00000000
00020000
00000000
00000000
00000000
00030100
00000000
00020000
00000000
00000000
00000000
00031000
00000000
00020000
00000000
00000000
00000010
,
00030000
00000000
00000100
00000001
00000000
00001000
00000100
00000000
00000000
00000010
00000000
00000000
00000002
00000000
00001003
00000001
00000000
00000000
00000110
00000000
00000000
MMMMMMMM
00000000
00000000
,
00000000
00000000
00000001
00001000
00000000
00001000
00000100
00000000
00000100
00001000
00000000
00000000
MMMMMMMM
00000000
00010000
00001000
00000000
00001000
00010000
00000000
00010000
00100000
00000000
00000000
,
MMMMMMMM
00000000
00010000
10000000
00000000
10000000
00010000
00000000
01000000
00100000
00000000
00000000
10000000
00000000
01000000
00100000
00000000
00000000
01100000
00000000
00000000
00010000
00000000
00000000
,
00100000
00000000
00000000
00001000
00000000
00000000
00010000
00000000
00000200
00000000
00000000
00000000
00010300
00000000
00002000
00000000
00000000
00000000
00013000
00000000
00000020
00000000
00000000
00000100
,
00000030
00000000
00000001
00001000
00000000
00000100
00001000
00000000
00000000
00000001
00000000
00000000
00000020
00000000
00000000
00001030
00000000
00010000
00001000
00000000
00000000
MMMMMMMM
00000000
00000000
,
00000100
00000000
00000000
00010000
00000000
00000000
00001000
00000000
00200000
00000000
00000000
00000000
00301000
00000000
00020000
00000000
00000000
00000000
00031000
00000000
02000000
00000000
00000000
00100000
,
03000000
00000000
10000000
00100000
00000000
10000000
00010000
00000000
00100000
00010000
00000000
00000000
20000000
00000000
00000000
31000000
00000000
00100000
00010000
00000000
00000000
MMMMMMMM
00000000
00000000
,
00010000
00000000
00000000
01000000
00000000
00000000
00100000
00000000
00020000
00000000
00000000
00000000
00030010
00000000
00020000
00000000
00000000
00000000
00031000
00000000
00020000
00000000
00000000
00000100
,
00030000
00000000
00000010
00000001
00000000
00001000
00000010
00000000
00000000
00000100
00000000
00000000
00000002
00000000
00001003
00000001
00000000
00000000
00000110
00000000
00000000
MMMMMMMM
00000000
00000000
,
00000000
00000000
00000001
00001000
00000000
00001000
00000010
00000000
00000010
00001000
00000000
00000000
MMMMMMMM
00000000
00010000
00001000
00000000
00001000
00010000
00000000
00010000
01000000
00000000
00000000
,
MMMMMMMM
00000000
00010000
10000000
00000000
10000000
00010000
00000000
00100000
01000000
00000000
00000000
10000000
00000000
00100000
01000000
00000000
00000000
01100000
00000000
00000000
00010000
00000000
00000000
,
01000000
00000000
00000000
00001000
00000000
00000000
00010000
00000000
00000020
00000000
00000000
00000000
00010030
00000000
00002000
00000000
00000000
00000000
00013000
00000000
00000200
00000000
00000000
00000010
,
00000300
00000000
00000001
00001000
00000000
00000010
00001000
00000000
00000000
00000001
00000000
00000000
00000010
00000000
00000100
00001000
00000000
00000000
00011000
00000000
00000000
00000000
00000000
00000000
;
