#TITLE:ETHYRIA;
#SUBTITLE:(original soundtrack);
#ARTIST:Enna Alouette × keiki;
#TITLETRANSLIT:;
#SUBTITLETRANSLIT:;
#ARTISTTRANSLIT:;
#GENRE:にじさんじ;
#CREDIT:;
#BANNER:ETHYRIA (original soundtrack).png;
#BACKGROUND:ETHYRIA (original soundtrack)-bg.png;
#LYRICSPATH:;
#CDTITLE:../cdtitle.png;
#MUSIC:ETHYRIA (original soundtrack).ogg;
#OFFSET:4.316000;
#SAMPLESTART:26.229000;
#SAMPLELENGTH:15.000000;
#LASTBEATHINT:3.039667;
#SELECTABLE:YES;
#BPMS:0.000000=55.000000
,163.000000=51.650002
,164.000000=48.049999
,165.000000=43.849998
,165.250000=39.299999
,165.500000=36.700001
,165.750000=29.200001
,166.000000=15.510000
;
#STOPS:
;
#BGCHANGES:3.958=ETHYRIA (original soundtrack).avi=1.000=0=0=0=StretchNoLoop====,
99999=-nosongbg-=1.000=0=0=0 // don't automatically add -songbackground-
;
#KEYSOUNDS:;
#ATTACKS:;

//---------------dance-single - ----------------
#NOTES:
     dance-single:
     :
     Beginner:
     1:
     0.023627,0.043747,0.000000,0.016005,0.000000,31.000000,31.000000,0.000000,3.000000,0.000000,0.000000,0.023627,0.043747,0.000000,0.016005,0.000000,31.000000,31.000000,0.000000,3.000000,0.000000,0.000000:
0000
0000
0000
0000
,
0000
0000
0000
0000
,
0000
0000
0000
0000
,
0000
0000
0000
0000
,
0000
0000
0000
0000
,
0000
0000
0000
0000
,
0000
0000
0000
0000
,
0001
0000
0000
0000
,
0100
0000
0000
0000
,
1000
0000
0000
0000
,
0010
0000
0000
0000
,
1000
0000
0000
0000
,
0100
0000
0000
0000
,
0001
0000
0100
0000
,
0020
0000
0000
0000
,
0030
0000
0000
0000
,
0000
0000
0000
0000
,
0000
0000
0000
0000
,
0000
0000
0000
0000
,
1000
0000
0000
0000
,
1000
0000
0000
0000
,
0100
0000
0000
0000
,
0100
0000
0000
0000
,
0010
0000
0000
0000
,
0001
0000
0000
0000
,
0100
0000
0000
0000
,
1000
0000
0000
0000
,
0100
0000
0000
0000
,
0001
0000
0000
0000
,
0010
0000
0000
0000
,
0001
0000
0000
0000
,
1000
0000
0000
0000
,
0010
0000
0000
0000
,
1000
0000
1000
0000
,
0200
0000
0000
0300
,
0100
0000
0000
0000
,
0000
0000
0000
0000
,
0000
0000
0000
0000
,
0000
0000
0000
0000
,
1000
0000
0010
0000
,
0200
0000
0000
0300
,
0001
0000
0000
0000
;

//---------------dance-single - ----------------
#NOTES:
     dance-single:
     :
     Easy:
     1:
     0.035059,0.055351,0.000000,0.037345,0.000000,46.000000,46.000000,0.000000,7.000000,0.000000,0.000000,0.035059,0.055351,0.000000,0.037345,0.000000,46.000000,46.000000,0.000000,7.000000,0.000000,0.000000:
0000
0000
0000
0000
,
0000
0000
0000
0000
,
0000
0000
0000
0000
,
0000
0000
0000
0000
,
0000
0000
0000
0000
,
0000
0000
0000
0000
,
0000
0000
0000
0000
,
0001
0000
0010
0000
,
1000
0000
0000
0000
,
1000
0000
0100
0000
,
0001
0000
0000
0000
,
1000
0000
1000
0000
,
0010
0000
0000
0000
,
1000
0000
0100
0000
,
0020
0000
0000
0000
,
0030
0000
0000
0000
,
0000
0000
0000
0000
,
0002
0003
2000
3000
,
0200
0000
0000
0300
,
1000
0000
1000
0000
,
0001
0000
0001
0000
,
0100
0000
0100
0000
,
0010
0000
0010
0000
,
1000
0000
0100
0000
,
0001
0000
0000
0000
,
0001
0000
0010
0000
,
1000
0000
0000
0000
,
0001
0000
0001
0000
,
0100
0000
0000
0000
,
0001
0000
0010
0000
,
0100
0000
0000
0000
,
1000
0000
1000
0000
,
0010
0000
0000
0000
,
1000
0000
0100
0000
,
0020
0000
0000
0030
,
0001
0000
0000
0000
,
0000
0000
0000
0000
,
0000
0000
0000
0000
,
0000
0000
0000
0000
,
1000
0000
0100
0000
,
0020
0000
0000
0030
,
0200
0000
0300
0000
;

//---------------dance-single - ----------------
#NOTES:
     dance-single:
     :
     Medium:
     3:
     0.062496,0.100232,0.000000,0.176056,0.000000,82.000000,82.000000,0.000000,33.000000,0.000000,0.000000,0.062496,0.100232,0.000000,0.176056,0.000000,82.000000,82.000000,0.000000,33.000000,0.000000,0.000000:
0000
0000
0000
0000
,
0000
0000
0000
0000
,
0000
0000
0000
0000
,
0000
0000
0000
0000
,
0000
0000
0000
0000
,
0000
0000
0000
0000
,
0000
0000
0000
0000
,
2000
0001
0001
3001
,
0002
0100
0003
0100
,
0002
0013
0200
1300
,
0020
0001
0100
0130
,
2000
3000
0001
1000
,
1000
0000
2000
3000
,
0020
0030
1000
0100
,
0020
0000
0000
0000
,
0030
0000
0000
0000
,
0000
0000
0000
0000
,
2000
0000
3002
0000
,
0200
0000
0000
0303
,
0020
0000
0001
0030
,
2000
0000
0100
3000
,
0002
0000
0010
0003
,
2000
0000
0001
3000
,
1000
0000
1000
0100
,
0001
0000
0100
1000
,
0001
0000
1000
0010
,
0001
0000
0010
1000
,
0002
1000
1000
1003
,
2000
3010
0020
1030
,
2000
3100
0020
0031
,
0200
1000
0010
0310
,
0002
0003
1000
0001
,
0001
0000
0002
0003
,
0200
0301
0001
0010
,
0200
0000
0000
0300
,
2000
0000
3000
0000
,
0002
0000
0003
0000
,
0200
0000
0300
0000
,
0020
0000
0030
0000
,
0200
0300
0001
0010
,
0200
0000
0000
0300
,
2000
0000
0000
3000
;

//---------------dance-single - ----------------
#NOTES:
     dance-single:
     :
     Hard:
     6:
     0.120419,0.200464,0.032010,0.288092,0.000000,158.000000,152.000000,6.000000,54.000000,0.000000,0.000000,0.120419,0.200464,0.032010,0.288092,0.000000,158.000000,152.000000,6.000000,54.000000,0.000000,0.000000:
0000
0000
0000
0000
,
0000
0000
0000
0000
,
0000
0000
0000
0000
,
0000
0000
0000
0000
,
0000
0000
0000
0000
,
0000
0000
0000
0000
,
0000
0000
0000
0000
,
0000
1000
0100
1000
0100
0001
0100
1000
,
0000
0001
1000
0100
2000
0000
0020
0000
,
3030
0100
0001
0001
2000
3000
0001
0100
,
0020
0000
2030
0000
3200
0000
0300
1000
,
0002
0000
0003
0020
0130
1000
1000
0001
,
0002
0003
0010
1000
0020
0000
0030
0001
,
0200
0000
0300
0001
0020
0030
0100
1000
,
0002
0000
0000
0000
,
0003
0000
0000
0000
,
0000
0000
0000
0000
,
2000
0000
3020
2030
,
0002
0000
0000
3003
,
2100
0000
3100
1000
2000
0000
0100
0000
,
3020
0000
0130
0010
0020
0000
0200
0330
,
1002
0000
0013
0001
0002
0000
0023
0032
,
0203
0000
0310
0100
0200
0000
0300
0010
,
0110
0000
0001
1000
0100
1000
0001
0010
,
0011
0000
0100
1000
0010
1000
0100
0010
,
0110
0000
0001
1000
0010
1000
0001
0100
,
0101
0000
0010
1000
0100
1000
0010
0200
,
0300
0001
0010
0001
0010
1000
0010
0001
,
0000
1000
0001
0010
0002
0100
0203
0020
,
0330
0010
1000
1000
0002
1003
0010
0100
,
0002
0000
0013
0001
2000
0000
3000
0010
,
2000
0000
3200
0000
0310
0001
0001
1000
,
2000
3000
0100
0001
0200
0000
0300
1000
,
0020
0000
1030
0100
0020
0030
0002
0000
,
2000
0000
0000
3003
,
2000
3000
0001
1000
,
0002
0003
0020
0030
,
0200
0300
2000
3000
,
0020
0000
0030
0000
2000
0000
3000
0001
,
0200
0000
0300
0001
0020
0030
0100
1000
,
0002
0000
0000
0003
,
0200
0000
0000
0300
;

//---------------dance-single - ----------------
#NOTES:
     dance-single:
     :
     Challenge:
     8:
     0.186726,0.245012,0.042680,0.522834,0.178724,245.000000,237.000000,8.000000,98.000000,0.000000,0.000000,0.186726,0.245012,0.042680,0.522834,0.178724,245.000000,237.000000,8.000000,98.000000,0.000000,0.000000:
0000
0000
0000
0000
,
0000
0000
0000
0000
,
0000
0000
0000
0000
,
0000
0000
0000
0000
,
0000
0000
0000
0000
,
0000
0000
0000
0000
,
0000
0000
0000
0000
,
2000
0000
3100
0010
0001
0000
0001
0000
2000
0000
3002
0000
0023
0000
0200
0000
,
0330
0000
1000
0000
0001
0000
1000
0000
0200
0000
1300
0001
0100
0001
0100
0010
,
2000
0000
3002
0000
0023
0000
0130
0010
0002
0000
2003
0000
3200
0000
2300
0000
,
3020
0000
0000
0000
2030
0000
3002
0000
0200
0000
0000
0000
0303
0000
0100
0010
,
2000
0000
0000
0000
0000
0000
0000
0000
0000
0000
0000
0000
3000
0000
0000
0000
0000
0000
0001
0000
0000
0010
0000
0000
0100
0000
0000
0000
0000
0000
1000
0000
0100
0000
1000
0000
0001
0000
0010
0000
0001
0000
1000
0000
0010
0000
1000
0000
,
0002
0000
0000
0000
0003
0000
0000
0000
0010
0000
0000
0100
0000
0000
1000
0000
0002
0000
0000
0000
0000
0000
0000
0000
0003
0000
0000
0000
0001
0000
0000
0000
,
0200
0000
0000
0000
0000
0000
0000
0000
0300
0000
0000
0000
0100
0000
0000
0000
0020
0000
0000
0000
0030
0000
0000
0000
0001
0000
0000
0010
0000
0000
2000
0000
,
0002
0000
0000
0000
,
3003
0000
0000
0000
,
0000
0000
0000
0000
,
2000
0000
0000
0000
0000
0000
0000
0000
0000
0000
0000
0000
3200
0000
0000
0000
0000
0000
0320
0000
0000
0000
0000
0031
,
2000
0000
0000
0000
0000
0000
0000
0000
0000
0000
0000
0000
3000
0000
0000
0001
,
0200
0000
0300
0100
0001
0000
0001
0000
0102
0000
0000
0000
0013
0000
0010
0000
,
0200
0000
0300
1000
0010
0000
0010
0000
1020
0000
0100
0000
2030
0000
3200
0000
,
0320
0000
0030
0010
0001
0000
0001
0000
0021
0000
0100
0000
0032
0000
0203
0000
,
0320
0000
0030
0100
0001
0000
0001
0000
0201
0000
0310
0000
2000
0000
3100
0000
,
0110
0000
0000
0100
2000
0000
3010
0000
2000
0000
3100
0000
0020
0000
0031
0000
,
0220
0000
0330
1000
0002
0000
1003
0000
0200
0000
1300
0000
0001
0100
0010
1000
,
2020
0000
3030
0001
0200
0000
1300
0000
0200
0000
0301
0000
2000
0000
3010
0000
,
0220
0000
0330
1000
0002
0000
0103
0000
0020
0000
0130
0001
0010
0100
0010
0001
,
2000
0000
3100
0010
0001
0000
0001
0000
2000
0000
3002
0000
0023
0000
0200
0000
,
0330
0000
1000
0000
0001
0000
1000
0000
0200
0000
1300
0001
0100
0001
0100
0010
,
2000
0000
3002
0000
0023
0000
0130
0010
0002
0000
2003
0000
3200
0000
2300
0000
,
3020
0000
0000
0000
2030
0000
3002
0000
0200
0000
0000
0000
0303
0000
0100
0010
,
2000
0000
0000
0000
0000
0000
0000
0000
0000
0000
0000
0000
3002
0000
0000
0000
0000
0000
0003
0000
0000
0010
0000
0000
0100
0000
0000
0000
0000
0000
1000
0000
0100
0000
1000
0000
0001
0000
0010
0000
0001
0000
1000
0000
0010
0000
1000
0000
,
0002
0000
0000
0000
0003
0000
0000
0000
0010
0000
0000
0100
0000
0000
1000
0000
0002
0000
0000
0000
0000
0000
0000
0000
0003
0000
0000
0000
0001
0000
0000
0000
,
0200
0000
0000
0302
0000
0000
0023
0000
0230
0000
0300
0000
2000
0000
0000
3002
,
0000
0200
0000
0000
0000
0000
0000
0000
0000
0000
0000
0000
0303
0000
0010
0000
,
2000
0000
0000
0000
0000
0000
0000
0000
0000
0000
0000
0000
3000
0000
0000
0000
0000
0000
1000
0000
0000
0100
0000
0000
0010
0000
0000
0000
0000
0000
0001
0000
0010
0000
0001
0000
1000
0000
0100
0000
1000
0000
0001
0000
0100
0000
0001
0000
,
2000
0000
0000
0000
3000
0000
0000
0000
0100
0000
0000
0010
0000
0000
0001
0000
2000
0000
0000
0000
0000
0000
0000
0000
3000
0000
0000
0000
0100
0000
1000
0000
,
0002
0000
0000
0000
0000
0000
0000
0000
0003
0000
0000
0000
0010
0000
1000
0000
0002
0000
0000
0000
0003
0000
0000
0000
0100
0000
0000
1000
0000
0000
0001
0000
,
2000
0000
3000
0010
2000
0000
3000
0001
,
0200
0000
0000
0000
0000
0000
0000
0000
0300
0000
0000
0000
0100
0000
0000
0000
0020
0000
0000
0000
0030
0000
0000
0000
0001
0000
0000
0010
0000
0000
2000
0000
,
0002
0000
0000
0000
0000
0000
0000
0000
0000
0000
0000
0000
0000
0000
0000
0000
0000
0000
0000
0000
0000
0000
0000
0000
0000
0000
0000
0000
0000
0000
0000
0000
0000
0000
0000
0000
0000
0000
0000
0000
0000
0000
0000
0000
0000
0000
0000
0000
0000
0000
0000
0000
0000
0000
0000
0000
0000
0000
0000
0000
0000
0000
0000
0000
0000
0000
0000
0000
0000
0000
0000
0000
0000
0000
0000
0000
0000
0000
0000
0000
0000
0000
0000
0000
0000
0000
0000
0000
0000
0000
0000
0000
0000
0000
0000
0000
0000
0000
0000
0000
0000
0000
0000
0000
0000
0000
0000
0000
0000
0000
0000
0000
0000
0000
0000
0000
0000
0000
0000
0000
0000
0000
0000
0000
0000
0000
0000
0000
0000
0000
0000
0000
0000
0000
0000
0000
0000
0000
0000
0000
0000
0000
0000
0000
3003
0000
0000
0000
0000
0000
0000
0000
0000
0000
0000
0000
0000
0000
0000
0000
0000
0000
0000
0000
0000
0000
0000
0000
0000
0000
0000
0000
0000
0000
0000
0000
0000
0000
0000
1000
0000
0000
0000
0000
0000
0001
0000
0000
0000
0000
0000
0000
,
0200
0000
0020
0330
;

//---------------dance-double - ----------------
#NOTES:
     dance-double:
     :
     Easy:
     1:
     0.035059,0.055351,0.000000,0.037345,0.000000,46.000000,46.000000,0.000000,7.000000,0.000000,0.000000,0.035059,0.055351,0.000000,0.037345,0.000000,46.000000,46.000000,0.000000,7.000000,0.000000,0.000000:
00000000
00000000
00000000
00000000
,
00000000
00000000
00000000
00000000
,
00000000
00000000
00000000
00000000
,
00000000
00000000
00000000
00000000
,
00000000
00000000
00000000
00000000
,
00000000
00000000
00000000
00000000
,
00000000
00000000
00000000
00000000
,
10000000
00000000
01000000
00000000
,
00100000
00000000
00000000
00000000
,
00010000
00000000
01000000
00000000
,
00100000
00000000
00000000
00000000
,
00010000
00000000
00010000
00000000
,
00001000
00000000
00000000
00000000
,
00010000
00000000
00000100
00000000
,
00000020
00000000
00000000
00000000
,
00000030
00000000
00000000
00000000
,
00000000
00000000
00000000
00000000
,
00000002
00000003
00002000
00003000
,
00000020
00000000
00000000
00000030
,
00010000
00000000
00010000
00000000
,
00001000
00000000
00001000
00000000
,
01000000
00000000
01000000
00000000
,
00010000
00000000
00010000
00000000
,
10000000
00000000
00100000
00000000
,
00010000
00000000
00000000
00000000
,
00001000
00000000
00000010
00000000
,
00000001
00000000
00000000
00000000
,
00000001
00000000
00000010
00000000
,
00000100
00000000
00000000
00000000
,
00001000
00000000
00000010
00000000
,
00000100
00000000
00000000
00000000
,
00001000
00000000
00001000
00000000
,
00010000
00000000
00000000
00000000
,
00001000
00000000
00100000
00000000
,
02000000
00000000
00000000
03000000
,
00100000
00000000
00000000
00000000
,
00000000
00000000
00000000
00000000
,
00000000
00000000
00000000
00000000
,
00000000
00000000
00000000
00000000
,
00010000
00000000
00000100
00000000
,
00000020
00000000
00000000
00000030
,
00000200
00000000
00000300
00000000
;

//---------------dance-double - ----------------
#NOTES:
     dance-double:
     :
     Medium:
     3:
     0.059448,0.089095,0.000000,0.181391,0.000000,78.000000,78.000000,0.000000,34.000000,0.000000,0.000000,0.059448,0.089095,0.000000,0.181391,0.000000,78.000000,78.000000,0.000000,34.000000,0.000000,0.000000:
00000000
00000000
00000000
00000000
,
00000000
00000000
00000000
00000000
,
00000000
00000000
00000000
00000000
,
00000000
00000000
00000000
00000000
,
00000000
00000000
00000000
00000000
,
00000000
00000000
00000000
00000000
,
00000000
00000000
00000000
00000000
,
20000000
00010000
00010000
30010000
,
00200000
00001000
00300000
00001000
,
00020000
00030100
00020000
00031000
,
00000020
00000100
00000002
00000033
,
00002000
00003000
00000001
00001000
,
00001000
00000000
00000020
00000030
,
00020000
00030000
00001000
00100000
,
02000000
00000000
00000000
00000000
,
03000000
00000000
00000000
00000000
,
00000000
00000000
00000000
00000000
,
20000000
00000000
32000000
00000000
,
03200000
00000000
00000000
00300000
,
00020000
00000000
01000000
00030000
,
00002000
00000000
00010000
00003000
,
00000020
00000000
00001000
00000030
,
00000002
00000000
00000100
00000003
,
00001000
00000000
00001000
00000100
,
00001000
00000000
00000001
00000100
,
00000001
00000000
00000010
00000100
,
00010000
00000000
00000010
00001000
,
00000002
00001000
00001000
00001003
,
00000200
00010000
00000300
00010000
,
00002000
00103000
00002000
00013000
,
02000000
00100000
20000000
33000000
,
00020000
00030000
10000000
00010000
,
00010000
00000000
02000000
03000000
,
00002000
00003000
00010000
00000100
,
00000020
00000000
00000000
00000030
,
00000002
00000000
00000003
00000000
,
00002000
00000000
00003000
00000000
,
00000020
00000000
00000030
00000000
,
00020000
00000000
00030000
00000000
,
00020000
00030000
00001000
00100000
,
02000000
00000000
00000000
03000000
,
20000000
00000000
00000000
30000000
;

//---------------dance-double - ----------------
#NOTES:
     dance-double:
     :
     Hard:
     6:
     0.119657,0.200464,0.026675,0.288092,0.000000,157.000000,152.000000,5.000000,54.000000,0.000000,0.000000,0.119657,0.200464,0.026675,0.288092,0.000000,157.000000,152.000000,5.000000,54.000000,0.000000,0.000000:
00000000
00000000
00000000
00000000
,
00000000
00000000
00000000
00000000
,
00000000
00000000
00000000
00000000
,
00000000
00000000
00000000
00000000
,
00000000
00000000
00000000
00000000
,
00000000
00000000
00000000
00000000
,
00000000
00000000
00000000
00000000
,
00000000
10000000
00100000
00010000
00100000
00010000
00001000
00000010
,
00000000
00000001
00000100
00000010
00002000
00000000
00000002
00000000
,
00003003
00001000
00000100
00000100
00020000
00030000
00001000
01000000
,
00200000
00000000
20300000
00000000
30020000
00000000
00030000
01000000
,
00002000
00000000
00003000
00020000
00031000
00010000
00010000
00000100
,
00000200
00000300
00000010
00000001
00002000
00000000
00003000
00000001
,
00000200
00000000
00000300
00000001
00000020
00000030
00000100
00010000
,
00002000
00000000
00000000
00000000
,
00003000
00000000
00000000
00000000
,
00000000
00000000
00000000
00000000
,
00200000
00000000
02300000
23000000
,
00020000
00000000
00000000
30030000
,
21000000
00000000
30010000
00100000
00200000
00000000
00010000
00000000
,
00302000
00000000
00013000
00010000
00000020
00000000
00002030
00000000
,
00003002
00000000
00001003
00000100
00000200
00000000
00020300
00032000
,
00023000
00000000
00031000
00001000
02000000
00000000
03000000
00010000
,
10010000
00000000
00010000
00010000
10000000
10000000
01000000
00100000
,
00110000
00000000
00001000
00010000
00000100
00010000
00001000
00010000
,
00001010
00000000
00001000
00001000
00000001
00000001
00000100
00000010
,
00001010
00000000
00010000
00001000
01000000
00001000
00010000
00002000
,
00003000
10000000
00100000
00010000
00100000
00010000
00001000
00000010
,
00000000
00000001
00000100
00000010
00002000
00000001
00003002
00002000
,
00003003
00001000
00000100
00000100
00020000
00031000
01000000
00100000
,
20000000
00000000
31000000
00100000
00020000
00000000
00030000
01000000
,
00002000
00000000
00023000
00000000
00031000
00010000
00010000
00000100
,
00000200
00000300
00000010
00000001
00002000
00000000
00003000
00000001
,
00000200
00000000
00000310
00001000
00000200
00000300
00020000
00000000
,
00002000
00000000
00000000
00033000
,
00200000
00300000
00010000
10000000
,
00020000
00030000
00200000
00300000
,
00002000
00003000
00020000
00030000
,
00000020
00000000
00000030
00000000
00002000
00000000
00003000
00000001
,
00000200
00000000
00000300
00000001
00000020
00000030
00000100
00010000
,
00002000
00000000
00000000
00003000
,
00020000
00000000
00000000
00030000
;

//---------------dance-double - ----------------
#NOTES:
     dance-double:
     :
     Challenge:
     8:
     0.185964,0.245012,0.042680,0.528169,0.176056,244.000000,236.000000,8.000000,99.000000,0.000000,0.000000,0.185964,0.245012,0.042680,0.528169,0.176056,244.000000,236.000000,8.000000,99.000000,0.000000,0.000000:
// measure 0
00000000
00000000
00000000
00000000
,  // measure 1
00000000
00000000
00000000
00000000
,  // measure 2
00000000
00000000
00000000
00000000
,  // measure 3
00000000
00000000
00000000
00000000
,  // measure 4
00000000
00000000
00000000
00000000
,  // measure 5
00000000
00000000
00000000
00000000
,  // measure 6
00000000
00000000
00000000
00000000
,  // measure 7
00020000
00000000
00030010
00001000
00000010
00000000
00000010
00000000
00000200
00000000
00000302
00000000
00002003
00000000
00000200
00000000
,  // measure 8
00003300
00000000
00010000
00000000
00001000
00000000
00001000
00000000
00020000
00000000
00031000
01000000
00010000
01000000
00100000
10000000
,  // measure 9
00020000
00000000
00230000
00000000
02300000
00000000
03010000
01000000
20000000
00000000
32000000
00000000
23000000
00000000
30200000
00000000
,  // measure 10
00320000
00000000
00000000
00000000
00032000
00000000
02003000
00000000
00002000
00000000
00000000
00000000
03003000
00000000
00010000
00001000
,  // measure 11
00020000
00000000
00000000
00000000
00000000
00000000
00000000
00000000
00000000
00000000
00000000
00000000
00030000
00000000
00000000
00000000
00000000
00000000
00001000
00000000
00000000
00000010
00000000
00000000
00000001
00000000
00000000
00000000
00000000
00000000
00001000
00000000
00000100
00000000
00001000
00000000
00000001
00000000
00000100
00000000
00000001
00000000
00001000
00000000
00000010
00000000
00001000
00000000
,  // measure 12
00000002
00000000
00000000
00000000
00000003
00000000
00000000
00000000
00000010
00000000
00000000
00000100
00000000
00000000
00010000
00000000
00002000
00000000
00000000
00000000
00000000
00000000
00000000
00000000
00003000
00000000
00000000
00000000
00001000
00000000
00000000
00000000
,  // measure 13
02000000
00000000
00000000
00000000
00000000
00000000
00000000
00000000
03000000
00000000
00000000
00000000
01000000
00000000
00000000
00000000
00200000
00000000
00000000
00000000
00300000
00000000
00000000
00000000
10000000
00000000
00000000
01000000
00000000
00000000
00200000
00000000
,  // measure 14
00002000
00000000
00000000
00000000
,  // measure 15
00303000
00000000
00000000
00000000
,  // measure 16
00000000
00000000
00000000
00000000
,  // measure 17
00020000
00000000
00000000
00000000
00000000
00000000
00000000
00000000
00000000
00000000
00000000
00000000
00030200
00000000
00000000
00000000
00000000
00000000
00000320
00000000
00000000
00000000
00000000
00000031
,  // measure 18
00002000
00000000
00000000
00000000
00000000
00000000
00000000
00000000
00000000
00000000
00000000
00000000
00003000
00000000
00000000
00000001
,  // measure 19
00000200
00000000
00000300
00000100
00000001
00000000
00000001
00000000
00001200
00000000
00000000
00000000
00010300
00000000
00001000
00000000
,  // measure 20
00200000
00000000
00300000
00010000
01000000
00000000
01000000
00000000
20010000
00000000
01000000
00000000
30020000
00000000
02030000
00000000
,  // measure 21
03200000
00000000
00300000
00100000
10000000
00000000
10000000
00000000
00210000
00000000
01000000
00000000
00302000
00000000
00023000
00000000
,  // measure 22
00030200
00000000
00000300
00010000
00001000
00000000
00001000
00000000
00021000
00000000
00030100
00000000
00002000
00000000
00003010
00000000
,  // measure 23
00000110
00000000
00000000
00000100
00002000
00000000
00003100
00000000
00000200
00000000
00000310
00000000
00020000
00000000
00031000
00000000
,  // measure 24
00022000
00000000
00033000
00001000
00200000
00000000
00310000
00000000
02000000
00000000
23000000
00000000
31000000
00010000
00100000
01000000
,  // measure 25
02200000
00000000
03300000
01000000
00020000
00000000
01030000
00000000
02000000
00000000
03100000
00000000
00002000
00000000
00013000
00000000
,  // measure 26
00022000
00000000
00033000
00010000
00000020
00000000
00001030
00000000
00000200
00000000
00001300
00000001
00000100
00000001
00000100
00001000
,  // measure 27
00020000
00000000
00030100
00001000
00000100
00000000
00000100
00000000
00000020
00000000
00000032
00000000
00002003
00000000
00000020
00000000
,  // measure 28
00003030
00000000
00010000
00000000
00001000
00000000
00001000
00000000
00020000
00000000
00031000
00100000
00010000
00100000
01000000
10000000
,  // measure 29
00020000
00000000
02030000
00000000
03200000
00000000
00310000
00100000
20000000
00000000
30200000
00000000
20300000
00000000
32000000
00000000
,  // measure 30
03020000
00000000
00000000
00000000
00032000
00000000
00203000
00000000
00002000
00000000
00000000
00000000
00303000
00000000
00010000
00001000
,  // measure 31
00020000
00000000
00000000
00000000
00000000
00000000
00000000
00000000
00000000
00000000
00000000
00000000
00032000
00000000
00000000
00000000
00000000
00000000
00003000
00000000
00000000
00000100
00000000
00000000
00000001
00000000
00000000
00000000
00000000
00000000
00001000
00000000
00000010
00000000
00001000
00000000
00000001
00000000
00000010
00000000
00000001
00000000
00001000
00000000
00000100
00000000
00001000
00000000
,  // measure 32
00000002
00000000
00000000
00000000
00000003
00000000
00000000
00000000
00000100
00000000
00000000
00000010
00000000
00000000
00010000
00000000
00002000
00000000
00000000
00000000
00000000
00000000
00000000
00000000
00003000
00000000
00000000
00000000
00001000
00000000
00000000
00000000
,  // measure 33
00200000
00000000
00000000
02300000
00000000
00000000
23000000
00000000
30020000
00000000
00030000
00000000
02000000
00000000
03000000
00002000
,  // measure 34
00000000
00200000
00000000
00000000
00000000
00000000
00000000
00000000
00000000
00000000
00000000
00000000
00303000
00000000
00001000
00000000
,  // measure 35
00020000
00000000
00000000
00000000
00000000
00000000
00030000
00000000
00000000
00010000
00000000
00000000
00000100
00000000
00000000
00010000
00001000
00010000
00000010
00001000
00000010
00010000
00001000
00010000
,  // measure 36
00000200
00000000
00000000
00000000
00000300
00000000
00000000
00000000
00010000
00000000
00000000
00001000
00000000
00000000
01000000
00000000
00200000
00000000
00000000
00000000
00000000
00000000
00000000
00000000
00300000
00000000
00000000
00000000
01000000
00000000
00010000
00000000
,  // measure 37
20000000
00000000
00000000
00000000
00000000
00000000
00000000
00000000
30000000
00000000
00000000
00000000
01000000
00000000
00010000
00000000
00002000
00000000
00000000
00000000
00003000
00000000
00000000
00000000
00010000
00000000
00000000
01000000
00000000
00000000
10000000
00000000
,  // measure 38
00020000
00000000
00030000
00100000
00002000
00000000
00003000
00001000
,  // measure 39
02000000
00000000
00000000
00000000
00000000
00000000
00000000
00000000
03000000
00000000
00000000
00000000
01000000
00000000
00000000
00000000
00200000
00000000
00000000
00000000
00300000
00000000
00000000
00000000
10000000
00000000
00000000
01000000
00000000
00000000
00200000
00000000
,  // measure 40
00002000
00000000
00000000
00000000
00000000
00000000
00000000
00000000
00000000
00000000
00000000
00000000
00000000
00000000
00000000
00000000
00000000
00000000
00000000
00000000
00000000
00000000
00000000
00000000
00000000
00000000
00000000
00000000
00000000
00000000
00000000
00000000
00000000
00000000
00000000
00000000
00000000
00000000
00000000
00000000
00000000
00000000
00000000
00000000
00000000
00000000
00000000
00000000
00000000
00000000
00000000
00000000
00000000
00000000
00000000
00000000
00000000
00000000
00000000
00000000
00000000
00000000
00000000
00000000
00000000
00000000
00000000
00000000
00000000
00000000
00000000
00000000
00000000
00000000
00000000
00000000
00000000
00000000
00000000
00000000
00000000
00000000
00000000
00000000
00000000
00000000
00000000
00000000
00000000
00000000
00000000
00000000
00000000
00000000
00000000
00000000
00000000
00000000
00000000
00000000
00000000
00000000
00000000
00000000
00000000
00000000
00000000
00000000
00000000
00000000
00000000
00000000
00000000
00000000
00000000
00000000
00000000
00000000
00000000
00000000
00000000
00000000
00000000
00000000
00000000
00000000
00000000
00000000
00000000
00000000
00000000
00000000
00000000
00000000
00000000
00000000
00000000
00000000
00000000
00000000
00000000
00000000
00000000
00000000
00303000
00000000
00000000
00000000
00000000
00000000
00000000
00000000
00000000
00000000
00000000
00000000
00000000
00000000
00000000
00000000
00000000
00000000
00000000
00000000
00000000
00000000
00000000
00000000
00000000
00000000
00000000
00000000
00000000
00000000
00000000
00000000
00000000
00000000
00000000
00010000
00000000
00000000
00000000
00000000
00000000
00000100
00000000
00000000
00000000
00000000
00000000
00000000
,  // measure 41
00020000
00000000
00002000
00033000
;
