#VERSION:0.83;
#TITLE:Dumb Dumb;
#SUBTITLE:;
#ARTIST:Red Velvet;
#TITLETRANSLIT:;
#SUBTITLETRANSLIT:;
#ARTISTTRANSLIT:;
#GENRE:K-Pop;
#ORIGIN:;
#CREDIT:;
#BANNER:Dumb Dumb.png;
#BACKGROUND:Dumb Dumb-bg.png;
#PREVIEWVID:;
#JACKET:Dumb Dumb-jacket.png;
#CDIMAGE:;
#DISCIMAGE:;
#LYRICSPATH:;
#CDTITLE:../cdtitle.png;
#MUSIC:Dumb Dumb.ogg;
#OFFSET:0.999000;
#SAMPLESTART:33.105999;
#SAMPLELENGTH:15.000000;
#SELECTABLE:YES;
#BPMS:0.000=146.000;
#STOPS:;
#DELAYS:;
#WARPS:;
#TIMESIGNATURES:0.000=4=4;
#TICKCOUNTS:0.000=4;
#COMBOS:0.000=1;
#SPEEDS:0.000=1.000=0.000=0;
#SCROLLS:0.000=1.000;
#FAKES:;
#LABELS:0.000=Song Start;
#BGCHANGES:1.500=Dumb Dumb.avi=1.000=0=0=0=StretchNoLoop====,
99999=-nosongbg-=1.000=0=0=0 // don't automatically add -songbackground-
;
#KEYSOUNDS:;
#ATTACKS:
;

//---------------dance-single - ----------------
#NOTEDATA:;
#CHARTNAME:;
#STEPSTYPE:dance-single;
#DESCRIPTION:;
#CHARTSTYLE:;
#DIFFICULTY:Beginner;
#METER:2;
#RADARVALUES:0.072216,0.151298,0.035600,0.085439,0.000000,71.000000,66.000000,5.000000,12.000000,0.000000,0.000000,0.000000,0.000000,0.000000,0.072216,0.151298,0.035600,0.085439,0.000000,71.000000,66.000000,5.000000,12.000000,0.000000,0.000000,0.000000,0.000000,0.000000;
#CREDIT:led_light;
#DISPLAYBPM:146.000000;
#NOTES:
0000
0000
0000
0000
,
0000
0000
0000
0000
,
0000
0000
0000
0000
,
0000
0000
0000
0000
,
0000
0000
0000
0000
,
0010
0000
0000
0000
,
0000
0000
0000
0000
,
0010
0000
0000
0000
,
0000
0000
0000
0000
,
0100
0000
0000
0000
,
0000
0000
0000
0000
,
0100
0000
0000
0000
,
0000
0000
0000
0000
,
0020
0000
0000
0000
,
0000
0000
0030
0000
,
0020
0000
0000
0000
,
0000
0000
0030
0000
,
0200
0000
0000
0000
,
0000
0000
0300
0000
,
0200
0000
0000
0000
,
0300
0000
0100
0000
,
1001
0000
0000
0000
,
1000
0000
0000
0000
,
0100
0000
0100
0000
,
0100
0000
0000
0000
,
1001
0000
0000
0000
,
0001
0000
0000
0000
,
0010
0000
0010
0000
,
0010
0000
0000
0000
,
0001
0000
0000
0000
,
1000
0000
0000
0000
,
0001
0000
0000
0000
,
1000
0000
0000
0000
,
0010
0000
0000
0000
,
0100
0000
0000
0000
,
0010
0000
0000
0000
,
0100
0000
0000
0000
,
0001
0000
0000
0000
,
0001
0000
0000
0000
,
1000
0000
0000
0000
,
1000
0000
0000
0000
,
0001
0000
0000
0000
,
0000
0000
0000
0000
,
1000
0000
0000
0000
,
0000
0000
0000
0000
,
0001
0000
0000
0000
,
0001
0000
0000
0000
,
0010
0000
0000
0000
,
0010
0000
0000
0000
,
0100
0000
0000
0000
,
0100
0000
0000
0000
,
1001
0000
0000
0000
,
0000
0000
0000
0000
,
2000
0000
0000
0000
,
0000
0000
3000
0000
,
0020
0000
0000
0000
,
0000
0000
0030
0000
,
0200
0000
0000
0000
,
0000
0000
0000
0000
,
0300
0000
0000
0000
,
0000
0000
0000
0000
,
1001
0000
0000
0000
,
0001
0000
0000
0000
,
0100
0000
0100
0000
,
0100
0000
0000
0000
,
1001
0000
0000
0000
,
1000
0000
0000
0000
,
0010
0000
0010
0000
,
0010
0000
0000
0000
,
2000
0000
0000
0000
,
0000
0000
3000
0000
,
0020
0000
0000
0000
,
0000
0000
0030
0000
,
0002
0000
0000
0000
,
0000
0000
0003
0000
,
0200
0000
0000
0000
,
0000
0000
0300
0000
,
1000
0000
0000
0000
,
0001
0000
0000
0000
,
1000
0000
0000
0000
,
0001
0000
0000
0000
,
0010
0000
0000
0000
,
0100
0000
0000
0000
,
0010
0000
0000
0000
,
0100
0000
0200
0000
,
0300
0000
0000
0000
;

//---------------dance-single - ----------------
#NOTEDATA:;
#CHARTNAME:;
#STEPSTYPE:dance-single;
#DESCRIPTION:;
#CHARTSTYLE:;
#DIFFICULTY:Hard;
#METER:12;
#RADARVALUES:0.489240,0.549480,0.213598,0.192238,0.053399,481.000000,451.000000,30.000000,27.000000,0.000000,0.000000,0.000000,0.000000,0.000000,0.489240,0.549480,0.213598,0.192238,0.053399,481.000000,451.000000,30.000000,27.000000,0.000000,0.000000,0.000000,0.000000,0.000000;
#CREDIT:led_light;
#DISPLAYBPM:146.000000;
#NOTES:
0000
0000
0000
0000
,
0000
0000
0000
0000
,
0000
0000
0000
0000
,
0000
0000
0000
0000
,
0000
0000
0000
0000
,
1001
0100
0100
1001
,
0001
0100
0001
0100
2000
0000
3100
0000
,
1001
0100
0100
1001
,
1000
0100
1000
0100
0002
0000
0103
0000
,
1001
0000
0000
1000
0000
0000
1000
0000
0000
1000
0000
0000
2000
0000
0000
0000
,
0000
3001
0100
0000
0001
0100
0010
1000
,
1001
0000
0000
0001
0000
0000
0001
0000
0000
0001
0000
0000
0002
0000
0000
0000
,
0000
1003
0100
0000
1000
0100
0010
0001
,
2001
0100
0100
0100
,
0100
0000
0100
0000
0100
0000
3100
0010
,
1002
0100
0100
0100
,
0100
0000
0100
0000
0100
0000
0103
0010
,
1001
0000
0000
0001
0000
0000
0001
0000
0000
0001
0000
0000
0002
0000
0000
0000
,
0000
1003
0100
0000
1000
0100
0010
0001
,
1001
0000
0000
1000
0000
0000
1000
0000
0000
1000
0000
0000
2000
0000
0000
0000
,
3001
0011
0000
1010
0000
1001
0010
0100
,
1001
0000
0100
0000
1001
0100
0010
0000
,
0011
0000
1100
0000
1000
0100
0010
0100
,
1000
0001
1000
0010
0100
0010
1000
0001
,
0010
0100
0100
0000
1100
1000
0010
0000
,
1001
0000
0100
0000
1001
0100
0010
0001
,
0001
0000
1100
0000
1000
0100
0010
0100
,
1000
0001
0010
0010
0001
1000
0010
0010
,
1000
0000
0000
0100
1000
0000
0100
0000
0010
0000
0001
0000
0100
0000
0010
0000
,
1000
1000
0100
0100
0001
0000
0100
0100
,
1000
1000
0100
0100
0001
0000
0100
1000
,
0001
0001
0100
0100
1000
0000
0100
0100
,
0001
0001
0100
0100
1000
0000
0100
0001
,
1000
1000
0010
0010
0001
0000
0010
0010
,
1000
1000
0010
0010
0001
0000
0010
1000
,
0001
0001
0010
0010
1000
0000
0010
0010
,
0001
0000
0000
1000
0100
0000
1000
0000
0001
0000
0100
0000
0010
0000
1000
0000
,
0002
0000
0100
0100
0000
0000
0100
0000
,
2003
0000
0100
0100
0000
0000
0100
0000
,
3002
0000
0010
0010
0000
0000
0010
0000
,
2003
0000
0010
0010
0000
0000
0010
0000
,
3002
0000
0100
0100
0000
0103
0001
1000
,
0200
0000
0010
0010
0000
0310
0100
1000
,
0020
0000
0100
0100
0000
0000
0130
0000
,
0001
0010
0100
0010
0001
0100
0010
1000
,
0001
0000
0000
0001
0000
0000
0001
0000
0000
0000
0001
0000
0010
0000
0100
0000
,
1000
0000
0000
1000
0000
0000
1000
0000
0000
0000
1000
0000
0010
0000
0100
0000
,
0001
0000
0000
0001
0000
0000
0001
0000
0000
0000
0000
0000
0010
0000
0001
0000
,
1000
0010
0000
0010
1000
0001
0010
0100
,
2000
0000
3001
0100
0010
0100
0001
1000
,
0002
0000
1003
0100
0010
0100
1000
0001
,
1001
0000
0000
0000
,
0000
0000
0000
0000
,
2000
0100
0100
0100
,
0001
0001
0010
0010
,
3002
0100
0100
0100
,
1000
1000
0010
0010
,
0203
1000
0010
0010
,
0001
0001
0010
0010
,
0300
0000
0000
0000
,
0000
0000
0000
0000
0000
0000
0010
0100
,
1001
0000
0100
0000
1001
0100
0010
0000
,
0011
0000
1100
0000
1000
0100
0010
0100
,
1000
0001
1000
0010
0100
0010
1000
0001
,
0010
0100
0100
0000
1100
1000
0010
0000
,
1001
0000
0100
0000
1001
0100
0010
0001
,
0001
0000
1100
0000
1000
0100
0010
0100
,
1000
0001
0010
0010
0001
1000
0010
0010
,
1000
0000
0000
0100
1000
0000
0100
0000
0010
0000
0001
0000
0100
0000
0010
0000
,
2000
0000
0100
0100
0000
0000
0100
0000
,
3002
0000
0100
0100
0000
0000
0100
0000
,
2003
0000
0010
0010
0000
0000
0010
0000
,
3001
0010
0100
0010
0001
0100
0010
1000
,
0002
0000
0010
0010
0000
0000
0010
0000
,
2003
0000
0010
0010
0000
0000
0010
0000
,
3002
0000
0100
0100
0000
0000
0100
0000
,
1003
0100
0010
0100
1000
0010
0100
0001
,
1000
1000
0100
0100
0001
0000
0100
0100
,
1000
1000
0100
0100
0001
0100
1000
0001
,
1000
1000
0010
0010
0001
0000
0010
0010
,
1000
1000
0001
0001
0010
0100
1000
0001
,
1000
1000
0010
0010
0001
0000
0010
0010
,
1000
1000
0010
0010
0001
0010
1000
0001
,
1000
1000
0100
0100
0001
0000
0100
0100
,
1000
0000
0000
0001
0010
0000
0001
0000
1000
0000
0010
0000
0100
0000
0001
0000
,
0020
0000
0000
0030
;

//---------------dance-single - ----------------
#NOTEDATA:;
#CHARTNAME:;
#STEPSTYPE:dance-single;
#DESCRIPTION:;
#CHARTSTYLE:;
#DIFFICULTY:Easy;
#METER:6;
#RADARVALUES:0.244112,0.366320,0.234957,0.163758,0.000000,240.000000,207.000000,33.000000,23.000000,0.000000,0.000000,0.000000,0.000000,0.000000,0.244112,0.366320,0.234957,0.163758,0.000000,240.000000,207.000000,33.000000,23.000000,0.000000,0.000000,0.000000,0.000000,0.000000;
#CREDIT:led_light;
#DISPLAYBPM:146.000000;
#NOTES:
0000
0000
0000
0000
,
0000
0000
0000
0000
,
0000
0000
0000
0000
,
0000
0000
0000
0000
,
0000
0000
0000
0000
,
1001
0000
0001
0000
,
1000
1000
1000
0000
,
1001
0000
1000
0000
,
0001
0001
0001
0000
,
1001
0000
0100
0200
,
0300
0010
0100
0000
,
1001
0000
0010
0020
,
0030
0100
0010
0000
,
1001
0000
1000
0000
,
0001
0001
0001
0000
,
1001
0000
0001
0000
,
1000
1000
1000
0000
,
1001
0000
0100
0200
,
0300
0000
0000
0000
,
1001
0000
0010
0020
,
0030
0000
0000
0100
,
1001
0000
0100
1001
,
0110
0000
1000
0001
,
1000
1000
0001
0001
,
0010
0000
0010
0100
,
1001
0000
0100
1001
,
0110
0000
0001
1000
,
0001
0001
1000
1000
,
0100
0001
0200
0300
,
1001
0010
0010
1001
,
1000
0100
0001
0100
,
0010
0010
0100
1001
,
0001
0001
1000
0001
,
1001
0010
0010
1001
,
1000
0010
0001
0010
,
0100
0100
0010
1001
,
1000
0001
2000
0000
,
3001
0000
0001
0000
,
0002
0000
0003
0000
,
1000
0000
1000
0000
,
2000
0000
3000
0000
,
0010
0000
0010
0000
,
0020
0000
0030
0000
,
0100
0000
0100
0000
,
0100
0100
0100
0000
,
0002
0000
1003
0000
,
2000
0000
3001
0000
,
0002
0000
0013
0000
,
0020
0000
0130
0000
,
0200
0000
1300
0000
,
2000
0000
3001
0000
,
1001
0000
0000
0000
,
0000
0000
0000
0000
,
0200
0000
0000
0000
,
0302
0000
0000
0000
,
0023
0000
0000
0000
,
0230
0000
0000
0000
,
2300
0000
0000
0000
,
3020
0000
0000
0000
,
0030
0000
0000
0000
,
0000
0000
0000
0100
,
1001
0000
0100
1001
,
0110
0000
1000
0001
,
1000
1000
0001
0001
,
0010
0000
0010
0100
,
1001
0000
0100
1001
,
0110
0000
0001
1000
,
0001
0001
1000
1000
,
0100
0001
0200
0000
,
1300
0000
1000
0000
,
0001
0000
0001
0000
,
1000
0000
1000
0000
,
0001
0001
0001
0001
,
0010
0000
0010
0000
,
0100
0000
0100
0000
,
0010
0000
0010
0000
,
0100
0100
0100
0100
,
1001
0100
0100
1001
,
1000
0010
0001
0010
,
0100
0100
0010
1001
,
0001
0001
1000
0001
,
1001
0100
0100
1001
,
1000
0100
0001
0100
,
0010
0010
0100
1001
,
1000
0010
0001
0100
,
2000
0000
0000
3000
;

//---------------dance-single - ----------------
#NOTEDATA:;
#CHARTNAME:;
#STEPSTYPE:dance-single;
#DESCRIPTION:;
#CHARTSTYLE:;
#DIFFICULTY:Challenge;
#METER:14;
#RADARVALUES:0.588919,0.641060,0.249197,0.149518,0.163758,579.000000,544.000000,35.000000,21.000000,108.000000,0.000000,0.000000,0.000000,0.000000,0.588919,0.641060,0.249197,0.149518,0.163758,579.000000,544.000000,35.000000,21.000000,108.000000,0.000000,0.000000,0.000000,0.000000;
#CREDIT:led_light;
#DISPLAYBPM:146.000000;
#NOTES:
// measure 0
0000
0000
0000
0000
,  // measure 1
0000
0000
0000
0000
,  // measure 2
0000
0000
0000
0000
,  // measure 3
0000
0000
0000
0000
,  // measure 4
0000
0000
0000
0000
,  // measure 5
1000
0100
1000
0100
0001
0100
0001
0100
,  // measure 6
1000
0001
1000
0001
0020
0030
MMMM
1000
,  // measure 7
0001
0100
0001
0100
1000
0100
1000
0100
,  // measure 8
0001
1000
0001
1000
0020
0000
0130
0000
,  // measure 9
0101
0000
0100
0001
0000
0100
0001
0000
1000
0100
0000
1000
0200
0000
0000
0000
,  // measure 10
0310
0001
MMMM
0000
0001
0010
0100
1000
,  // measure 11
1100
0000
0100
1000
0000
0100
1000
0000
0001
0100
0000
0001
0200
0000
0000
0000
,  // measure 12
0310
0000
1000
0000
MMMM
0000
0000
0000
0000
0100
0000
0001
0100
0000
0001
0000
,  // measure 13
1000
0010
1000
0010
0001
0010
0001
0010
,  // measure 14
1000
0001
1000
0001
0200
0300
MMMM
1000
,  // measure 15
0001
0010
0001
0010
1000
0010
1000
0010
,  // measure 16
0001
1000
0001
1000
0200
0000
0310
0000
,  // measure 17
0011
0000
0010
0001
0000
0010
0001
0000
1000
0010
0000
1000
0020
0000
0000
0000
,  // measure 18
0130
0001
MMMM
0000
0001
0100
0010
1000
,  // measure 19
1010
0000
0010
1000
0000
0010
1000
0000
0001
0010
0000
0001
0020
0000
0000
0000
,  // measure 20
0130
0110
MMMM
1001
MMMM
0110
1000
0001
,  // measure 21
1001
0000
MMMM
0000
0110
0100
0010
0000
,  // measure 22
1001
0000
MMMM
0000
0110
0001
1000
0001
,  // measure 23
0010
0100
1000
0100
0010
0001
0010
0100
,  // measure 24
1000
1000
1000
0000
1100
0100
0010
0001
,  // measure 25
1001
0000
MMMM
0000
0110
0100
0010
1000
,  // measure 26
0001
0000
MMMM
0010
0100
0001
1000
0001
,  // measure 27
0010
0100
1000
0100
0010
0001
0010
0100
,  // measure 28
1000
0000
0000
0001
0100
0000
0001
0000
1000
0100
1000
0100
0010
0001
0010
0001
,  // measure 29
1000
0100
0010
0100
MMMM
0000
0001
0100
,  // measure 30
0010
0100
0001
1000
MMMM
0000
1000
0001
,  // measure 31
0010
1000
0010
0001
MMMM
0000
0001
1000
,  // measure 32
0010
0001
0010
1000
MMMM
0000
1000
0100
,  // measure 33
0001
0001
0100
0100
MMMM
0000
0001
0100
,  // measure 34
1000
1000
0100
0100
MMMM
0000
1000
0100
,  // measure 35
0010
0010
0001
0001
MMMM
0000
0001
0100
,  // measure 36
0010
0000
0000
1000
0100
0000
1000
0000
0001
0100
0001
0100
0010
1000
0010
1000
,  // measure 37
0002
0000
0100
0100
0000
0103
0001
1000
,  // measure 38
0200
0000
0001
0001
0000
0301
0100
1000
,  // measure 39
0020
0000
0001
0001
0000
0000
0031
0010
,  // measure 40
2000
0000
0100
0100
0000
3100
0010
0001
,  // measure 41
1000
0100
0000
0100
1000
0010
0100
0001
,  // measure 42
1000
0000
0000
0001
0000
0000
0110
0000
0000
0000
1000
0000
0001
0000
1000
0000
,  // measure 43
0001
0100
0010
1000
0002
0000
0013
0100
,  // measure 44
1000
0000
0001
0000
0100
0001
0100
0000
0001
0000
1000
0000
0100
1000
0100
0000
,  // measure 45
1000
0000
0000
0001
0000
0000
1001
0000
0000
0000
0001
0000
0010
0000
0100
0000
,  // measure 46
1000
0000
0000
0010
0000
0000
1010
0000
0000
0000
1000
0000
0100
0000
0010
0000
,  // measure 47
0001
0000
0000
1000
0000
0000
1001
0000
0000
0000
0001
0000
0100
0000
0010
0000
,  // measure 48
1000
0100
0000
1100
1000
0001
0100
0010
,  // measure 49
1000
0001
0010
0010
0001
1000
0100
0100
,  // measure 50
1000
0001
0100
0100
0001
1000
0010
0010
,  // measure 51
1001
0000
0000
0000
,  // measure 52
1000
0000
0001
0000
0100
0001
0100
0000
0001
0000
1000
0000
0100
1000
0100
0000
,  // measure 53
2001
0000
0100
0000
0100
0000
3100
0010
,  // measure 54
0002
0000
0013
0200
1000
0000
1300
0000
,  // measure 55
1002
0000
0100
0000
0100
0000
0103
0010
,  // measure 56
2000
0000
3010
0100
0001
0100
0010
1000
,  // measure 57
0002
0000
0010
0000
0013
0100
0010
0000
,  // measure 58
0001
1000
0100
1000
0020
0000
0130
0010
,  // measure 59
MMMM
0000
0000
0000
,  // measure 60
0000
0000
0000
0000
0000
0000
1000
0001
,  // measure 61
1001
0000
MMMM
0000
0110
0100
0010
0000
,  // measure 62
1001
0000
MMMM
0000
0110
0001
1000
0001
,  // measure 63
0010
0100
1000
0100
0010
0001
0010
0100
,  // measure 64
1000
1000
1000
0000
1100
0100
0010
0001
,  // measure 65
1001
0000
MMMM
0000
0110
0100
0010
1000
,  // measure 66
0001
0000
MMMM
0010
0100
0001
1000
0001
,  // measure 67
0010
0100
1000
0100
0010
0001
0010
0100
,  // measure 68
1000
0000
0000
0001
0100
0000
0001
0000
1000
0100
1000
0100
0010
0001
0010
0001
,  // measure 69
1000
0000
1100
1000
0001
1000
0010
0100
,  // measure 70
0001
0000
0101
0001
1000
0001
0010
0100
,  // measure 71
1000
0000
1100
1000
0001
1000
0010
0100
,  // measure 72
0001
0001
0010
0010
1000
1000
0100
0100
,  // measure 73
0001
0000
0011
0001
1000
0001
0100
0010
,  // measure 74
1000
0000
1010
1000
0001
1000
0100
0010
,  // measure 75
0001
0000
0011
0001
1000
0001
0100
0010
,  // measure 76
1000
1000
0100
0100
0001
0001
0010
0010
,  // measure 77
1000
0100
0001
0100
1000
MMMM
0010
0001
,  // measure 78
1000
1000
0100
0100
0001
0100
1000
0001
,  // measure 79
1000
0010
0001
0010
1000
MMMM
0100
0001
,  // measure 80
0010
0010
1000
1000
0010
0001
1000
0001
,  // measure 81
1000
0010
0001
0010
1000
MMMM
0100
0001
,  // measure 82
1000
1000
0010
0010
0001
0010
1000
0001
,  // measure 83
1000
0100
0001
0100
1000
MMMM
0010
0001
,  // measure 84
0100
0000
0000
0010
1000
0000
0001
0000
0010
0100
0010
0100
1000
0001
1000
0001
,  // measure 85
0020
0000
0000
0030
;

//---------------dance-single - ----------------
#NOTEDATA:;
#CHARTNAME:;
#STEPSTYPE:dance-single;
#DESCRIPTION:;
#CHARTSTYLE:;
#DIFFICULTY:Medium;
#METER:9;
#RADARVALUES:0.387527,0.488427,0.185118,0.213598,0.039160,381.000000,355.000000,26.000000,30.000000,0.000000,0.000000,0.000000,0.000000,0.000000,0.387527,0.488427,0.185118,0.213598,0.039160,381.000000,355.000000,26.000000,30.000000,0.000000,0.000000,0.000000,0.000000,0.000000;
#CREDIT:led_light;
#DISPLAYBPM:146.000000;
#NOTES:
0000
0000
0000
0000
,
0000
0000
0000
0000
,
0000
0000
0000
0000
,
0000
0000
0000
0000
,
0000
0000
0000
0000
,
1001
0100
0100
0010
,
1000
0100
1000
0000
0002
0000
0103
0000
,
1001
0100
0100
0010
,
0001
0100
0001
0000
2000
0000
3100
0000
,
1000
0000
0000
1000
0000
0000
0001
0000
0000
0001
0000
0000
2000
0000
0000
0000
,
0000
3100
0000
0000
0000
1000
0100
1000
,
0001
0000
0000
0001
0000
0000
1000
0000
0000
1000
0000
0000
0002
0000
0000
0000
,
0000
0103
0000
0000
0001
0100
0001
0000
,
1001
0100
0100
0010
,
0001
0100
0001
0000
2000
0000
3100
0000
,
1001
0100
0100
0010
,
1000
0100
1000
0000
0002
0000
0103
0000
,
0001
0000
0000
0001
0000
0000
1000
0000
0000
1000
0000
0000
0002
0000
0000
0000
,
0000
0103
0000
0000
0000
0001
0100
0001
,
1000
0000
0000
1000
0000
0000
0001
0000
0000
0001
0000
0000
2000
0000
0000
0000
,
3100
0010
0000
1001
0000
0010
0100
0000
,
1001
0000
0000
0000
1000
0100
0010
0000
,
0110
0000
0000
0000
0001
0100
0010
0000
,
1000
0100
1000
0000
0001
0100
0001
0000
,
0010
0010
0010
0000
0100
1000
0001
0000
,
1001
0000
0000
0000
0001
0100
0010
0000
,
0110
0000
0000
0000
1000
0100
0010
0000
,
0001
0100
0001
0000
1000
0100
1000
0000
,
0010
0000
0100
0000
0001
1000
0001
1000
,
0001
0010
0001
0010
0000
0000
0110
0000
,
1000
0100
1000
0100
0000
0000
0110
0000
,
0001
0100
0001
0100
0000
0000
0110
0000
,
1000
0010
1000
0010
0000
0000
0110
0000
,
0001
1000
0100
0010
0000
0000
1100
0000
,
1000
0001
0100
0010
0000
0000
0101
0000
,
0001
1000
0100
0010
0000
0000
1100
0000
,
1000
0000
0010
0000
0100
0001
0100
0001
,
0020
0100
0000
0100
,
0032
0100
0000
0100
,
2003
0100
0000
0100
,
3020
0100
0000
0100
,
2030
0000
0100
0000
0000
0000
3100
1000
,
0002
0000
0010
0000
0000
0000
0013
0001
,
0200
0010
0000
0310
,
1000
0010
0100
0000
0001
0010
0100
0000
,
1000
0000
0000
1000
0000
0000
1000
0000
0000
0000
0001
0000
1000
0000
0000
0000
,
0001
0000
0000
0001
0000
0000
0001
0000
0000
0000
0000
0000
1000
0000
0000
0000
,
0010
0000
0000
0010
0000
0000
0010
0000
0000
0000
0000
0000
0100
0000
0000
0000
,
0001
0100
0000
0100
0001
1000
0100
0000
,
1000
0000
0100
0000
0001
0100
1000
0000
,
0001
0000
0100
0000
1000
0100
0001
0000
,
1001
0000
0000
0000
,
0000
0000
0000
0000
,
1000
1000
0100
0100
,
0001
0001
0010
0010
,
1000
1000
0010
0010
,
0001
0001
0100
0100
,
2000
3200
0320
0032
,
0203
0320
2030
0002
,
3003
0000
0000
0000
,
0000
0000
0000
0100
,
1001
0000
0000
0000
1000
0100
0010
0000
,
0110
0000
0000
0000
0001
0100
0010
0000
,
1000
0100
1000
0000
0001
0100
0001
0000
,
0010
0010
0010
0000
0100
1000
0001
0000
,
1001
0000
0000
0000
0001
0100
0010
0000
,
0110
0000
0000
0000
1000
0100
0010
0000
,
0001
0100
0001
0000
1000
0100
1000
0000
,
0010
0000
0100
0000
0001
1000
0001
1000
,
0002
0100
0000
0100
,
2003
0100
0000
0100
,
3002
0100
0000
0100
,
1003
0100
1000
0000
0001
0010
0001
0000
,
2000
0010
0000
0010
,
3002
0010
0000
0010
,
2003
0010
0000
0010
,
3001
0010
0001
0000
1000
0100
1000
0000
,
0001
0000
0010
0001
0010
0000
0110
0000
,
1000
0100
1000
0000
0100
0010
0010
0000
,
0001
0100
0001
0000
0100
0000
0110
0000
,
1000
0010
1000
0000
0010
0100
0100
0000
,
0001
1000
0100
0010
0001
0000
1100
0000
,
1000
0001
0100
0010
1000
0000
0101
0000
,
0001
1000
0100
0010
0001
0000
1100
0000
,
1000
0000
0010
0000
0100
0001
0100
0001
,
0020
0000
0000
0030
;

//---------------dance-double - ----------------
#NOTEDATA:;
#CHARTNAME:;
#STEPSTYPE:dance-double;
#DESCRIPTION:;
#CHARTSTYLE:;
#DIFFICULTY:Easy;
#METER:6;
#RADARVALUES:0.244112,0.366320,0.234957,0.163758,0.000000,240.000000,207.000000,33.000000,23.000000,0.000000,0.000000,0.000000,0.000000,0.000000,0.244112,0.366320,0.234957,0.163758,0.000000,240.000000,207.000000,33.000000,23.000000,0.000000,0.000000,0.000000,0.000000,0.000000;
#CREDIT:led_light;
#DISPLAYBPM:146.000000;
#NOTES:
00000000
00000000
00000000
00000000
,
00000000
00000000
00000000
00000000
,
00000000
00000000
00000000
00000000
,
00000000
00000000
00000000
00000000
,
00000000
00000000
00000000
00000000
,
00011000
00000000
00000010
00000000
,
00000100
00000100
00001000
00000000
,
00011000
00000000
00100000
00000000
,
01000000
01000000
00010000
00000000
,
00011000
00000000
00000010
00000200
,
00000300
00000100
00000010
00000000
,
00011000
00000000
00100000
02000000
,
03000000
01000000
00100000
00000000
,
00011000
00000000
00000100
00000000
,
00001000
00000010
00010000
00000000
,
00011000
00000000
00100000
00000000
,
00010000
01000000
00001000
00000000
,
00011000
00000000
00000100
00000200
,
00000300
00000000
00000000
00000000
,
00011000
00000000
01000000
02000000
,
03000000
00000000
00000000
00100000
,
10010000
00000000
10000000
11000000
,
00110000
00000000
00001000
00010000
,
00000010
00000010
00001000
00001000
,
00000100
00000000
00000010
00000001
,
00001001
00000000
00000001
00000101
,
00001010
00000000
00010000
00001000
,
00100000
00100000
01000000
01000000
,
10000000
00100000
00020000
00030000
,
00011000
00000100
00000100
00001010
,
00000100
00000100
00001000
00010000
,
01000000
01000000
00100000
10010000
,
10000000
10000000
00100000
00010000
,
01100000
00010000
00001000
00011000
,
00000100
00000100
00001000
00000010
,
00000001
00000001
00001000
00000110
,
00000001
00000010
00002000
00000000
,
00013000
00000000
00010000
00000000
,
00020000
00000000
00030000
00000000
,
00001000
00000000
00001000
00000000
,
00002000
00000000
00003000
00000000
,
00100000
00000000
00100000
00000000
,
00200000
00000000
00300000
00000000
,
00000010
00000000
00000010
00000000
,
00000010
00000010
00000010
00000000
,
00000200
00000000
00001300
00000000
,
00200000
00000000
00310000
00000000
,
00000020
00000000
00001030
00000000
,
02000000
00000000
03010000
00000000
,
00200000
00000000
01300000
00000000
,
00000020
00000000
00000130
00000000
,
00001001
00000000
00000000
00000000
,
00000000
00000000
00000000
00000000
,
00000002
00000000
00000000
00000000
,
00000203
00000000
00000000
00000000
,
00002300
00000000
00000000
00000000
,
00023000
00000000
00000000
00000000
,
02030000
00000000
00000000
00000000
,
23000000
00000000
00000000
00000000
,
30000000
00000000
00000000
00000000
,
00000000
00000000
00000000
00100000
,
10010000
00000000
10000000
11000000
,
00110000
00000000
00001000
00010000
,
00000010
00000010
00001000
00001000
,
00000100
00000000
00000010
00000001
,
00001001
00000000
00000001
00000101
,
00001010
00000000
00010000
00001000
,
00100000
00100000
01000000
01000000
,
10000000
00100000
00020000
00000000
,
00031000
00000000
00001000
00000000
,
00010000
00000000
00010000
00000000
,
00000100
00000000
00000100
00000000
,
00000010
00001000
00000010
00001000
,
00010000
00000000
00010000
00000000
,
00001000
00000000
00001000
00000000
,
01000000
00000000
01000000
00000000
,
00100000
00010000
00100000
00010000
,
00011000
00100000
00100000
01010000
,
00100000
00100000
00010000
00001000
,
00000010
00000010
00000100
00001001
,
00000001
00000001
00000100
00001000
,
00000110
00001000
00010000
00011000
,
00100000
00100000
00010000
01000000
,
10000000
10000000
00010000
01100000
,
10000000
01000000
00010000
00001000
,
00000200
00000000
00000000
00000300
;

//---------------dance-double - ----------------
#NOTEDATA:;
#CHARTNAME:;
#STEPSTYPE:dance-double;
#DESCRIPTION:;
#CHARTSTYLE:;
#DIFFICULTY:Medium;
#METER:9;
#RADARVALUES:0.385493,0.488427,0.185118,0.170878,0.039160,379.000000,353.000000,26.000000,24.000000,0.000000,0.000000,0.000000,0.000000,0.000000,0.385493,0.488427,0.185118,0.170878,0.039160,379.000000,353.000000,26.000000,24.000000,0.000000,0.000000,0.000000,0.000000,0.000000;
#CREDIT:led_light;
#DISPLAYBPM:146.000000;
#NOTES:
00000000
00000000
00000000
00000000
,
00000000
00000000
00000000
00000000
,
00000000
00000000
00000000
00000000
,
00000000
00000000
00000000
00000000
,
00000000
00000000
00000000
00000000
,
00110000
00001000
00001000
00010000
,
00000010
00001000
00000010
00000000
00000001
00000000
00000001
00000000
,
00001010
00010000
00010000
00001000
,
00100000
00010000
00100000
00000000
10000000
00000000
10000000
00000000
,
00010000
00000000
00000000
01000000
00000000
00000000
10000000
00000000
00000000
00100000
00000000
00000000
00020000
00000000
00000000
00000000
,
00000000
00130000
00000000
00000000
00000000
01000000
00001000
00010000
,
00001000
00000000
00000000
00000010
00000000
00000000
00000001
00000000
00000000
00000100
00000000
00000000
00002000
00000000
00000000
00000000
,
00000000
00003100
00000000
00000000
00000010
00010000
00001000
00000000
,
00001100
00010000
00010000
00001000
,
01000000
00010000
01000000
00000000
10000000
00000000
10000000
00000000
,
01010000
00001000
00001000
00010000
,
00000100
00001000
00000100
00000000
00000001
00000000
00000001
00000000
,
00001000
00000000
00000000
00000010
00000000
00000000
00000001
00000000
00000000
00000100
00000000
00000000
00002000
00000000
00000000
00000000
,
00000000
00003100
00000000
00000000
00000000
00000010
00010000
00001000
,
00010000
00000000
00000000
01000000
00000000
00000000
10000000
00000000
00000000
00100000
00000000
00000000
00020000
00000000
00000000
00000000
,
00130000
01000000
00000000
10010000
00000000
01000000
00100000
00000000
,
10010000
00000000
00000000
00000000
00100000
00010000
00001000
00000000
,
00001010
00000000
00000000
00000000
00000001
00000010
00000100
00000000
,
00010000
00001000
00010000
00000000
00100000
01000000
00010000
00000000
,
00100000
00100000
00100000
00000000
01000000
10000000
00010000
00000000
,
10010000
00000000
00000000
00000000
01000000
00010000
00001000
00000000
,
00001100
00000000
00000000
00000000
00000001
00000100
00000010
00000000
,
00010000
00001000
00010000
00000000
01000000
00100000
00010000
00000000
,
01000000
00000000
00100000
00000000
10000000
01000000
10000000
01000000
,
00010000
00001000
00010000
00001000
00000000
00000000
00001010
00000000
,
00000001
00000100
00000001
00000100
00000000
00000000
00001100
00000000
,
00001000
00010000
00001000
00010000
00000000
00000000
01010000
00000000
,
10000000
00100000
10000000
00100000
00000000
00000000
00110000
00000000
,
00001000
00010000
00000100
00001000
00000000
00000000
00000101
00000000
,
00000010
00001000
00000100
00000010
00000000
00000000
00001100
00000000
,
00010000
00001000
00100000
00010000
00000000
00000000
10100000
00000000
,
01000000
00000000
00010000
00000000
00100000
01000000
00100000
01000000
,
00020000
00000100
00000000
00000100
,
00032000
00000100
00000000
00000100
,
00023000
01000000
00000000
01000000
,
00032000
01000000
00000000
01000000
,
00023000
00000000
01000000
00000000
00000000
00000000
01030000
00100000
,
00002000
00000000
00010000
00000000
00000000
00000000
00013000
00000010
,
00002000
00000100
00000000
00003100
,
00010000
00001000
00100000
00000000
00001000
00010000
00000010
00000000
,
00001000
00000000
00000000
00001000
00000000
00000000
00001000
00000000
00000000
00000000
00000100
00000000
00000010
00000000
00000000
00000000
,
00000001
00000000
00000000
00000001
00000000
00000000
00000001
00000000
00000000
00000000
00000000
00000000
00001000
00000000
00000000
00000000
,
00010000
00000000
00000000
00010000
00000000
00000000
00010000
00000000
00000000
00000000
00000000
00000000
00100000
00000000
00000000
00000000
,
01000000
10000000
00000000
10000000
01000000
00100000
00010000
00000000
,
10000000
00000000
00100000
00000000
00010000
00001000
00000010
00000000
,
00000001
00000000
00000100
00000000
00001000
00010000
01000000
00000000
,
10010000
00000000
00000000
00000000
,
00000000
00000000
00000000
00000000
,
10000000
10000000
00100000
00100000
,
00010000
00010000
00001000
00001000
,
00010000
00010000
01000000
01000000
,
10000000
10000000
00010000
00010000
,
20000000
30200000
00320000
00032000
,
00023000
02030000
23000000
00020000
,
30030000
00000000
00000000
00000000
,
00000000
00000000
00000000
01000000
,
10010000
00000000
00000000
00000000
01000000
00010000
00001000
00000000
,
00001100
00000000
00000000
00000000
00000001
00000100
00000010
00000000
,
00010000
00001000
00010000
00000000
01000000
00100000
00010000
00000000
,
01000000
01000000
01000000
00000000
00100000
10000000
00010000
00000000
,
10010000
00000000
00000000
00000000
00100000
00010000
00001000
00000000
,
00001010
00000000
00000000
00000000
00000001
00000010
00000100
00000000
,
00010000
00001000
00010000
00000000
00100000
01000000
00010000
00000000
,
00100000
00000000
01000000
00000000
10000000
00100000
10000000
00100000
,
00020000
00001000
00000000
00000100
,
00000000
00001000
00000000
00000010
,
00032000
00010000
00000000
00100000
,
00013000
01000000
00010000
00000000
00001000
00000100
00001000
00000000
,
00020000
00001000
00000000
00000010
,
00000000
00001000
00000000
00000100
,
00032000
00010000
00000000
01000000
,
00013000
00100000
00010000
00000000
00001000
00000010
00001000
00000000
,
00010000
00000000
00001000
00010000
00001000
00000000
00001010
00000000
,
00000001
00000100
00000001
00000000
00000010
00000100
00001000
00000000
,
00000100
00010000
00001000
00000000
00010000
00000000
01010000
00000000
,
10000000
00100000
10000000
00000000
01000000
00010000
00010000
00000000
,
00001000
00010000
00000100
00001000
00000010
00000000
00000101
00000000
,
00000010
00001000
00000100
00000010
00000001
00000000
00001100
00000000
,
00010000
00001000
00100000
00010000
01000000
00000000
10100000
00000000
,
01000000
00000000
00010000
00000000
00100000
01000000
00010000
00001000
,
00000200
00000000
00000000
00000300
;

//---------------dance-double - ----------------
#NOTEDATA:;
#CHARTNAME:;
#STEPSTYPE:dance-double;
#DESCRIPTION:;
#CHARTSTYLE:;
#DIFFICULTY:Challenge;
#METER:14;
#RADARVALUES:0.603159,0.641060,0.242077,0.149518,0.163758,593.000000,559.000000,34.000000,21.000000,160.000000,0.000000,0.000000,0.000000,0.000000,0.603159,0.641060,0.242077,0.149518,0.163758,593.000000,559.000000,34.000000,21.000000,160.000000,0.000000,0.000000,0.000000,0.000000;
#CREDIT:led_light;
#DISPLAYBPM:146.000000;
#NOTES:
00000000
00000000
00000000
00000000
,
00000000
00000000
00000000
00000000
,
00000000
00000000
00000000
00000000
,
00000000
00000000
00000000
00000000
,
00000000
00000000
00000000
00000000
,
10000000
01000000
10000000
01000000
00010000
01000000
00010000
01000000
,
00010000
00001000
00000100
00000001
00000020
00000030
MMMMMMMM
00001000
,
00000001
00000010
00000001
00000010
00001000
00000010
00001000
00000010
,
00001000
00010000
00100000
10000000
02000000
00000000
03100000
00000000
,
00110000
00000000
00010000
00100000
00000000
00001000
00010000
00000000
00000100
00001000
00000000
00000001
00000200
00000000
00000000
00000000
,
00000310
0001MMMM
00001000
00000000
00000010
00000001
00001000
00000100
,
00001100
00000000
00001000
00000100
00000000
00010000
00001000
00000000
00100000
00010000
00000000
10000000
00200000
00000000
00000000
00000000
,
01300000
00000000
MMMM1000
00000000
00010000
00000000
00000000
00000000
00001000
00100000
00000000
00010000
00100000
00000000
01000000
00000000
,
10000000
00100000
10000000
00100000
00010000
00100000
00010000
00100000
,
00010000
00001000
00000010
00000001
00000200
00000300
MMMMMMMM
00001000
,
00000001
00000100
00000001
00000100
00001000
00000100
00001000
00000100
,
00001000
00010000
01000000
10000000
00200000
00000000
01300000
00000000
,
01010000
00000000
00010000
01000000
00000000
00001000
00010000
00000000
00000010
00001000
00000000
00000001
00000020
00000000
00000000
00000000
,
00000130
0001MMMM
00001000
00000000
00000100
00000001
00001000
00000010
,
00001010
00000000
00001000
00000010
00000000
00010000
00001000
00000000
01000000
00010000
00000000
10000000
02000000
00000000
00000000
00000000
,
03100000
00110000
MMMMMMMM
00011000
MMMMMMMM
00001010
00000100
00000010
,
00001001
00000000
MMMMMMMM
00000000
00000110
00001000
00010000
00000000
,
01100000
00000000
MMMMMMMM
00000000
01100000
00010000
00100000
01000000
,
10000000
01000000
00100000
00010000
00001000
00010000
00100000
01000000
,
10000000
00010000
00010000
00000000
00110000
01000000
10000000
00010000
,
10010000
00000000
MMMMMMMM
00000000
01100000
00010000
00100000
00001000
,
00010000
00000000
MMMMMMMM
00000100
00000010
00001000
00000100
00000010
,
00000001
00000010
00000100
00001000
00010000
00001000
00000100
00000010
,
00000001
00000000
00000000
00001000
00000100
00000000
00010000
00000000
00001000
00010000
00001000
00010000
00100000
10000000
01000000
00100000
,
00010000
00100000
01000000
00010000
MMMM1000
00000000
00000010
00000100
,
00001000
00000010
00000100
00001000
0001MMMM
00000000
01000000
00100000
,
00010000
01000000
00100000
00010000
MMMM1000
00000000
00000100
00000010
,
00001000
00000100
00000010
00001000
0001MMMM
00000000
01000000
10000000
,
00010000
00100000
01000000
00100000
MMMM1000
00000000
00000010
00000001
,
00001000
00000100
00000010
00000100
0001MMMM
00000000
01000000
10000000
,
00010000
01000000
00100000
01000000
MMMM1000
00000000
00000100
00000001
,
00001000
00000000
00000000
00000100
00000010
00000000
00000100
00000000
00010000
00001000
00010000
00001000
00100000
00010000
01000000
00100000
,
20000000
00000000
01000000
01000000
00000000
31000000
00010000
01000000
,
00200000
00000000
00001000
00001000
00000000
00301000
00010000
00000010
,
00002000
00000000
00000100
00000100
00000000
00000000
00003100
00000010
,
00000002
00000000
00001000
00001000
00000000
00001003
00000001
00000100
,
00000010
00001000
00000000
00001000
00000100
00000001
00000100
00001000
,
00000010
00000000
00000000
00000100
00000000
00000000
00000101
00000000
00000000
00000000
00000001
00000000
00001000
00000000
00000100
00000000
,
00010000
00001000
00100000
00001000
00020000
00000000
00030100
00001000
,
00000010
00000000
00010000
00000000
00001000
00010000
00001000
00000000
00100000
00000000
00001000
00000000
00010000
00001000
00010000
00000000
,
00000010
00000000
00000000
00001000
00000000
00000000
00000101
00000000
00000000
00000000
00000001
00000000
00000010
00000000
00000100
00000000
,
00001000
00000000
00000000
00000100
00000000
00000000
00011000
00000000
00000000
00000000
00100000
00000000
00010000
00000000
01000000
00000000
,
00100000
00000000
00000000
10000000
00000000
00000000
01010000
00000000
00000000
00000000
00010000
00000000
00100000
00000000
01000000
00000000
,
10000000
00010000
00000000
00010000
10000000
00100000
01000000
00010000
,
10000000
01000000
00010000
00010000
10000000
00100000
00010000
00010000
,
00001000
00000100
00000001
00000001
00001000
00000010
00000001
00000001
,
00001001
00000000
00000000
00000000
,
00000100
00000000
00010000
00000000
00001000
00010000
00001000
00000000
01000000
00000000
00001000
00000000
00010000
00001000
00010000
00000000
,
00012000
00000000
00010000
00000000
00010000
00000000
00013000
01000000
,
20000000
00000000
31000000
00200000
00010000
00000000
00310000
00000000
,
00021000
00000000
00001000
00000000
00001000
00000000
00031000
00000010
,
00000002
00000000
00000013
00000100
00001000
00000100
00000010
00000001
,
00002000
00000000
00000100
00000000
00003100
00010000
00001000
00000000
,
00100000
00010000
01000000
00100000
20000000
00000000
31000000
00010000
,
MMMMMMMM
00000000
00000000
00000000
,
00000000
00000000
00000000
00000000
00000000
00000000
00000100
00000010
,
00001001
00000000
MMMMMMMM
00000000
00000110
00001000
00010000
00000000
,
01100000
00000000
MMMMMMMM
00000000
01100000
00010000
00100000
01000000
,
10000000
01000000
00100000
00010000
00001000
00010000
00100000
01000000
,
10000000
00010000
00010000
00000000
00110000
01000000
10000000
00010000
,
10010000
00000000
MMMMMMMM
00000000
01100000
00010000
00100000
00001000
,
00010000
00000000
MMMMMMMM
00000100
00000010
00001000
00000100
00000010
,
00000001
00000010
00000100
00001000
00010000
00001000
00000100
00000010
,
00000001
00000000
00000000
00001000
00000100
00000000
00010000
00000000
00001000
00010000
00001000
00010000
00100000
10000000
01000000
00100000
,
00010000
00000000
00011000
00001000
00100000
00010000
01000000
00001000
,
00010000
00000000
00011000
00001000
00000100
00000010
00001000
00000001
,
00000010
00000000
00000110
00000010
00000001
00000100
00000010
00001000
,
00010000
00010000
00100000
00100000
01000000
01000000
10000000
10000000
,
00010000
00000000
00011000
00001000
01000000
00010000
00100000
00001000
,
00010000
00000000
00011000
00001000
00000010
00000100
00001000
00000001
,
00000100
00000000
00000110
00000100
00000001
00000010
00000100
00001000
,
00010000
00010000
01000000
01000000
00100000
00100000
10000000
10000000
,
00010000
00100000
10000000
00100000
00010000
MMMM1000
00010000
00100000
,
01000000
01000000
10000000
10000000
00010000
10000000
00100000
00010000
,
00001000
00000010
00000001
00000010
00001000
0001MMMM
00001000
00000010
,
00000001
00000001
00001000
00001000
00000010
00000001
00000010
00001000
,
00010000
01000000
10000000
01000000
00010000
MMMM1000
00010000
01000000
,
00100000
00100000
10000000
10000000
00010000
10000000
01000000
00010000
,
00001000
00000100
00000001
00000100
00001000
0001MMMM
00001000
00000010
,
00000001
00000000
00000000
00000100
00000010
00000000
00001000
00000000
00000100
00001000
00000100
00001000
00010000
00100000
00010000
00100000
,
00002000
00000000
00000000
00003000
;

//---------------dance-double - ----------------
#NOTEDATA:;
#CHARTNAME:;
#STEPSTYPE:dance-double;
#DESCRIPTION:;
#CHARTSTYLE:;
#DIFFICULTY:Hard;
#METER:12;
#RADARVALUES:0.498394,0.549480,0.220718,0.163758,0.056959,490.000000,459.000000,31.000000,23.000000,0.000000,0.000000,0.000000,0.000000,0.000000,0.498394,0.549480,0.220718,0.163758,0.056959,490.000000,459.000000,31.000000,23.000000,0.000000,0.000000,0.000000,0.000000,0.000000;
#CREDIT:led_light;
#DISPLAYBPM:146.000000;
#NOTES:
00000000
00000000
00000000
00000000
,
00000000
00000000
00000000
00000000
,
00000000
00000000
00000000
00000000
,
00000000
00000000
00000000
00000000
,
00000000
00000000
00000000
00000000
,
00101000
00010000
00010000
00001010
,
00000001
00000010
00000001
00000010
00000200
00000000
00001300
00000000
,
00010100
00001000
00001000
01010000
,
10000000
01000000
10000000
01000000
00200000
00000000
00310000
00000000
,
10010000
00000000
00000000
10000000
00000000
00000000
00010000
00000000
00000000
00010000
00000000
00000000
00002000
00000000
00000000
00000000
,
00000000
00003001
00000001
00000000
00000001
00000100
00000010
00001000
,
00001001
00000000
00000000
00000001
00000000
00000000
00001000
00000000
00000000
00001000
00000000
00000000
00020000
00000000
00000000
00000000
,
00000000
10030000
10000000
00000000
10000000
01000000
00100000
00010000
,
10010000
00010000
00010000
00010000
,
00001000
00000000
00001000
00000000
00000010
00000000
00000010
00000100
,
00001001
00001000
00001000
00001000
,
00010000
00000000
00010000
00000000
00100000
00000000
00100000
01000000
,
10010000
00000000
00000000
10000000
00000000
00000000
00010000
00000000
00000000
00010000
00000000
00000000
00002000
00000000
00000000
00000000
,
00000000
00003001
00000001
00000000
00000001
00000100
00000010
00001000
,
00001001
00000000
00000000
00000001
00000000
00000000
00001000
00000000
00000000
00001000
00000000
00000000
00020000
00000000
00000000
00000000
,
10030000
11000000
00000000
00110000
00000000
00011000
00010000
00000010
,
00001010
00000000
00000100
00000000
00001001
00000100
00000010
00000000
,
00000011
00000000
00001100
00000000
00010000
00001000
00010000
00000010
,
00000100
00001000
00010000
00001000
00010000
01000000
00100000
00010000
,
10000000
00100000
00100000
00000000
01010000
00010000
10000000
00000000
,
11000000
00000000
00100000
00000000
10010000
00100000
01000000
00010000
,
00001000
00000000
00011000
00000000
00000010
00001000
00000100
00000010
,
00000100
00001000
00000010
00000010
00000100
00001000
00010000
00010000
,
00001000
00000000
00000000
00010000
01000000
00000000
10000000
00000000
01000000
00000000
00100000
00000000
00010000
00000000
00001000
00000000
,
00010000
00010000
10000000
10000000
00100000
00000000
00010000
00010000
,
00001000
00001000
00000010
00000010
00000001
00000000
00000100
00001000
,
00010000
00010000
01000000
01000000
10000000
00000000
00010000
00010000
,
10000000
10000000
00100000
00100000
00010000
00000000
00100000
10000000
,
00010000
00010000
00001000
00001000
00000001
00000000
00000001
00000001
,
00001000
00001000
00010000
00010000
10000000
00000000
01000000
00100000
,
00010000
00010000
00001000
00001000
00000010
00000000
00000100
00000100
,
00000001
00000000
00000000
00000010
00000100
00000000
00000010
00000000
00000001
00000000
00000100
00000000
00000010
00000000
00001000
00000000
,
00000002
00000000
00000100
00000100
00000000
00000000
00000103
00000001
,
00000020
00000000
00000100
00000100
00000000
00000000
00000130
00000010
,
00002000
00000000
00010000
00010000
00000000
00000000
00013000
01000000
,
00200000
00000000
00010000
00010000
00000000
00000000
00310000
00100000
,
00001000
00010000
00000000
00010000
00100000
01000000
10000000
01000000
,
00100000
00000000
00000000
00010000
00000000
00000000
00011000
00000000
00000000
00000000
00001000
00000000
00010000
00000000
00001000
00000000
,
00100000
01000000
00010000
01000000
00200000
00000000
00310000
10000000
,
00010000
01000000
00100000
00010000
00001000
00000010
00000100
00001000
,
00000001
00000000
00000000
00000001
00000000
00000000
00000001
00000000
00000000
00000000
00000100
00000000
00000010
00000000
00010000
00000000
,
00001000
00000000
00000000
00001000
00000000
00000000
00001000
00000000
00010000
00000000
00000000
00000000
00001000
00000000
00010000
00000000
,
00001000
00000000
00000000
00001000
00000000
00000000
00001000
00000000
00100000
00000000
00000000
00000000
01000000
00000000
00100000
00000000
,
01000000
10000000
00000000
10000000
00010000
01000000
00100000
10000000
,
00020000
00000000
00130000
01000000
00100000
00010000
01000000
00001000
,
00020000
00000000
00030100
00000010
00000001
00000100
00000010
00010000
,
00011000
00000000
00000000
00000000
,
00000000
00000000
00000000
00000000
,
00002000
00000100
00000100
00000100
,
00000001
00000001
00000010
00000010
,
00023000
01000000
01000000
01000000
,
10000000
10000000
00100000
00100000
,
00032000
00000100
00000001
00000001
,
00000010
00000010
00010000
00010000
,
00003000
00000000
00000000
00000000
,
00000000
00000000
00000000
00000000
00000000
00000000
00010000
00000010
,
00001010
00000000
00000100
00000000
00001001
00000100
00000010
00000000
,
00000011
00000000
00001100
00000000
00010000
00001000
00010000
00000010
,
00000100
00001000
00010000
00001000
00010000
01000000
00100000
00010000
,
10000000
00100000
00100000
00000000
01010000
00010000
10000000
00000000
,
11000000
00000000
00100000
00000000
10010000
00100000
01000000
00010000
,
00001000
00000000
00011000
00000000
00000010
00001000
00000100
00000010
,
00000100
00001000
00000010
00000010
00000100
00001000
00010000
00010000
,
00001000
00000000
00000000
00010000
01000000
00000000
10000000
00000000
01000000
00000000
00100000
00000000
00010000
00000000
00001000
00000000
,
00000200
00000000
00000010
00000010
00000000
00000000
00000010
00000000
,
00002300
00000000
00000010
00000010
00000000
00000000
00000010
00000000
,
00003002
00000000
00000100
00000100
00000000
00000000
00000100
00000000
,
00001003
00000100
00000010
00000100
00010000
00001000
00010000
00100000
,
02000000
00000000
00100000
00100000
00000000
00000000
00100000
00000000
,
03020000
00000000
00100000
00100000
00000000
00000000
00100000
00000000
,
20030000
00000000
01000000
01000000
00000000
00000000
01000000
00000000
,
30010000
01000000
00100000
01000000
00001000
00010000
00001000
00000010
,
00000001
00000100
00000010
00001000
00000001
00000000
00000010
00000010
,
00000100
00000100
00001000
00001000
00010000
00100000
01000000
00100000
,
00010000
01000000
00100000
10000000
00010000
00000000
00100000
00100000
,
01000000
01000000
10000000
10000000
00100000
00010000
00100000
10000000
,
00010000
00010000
00001000
00001000
00000001
00000000
00000001
00000001
,
00001000
00001000
00010000
00010000
10000000
00000000
01000000
00100000
,
00010000
00010000
00001000
00001000
00000010
00000000
00000100
00000100
,
00000001
00000000
00000000
00000010
00000100
00000000
00000010
00000000
00000001
00000000
00000100
00000000
00001000
00000000
00010000
00000000
,
02000000
00000000
00000000
03000000
;
