#TITLE:Dream of You;
#SUBTITLE:(with R3HAB);
#ARTIST:CHUNG HA;
#TITLETRANSLIT:;
#SUBTITLETRANSLIT:;
#ARTISTTRANSLIT:;
#GENRE:K-Pop;
#CREDIT:;
#BANNER:Dream of You (with R3HAB).png;
#BACKGROUND:Dream of You (with R3HAB)-bg.png;
#LYRICSPATH:;
#CDTITLE:../cdtitle.png;
#MUSIC:Dream of You (with R3HAB).ogg;
#OFFSET:1.635000;
#SAMPLESTART:49.645000;
#SAMPLELENGTH:15.000000;
#LASTBEATHINT:1.238250;
#SELECTABLE:YES;
#BPMS:0.000000=117.000000
;
#STOPS:
;
#BGCHANGES:0.875=Dream of You (with R3HAB).avi=1.000=0=0=0=StretchNoLoop====,
99999=-nosongbg-=1.000=0=0=0 // don't automatically add -songbackground-
;
#KEYSOUNDS:;
#ATTACKS:;

//---------------dance-single - ----------------
#NOTES:
     dance-single:
     :
     Beginner:
     1:
     0.047577,0.095154,0.011894,0.047577,0.000000,28.000000,27.000000,1.000000,4.000000,0.000000,0.000000,0.047577,0.095154,0.011894,0.047577,0.000000,28.000000,27.000000,1.000000,4.000000,0.000000,0.000000:
0000
0000
0000
0000
,
0000
0000
0000
0000
,
0000
0000
0000
0000
,
0000
0000
0000
0000
,
0000
0000
0000
0000
,
0001
0000
0000
0000
,
0000
0000
0000
0000
,
1000
0000
0000
0000
,
0000
0000
0000
0000
,
1000
0000
0000
0000
,
0000
0000
0000
0000
,
0001
0000
0000
0000
,
0000
0000
0000
0000
,
2000
0000
0000
0000
,
3000
0000
0000
0000
,
0002
0000
0000
0000
,
0003
0000
0000
0000
,
0200
0000
0000
0000
,
0300
0000
0000
0000
,
0020
0000
0000
0000
,
0030
0000
0000
0000
,
1000
0000
0000
0000
,
1000
0000
0000
0000
,
0001
0000
0000
0000
,
0000
0000
0000
0000
,
0001
0000
0000
0000
,
0001
0000
0000
0000
,
1000
0000
0000
0000
,
0010
0000
0000
0000
,
0100
0000
0000
0000
,
0100
0000
0000
0000
,
0010
0000
0000
0000
,
1000
0000
0000
0000
,
0001
0000
0000
0000
,
0001
0000
0000
0000
,
1000
0000
0000
0000
,
1000
0000
0000
0000
,
0100
0000
0000
0000
,
0100
0000
0000
0000
,
0010
0000
0000
0000
,
0110
0000
0000
0000
;

//---------------dance-single - ----------------
#NOTES:
     dance-single:
     :
     Easy:
     3:
     0.132536,0.191498,0.035683,0.095154,0.000000,78.000000,75.000000,3.000000,8.000000,0.000000,0.000000,0.132536,0.191498,0.035683,0.095154,0.000000,78.000000,75.000000,3.000000,8.000000,0.000000,0.000000:
0000
0000
0000
0000
,
0000
0000
0000
0000
,
0000
0000
0000
0000
,
0000
0000
0000
0000
,
0000
0000
0000
0000
,
2000
3001
0000
0001
,
1000
0100
0001
0000
,
1000
0010
0001
0000
,
2000
3000
0000
1000
,
0020
0130
0000
0100
,
0010
1000
0100
0000
,
0010
0001
0100
0000
,
0020
0030
0000
0010
,
0200
0000
0000
0000
,
0301
0000
0000
0001
,
1000
0000
0000
1000
,
0100
0000
0000
0100
,
0020
0000
0000
0000
,
0031
0000
0000
0001
,
1000
0000
0000
1000
,
0020
0000
0000
0000
,
0130
0000
0000
0000
,
0100
0000
0000
0000
,
0001
0000
0000
0000
,
1000
0000
0000
0000
,
1001
0000
0001
0000
,
1000
0000
0100
0000
,
1000
0000
1000
0000
,
0010
0100
0010
0000
,
1001
0000
1000
0000
,
0001
0000
0100
0000
,
0001
0000
0001
0000
,
0010
0200
0300
0000
,
0000
0010
0000
0010
,
0000
0001
1000
0001
,
0000
1000
0000
1000
,
0000
0010
0100
0010
,
0000
0100
0000
0100
,
0000
0001
1000
0001
,
0000
1000
0000
1000
,
0100
1001
0000
0000
;

//---------------dance-single - ----------------
#NOTES:
     dance-single:
     :
     Medium:
     6:
     0.229390,0.289031,0.118943,0.202203,0.000000,135.000000,125.000000,10.000000,17.000000,0.000000,0.000000,0.229390,0.289031,0.118943,0.202203,0.000000,135.000000,125.000000,10.000000,17.000000,0.000000,0.000000:
0000
0000
0000
0000
,
0000
0000
0000
0000
,
0000
0000
0000
0000
,
0000
0000
0000
0000
,
0000
0000
0000
0000
,
2000
3100
0000
0100
,
1000
0001
0100
0000
0001
0000
0000
0000
,
0001
1000
0100
0000
1000
0000
0000
0000
,
0020
0000
0130
0000
0000
0000
0010
1000
,
0002
0013
0000
0010
,
0001
1000
0010
0000
1000
0000
0000
0000
,
1000
0001
0010
0000
0001
0000
0000
0000
,
0200
0000
0310
0000
0000
0000
0100
0001
,
2000
0000
3002
0000
,
0103
0000
0000
0000
0000
0000
0010
0100
,
0020
0000
1030
0000
0000
0000
1000
0100
,
2000
3001
0000
1000
,
0002
0000
2003
0000
,
3010
0000
0000
0000
0000
0000
0100
0010
,
0200
0000
0301
0000
0000
0000
0001
0010
,
0002
2000
0000
0003
,
3001
0001
0001
0000
,
1000
1000
1000
0000
,
0100
0100
0100
0000
,
0010
0000
0000
0000
,
0100
1001
0100
1001
,
0010
0100
0010
0010
,
1000
0100
0001
0100
,
1000
1000
0001
1001
,
0001
0110
0001
0110
,
1000
0001
1000
1000
,
0100
0001
0010
0001
,
0100
0220
0330
0000
,
1000
0100
0010
0000
0000
0010
0001
0000
,
0000
0001
0100
0000
0010
0000
0110
0000
,
0000
1000
0010
0000
0000
0001
0010
0000
,
0000
1000
0100
0000
0010
0000
1001
0000
,
1000
0010
0100
0000
0000
0100
0001
0000
,
0000
0001
0010
0000
0100
0000
0110
0000
,
0000
1000
0100
0000
0000
0001
0100
0000
,
1000
2002
3003
0000
;

//---------------dance-single - ----------------
#NOTES:
     dance-single:
     :
     Hard:
     10:
     0.385715,0.529890,0.166520,0.225991,0.053524,227.000000,213.000000,14.000000,19.000000,0.000000,0.000000,0.385715,0.529890,0.166520,0.225991,0.053524,227.000000,213.000000,14.000000,19.000000,0.000000,0.000000:
0000
0000
0000
0000
,
0000
0000
0000
0000
,
0000
0000
0000
0000
,
0000
0000
0000
0000
,
0000
0000
0000
0000
0000
0000
1000
0100
,
0010
0000
1001
0000
0001
0010
0100
0000
,
1000
0100
0001
0100
1000
0000
1000
0001
,
1000
0010
0001
0010
1000
0000
0001
0100
,
0020
0000
0001
0000
1030
0000
0001
0010
,
0100
0000
1001
0000
1000
0100
0010
0000
,
0001
0010
1000
0010
0001
0000
0001
1000
,
0001
0100
1000
0100
0001
0000
1000
0010
,
0200
0000
1300
0100
0001
0010
0001
0100
,
0020
0001
0000
0001
,
2030
0000
0100
0000
3000
0000
0100
1000
,
0002
0000
0010
0000
0003
0000
0010
0100
,
2000
0000
0001
0000
3000
0000
1000
0010
,
0200
1000
0000
1000
,
0302
0000
0010
0000
0003
0000
0010
0001
,
2000
0000
0100
0000
3000
0000
0100
0010
,
0002
2000
0000
0003
,
3001
0000
0000
0000
0100
0000
0000
0100
0000
0000
1000
0000
0100
0000
0001
0000
,
0010
0000
0000
0000
0100
0000
0000
0100
0000
0000
0001
0000
0100
0000
1000
0000
,
0010
0000
0000
0000
1000
0000
0000
1000
0000
0000
0100
0000
0010
0000
0001
0000
,
1000
0000
0000
0000
0000
0000
0100
0010
,
1001
0000
0011
0000
1000
0010
0100
0001
,
1000
0000
0101
0000
0001
0010
0100
1000
,
0001
0000
1100
0000
1000
0001
0010
0001
,
0200
0010
0320
1000
2030
0000
3001
0000
,
1001
0000
0000
0000
0011
0000
0000
0010
0100
1000
0010
0000
0100
0000
0001
0000
,
1001
0000
0000
0000
0101
0000
0000
0010
0100
0001
0010
0000
0100
0000
1000
0000
,
1001
0000
0000
0000
1100
0000
0000
0100
1000
0000
0001
0000
0010
0000
0001
0000
,
0100
0000
0010
0000
0220
0000
0000
0000
0330
0000
0000
0000
0100
0010
0100
0000
,
0001
1000
0100
1000
0001
1000
0010
1000
,
0001
1000
0100
1000
0001
0010
1000
0010
,
0001
1000
0010
1000
0001
1000
0100
1000
,
0001
1000
0010
1000
0002
0100
1003
0100
,
1000
0001
0010
0001
1000
0001
0100
0001
,
1000
0001
0010
0001
1000
0100
0001
0100
,
1000
0001
0100
0001
1000
0001
0010
0001
,
0100
0010
2002
0000
3003
0000
0000
0000
;

//---------------dance-single - ----------------
#NOTES:
     dance-single:
     :
     Challenge:
     9:
     0.290560,0.409461,0.178414,0.225991,0.017841,171.000000,156.000000,15.000000,19.000000,84.000000,0.000000,0.290560,0.409461,0.178414,0.225991,0.017841,171.000000,156.000000,15.000000,19.000000,84.000000,0.000000:
0000
0000
0000
0000
,
0000
0000
0000
0000
,
0000
0000
0000
0000
,
0000
0000
0000
0000
,
0000
0000
0000
0000
,
2000
3001
MMMM
0001
,
1000
0000
0001
0100
1000
0000
0110
0000
,
MMMM
0000
1000
0100
0001
0000
0110
0000
,
0200
0310
MMMM
0010
,
0002
1003
MMMM
1000
,
0001
0000
1000
0010
0001
0000
0110
0000
,
1000
0000
0001
0010
1000
0000
0110
0000
,
0020
0130
MMMM
0100
,
2000
0000
0100
0000
,
3010
0000
0000
1000
,
0002
0100
0003
0100
,
2000
0100
3000
0100
,
0002
0000
0010
0000
,
0103
0000
0000
0001
,
2000
0010
3000
0010
,
0002
0020
0000
0003
,
1030
0000
0000
0000
1000
0000
0000
1000
0000
0000
0100
0000
0010
0000
0000
0000
,
0001
0000
0000
0000
0001
0000
0000
0001
0000
0000
1000
0000
0010
0000
0000
0000
,
0100
0000
0000
0000
0100
0000
0000
0100
0000
0000
0001
0000
1000
0000
0000
0000
,
MMMM
MMMM
MMMM
MMMM
,
1100
0000
0101
0000
1000
0100
0001
0100
,
1000
0000
0011
0000
1000
0010
0001
0010
,
1000
0000
1001
0000
0001
0010
0100
1000
,
0002
2003
3001
MMMM
,
0011
0000
1010
0000
0001
0010
1000
0010
,
0001
0000
1100
0000
0001
0100
1000
0100
,
0001
0000
1001
0000
1000
0100
0010
0001
,
2000
0001
0002
0000
3003
0000
MMMM
0000
,
MMMM
0001
0010
0001
MMMM
0010
1000
0010
,
MMMM
0001
0010
0001
0100
0010
1000
1001
,
MMMM
0010
0100
0010
MMMM
1000
0100
1000
,
MMMM
0100
0001
1000
0020
0100
1030
0002
,
0010
1003
0100
1000
MMMM
0100
0001
0100
,
MMMM
1000
0100
1000
0010
0100
0001
1001
,
MMMM
0100
0010
0100
MMMM
0001
0010
0001
,
0100
0010
0220
0000
0330
0000
0000
0000
;

//---------------dance-double - ----------------
#NOTES:
     dance-double:
     :
     Easy:
     3:
     0.132536,0.191498,0.035683,0.071366,0.000000,78.000000,75.000000,3.000000,6.000000,0.000000,0.000000,0.132536,0.191498,0.035683,0.071366,0.000000,78.000000,75.000000,3.000000,6.000000,0.000000,0.000000:
00000000
00000000
00000000
00000000
,
00000000
00000000
00000000
00000000
,
00000000
00000000
00000000
00000000
,
00000000
00000000
00000000
00000000
,
00000000
00000000
00000000
00000000
,
00010000
00001000
00000000
00001000
,
00010000
01000000
10000000
00000000
,
01000000
00010000
00001000
00000000
,
00020000
00030000
00000000
00010000
,
00001000
00010000
00000000
00010000
,
00001000
00000100
00000001
00000000
,
00000100
00001000
00010000
00000000
,
00002000
00003000
00000000
00001000
,
00020000
00000000
00000000
00000000
,
00031000
00000000
00000000
00100000
,
00010000
00000000
00000000
01000000
,
00001000
00000000
00000000
00010000
,
00002000
00000000
00000000
00000000
,
00013000
00000000
00000000
00000100
,
00001000
00000000
00000000
00000010
,
00020000
00000000
00000000
00000000
,
00031000
00000000
00000000
00000000
,
00001000
00000000
00000000
00000000
,
00010000
00000000
00000000
00000000
,
00010000
00000000
00000000
00000000
,
00011000
00000000
00001000
00000000
,
00010000
00000000
00010000
00000000
,
01000000
00000000
01000000
00000000
,
10000000
00100000
00010000
00000000
,
00011000
00000000
00010000
00000000
,
00001000
00000000
00001000
00000000
,
00000100
00000000
00000100
00000000
,
00000001
00000020
00000030
00000000
,
00000000
00000100
00000000
00000100
,
00000000
00001000
00000001
00001000
,
00000000
00000010
00000000
00000010
,
00000000
00010000
00001000
00010000
,
00000000
00100000
00000000
00100000
,
00000000
10000000
00010000
10000000
,
00000000
01000000
00000000
01000000
,
00010000
00011000
00000000
00000000
;

//---------------dance-double - ----------------
#NOTES:
     dance-double:
     :
     Medium:
     6:
     0.225991,0.313117,0.166520,0.202203,0.000000,133.000000,119.000000,14.000000,17.000000,0.000000,0.000000,0.225991,0.313117,0.166520,0.202203,0.000000,133.000000,119.000000,14.000000,17.000000,0.000000,0.000000:
00000000
00000000
00000000
00000000
,
00000000
00000000
00000000
00000000
,
00000000
00000000
00000000
00000000
,
00000000
00000000
00000000
00000000
,
00000000
00000000
00000000
00000000
,
00020000
00031000
00000000
00001000
,
00010000
00001000
00000100
00000000
00000010
00000000
00000000
00000000
,
00000100
00001000
00010000
00000000
00001000
00000000
00000000
00000000
,
00200000
00000000
00310000
00000000
00000000
00000000
00010000
00100000
,
00002000
00013000
00000000
00010000
,
00001000
00010000
00100000
00000000
01000000
00000000
00000000
00000000
,
00100000
00010000
00001000
00000000
00010000
00000000
00000000
00000000
,
00000200
00000000
00001300
00000000
00000000
00000000
00001000
00000100
,
00000020
00000000
00000032
00000000
,
00001003
00000000
00000000
00001000
,
00000020
00010030
00000000
00010000
,
00002000
01003000
00000000
01000000
,
00200000
00000000
20300000
00000000
,
30010000
00000000
00000000
00010000
,
00200000
00301000
00000000
00001000
,
00020000
00000200
00000000
00030000
,
00010300
00010000
00010000
00000000
,
00001000
00001000
00001000
00000000
,
01000000
01000000
01000000
00000000
,
00100000
00000000
00000000
00000000
,
01100000
00010000
00100000
00010000
,
00100000
00001000
00010000
00001000
,
01000000
00001000
01000000
00001000
,
00010000
00001000
00000010
00001001
,
00000110
00001000
00000010
00001000
,
00000010
00010000
00001000
00010000
,
00000100
00010000
00000100
00010000
,
00001000
00022000
00033000
00000000
,
00100000
10010000
01000000
10010000
,
00100000
00010000
00001000
00000100
,
00000010
00001001
00000100
00001001
,
00000010
00000100
00001000
00011000
,
00000100
00001001
00000010
00001001
,
00000100
00001000
00010000
00100000
,
01000000
10010000
00100000
10010000
,
01000000
02200000
03300000
00000000
;

//---------------dance-double - ----------------
#NOTES:
     dance-double:
     :
     Hard:
     10:
     0.389113,0.529890,0.261674,0.225991,0.071366,229.000000,207.000000,22.000000,19.000000,0.000000,0.000000,0.389113,0.529890,0.261674,0.225991,0.071366,229.000000,207.000000,22.000000,19.000000,0.000000,0.000000:
// measure 0
00000000
00000000
00000000
00000000
,  // measure 1
00000000
00000000
00000000
00000000
,  // measure 2
00000000
00000000
00000000
00000000
,  // measure 3
00000000
00000000
00000000
00000000
,  // measure 4
00000000
00000000
00000000
00000000
00000000
00000000
10000000
01000000
,  // measure 5
00010000
00000000
00011000
00000000
00001000
00010000
01000000
00000000
,  // measure 6
10000000
01000000
00010000
01000000
10000000
00000000
10000000
00010000
,  // measure 7
01000000
00100000
00010000
00100000
01000000
00000000
00001000
00010000
,  // measure 8
00002000
00000000
00010000
00000000
00003010
00000000
00000001
00000010
,  // measure 9
00001000
00000000
00011000
00000000
00010000
00001000
00000010
00000000
,  // measure 10
00000001
00000010
00001000
00000010
00000001
00000000
00000001
00001000
,  // measure 11
00000010
00000100
00001000
00000100
00000010
00000000
00010000
00001000
,  // measure 12
00020000
00000000
00001000
00000000
00030000
00010000
00001000
00000010
,  // measure 13
00000002
00001000
00000000
00001000
,  // measure 14
00000203
00000000
00000010
00000000
00000300
00000000
00000100
00001000
,  // measure 15
00020000
00000000
00001000
00000000
00030000
00000000
00001000
00010000
,  // measure 16
02000000
00000000
00100000
00000000
03000000
00000000
10000000
00010000
,  // measure 17
20000000
00010000
00000000
00010000
,  // measure 18
30200000
00000000
01000000
00000000
00300000
00000000
00100000
00010000
,  // measure 19
00002000
00000000
00010000
00000000
00003000
00000000
00010000
00001000
,  // measure 20
00000020
00000200
00000000
00000030
,  // measure 21
00000310
00000000
00000000
00000000
00000010
00000000
00000000
00000010
00000000
00000000
00000001
00000000
00000100
00000000
00001000
00000000
,  // measure 22
00010000
00000000
00000000
00000000
00001000
00000000
00000000
00001000
00000000
00000000
00000010
00000000
00001000
00000000
00010000
00000000
,  // measure 23
00100000
00000000
00000000
00000000
00100000
00000000
00000000
00100000
00000000
00000000
10000000
00000000
01000000
00000000
00010000
00000000
,  // measure 24
00001000
00000000
00000000
00000000
00000000
00000000
00010000
00001000
,  // measure 25
00011000
00000000
00000000
00000000
00110000
00000000
00000000
10010000
00000000
00000000
00010000
00000000
01000000
00000000
00100000
00000000
,  // measure 26
10000000
00000000
00000000
00000000
01100000
00000000
00000000
01010000
00000000
00000000
10000000
00000000
01000000
00000000
00100000
00000000
,  // measure 27
00010000
00000000
00000000
00000000
00011000
00000000
00000000
00001100
00000000
00000000
00000100
00000000
00000010
00000000
00000001
00000000
,  // measure 28
00002000
00003010
00000002
00000013
00002000
00000000
00003100
00000000
,  // measure 29
00011000
00000000
00000000
00000000
00001100
00000000
00000000
00001001
00000000
00000001
00001000
00000000
00000010
00000000
00000100
00000000
,  // measure 30
00000101
00000000
00000000
00000000
00000110
00000000
00000000
00001010
00000000
00001000
00000001
00000000
00000010
00000000
00000100
00000000
,  // measure 31
00001100
00000000
00000000
00000000
00011000
00000000
00000000
00110000
00000000
00000000
00100000
00000000
01000000
00000000
10000000
00000000
,  // measure 32
00010000
00000000
01000000
00000000
02200000
00000000
00000000
00000000
03300000
00000000
00000000
00000000
10000000
00010000
10000000
00000000
,  // measure 33
01000000
10000000
00100000
10000000
01000000
10000000
00100000
10000000
,  // measure 34
01000000
00010000
00001000
00000010
00000001
00000100
00000010
00000110
,  // measure 35
00000001
00001000
00000100
00001000
00000001
00001000
00000010
00001000
,  // measure 36
00000100
00010000
00001000
01000000
00020000
00000000
00031000
00000010
,  // measure 37
00000100
00000001
00000010
00000001
00000100
00000001
00000010
00000001
,  // measure 38
00000100
00001000
00010000
00100000
10000000
01000000
00100000
01100000
,  // measure 39
10000000
00010000
01000000
00010000
10000000
00010000
00100000
00010000
,  // measure 40
01000000
00001000
00022000
00000000
00033000
00000000
00000000
00000000
;

//---------------dance-double - ----------------
#NOTES:
     dance-double:
     :
     Challenge:
     9:
     0.295658,0.409461,0.130837,0.249780,0.017841,174.000000,163.000000,11.000000,21.000000,132.000000,0.000000,0.295658,0.409461,0.130837,0.249780,0.017841,174.000000,163.000000,11.000000,21.000000,132.000000,0.000000:
00000000
00000000
00000000
00000000
,
00000000
00000000
00000000
00000000
,
00000000
00000000
00000000
00000000
,
00000000
00000000
00000000
00000000
,
00000000
00000000
00000000
00000000
,
00020000
00031000
MMMMMMMM
00001000
,
00000100
00000000
00000001
00000100
00001000
00000000
00000110
00000000
,
MMMMMMMM
00000000
00001000
00010000
01000000
00000000
10000000
00000000
,
00020000
01030000
MMMMMMMM
01000000
,
00002000
00013000
MMMMMMMM
00010000
,
00100000
00000000
10000000
00100000
00010000
00000000
01100000
00000000
,
00010000
00000000
00010000
00001000
00000010
00000000
00000001
00000000
,
00002000
00003010
MMMMMMMM
00000010
,
00000200
00000000
00001000
00000000
,
00000301
00000000
00000000
00000001
,
00002000
00000100
00003000
00000100
,
00020000
00001000
00030000
00001000
,
00200000
00000000
10000000
00000000
,
00310000
00000000
00000000
00010000
,
20000000
00100000
30000000
00100000
,
02000000
00002000
03000000
00003000
,
00010000
00000000
00000000
00000000
00010000
00000000
00000000
00010000
00000000
00000000
00001000
00000000
00010000
00000000
00000000
00000000
,
00000100
00000000
00000000
00000000
00000100
00000000
00000000
00000100
00000000
00000000
00000010
00000000
00000100
00000000
00000000
00000000
,
00001000
00000000
00000000
00000000
00001000
00000000
00000000
00001000
00000000
00000000
00000001
00000000
00000100
00000000
00000000
00000000
,
MMMMMMMM
MMMMMMMM
MMMMMMMM
MMMMMMMM
,
00000110
00000000
00001001
00000000
00000001
00000010
00001000
00010000
,
00001000
00000000
00011000
00000000
00001000
00010000
00100000
10000000
,
00100000
00000000
01100000
00000000
10000000
01000000
00010000
01000000
,
20000000
30020000
10030000
MMMMMMMM
,
01100000
00000000
10010000
00000000
10000000
01000000
00010000
00001000
,
00010000
00000000
00011000
00000000
00010000
00001000
00000100
00000001
,
00000100
00000000
00000110
00000000
00000001
00000010
00001000
00000010
,
00000001
00002000
00000002
00000000
00003003
00000000
MMMMMMMM
00000000
,
0001MMMM
00000010
00001000
00000010
0001MMMM
00000100
00001000
00000100
,
0001MMMM
00001000
00000100
00001000
00020000
00000000
01030000
00100000
,
MMMM1000
00100000
00010000
00100000
MMMM1000
01000000
00010000
01000000
,
MMMM1000
00010000
01000000
00010000
00002000
00000000
00103000
00020000
,
10000000
01030000
00100000
01000000
MMMM1000
00100000
01000000
00100000
,
MMMM1000
00010000
00100000
00010000
00002000
00000000
00003010
00000100
,
0001MMMM
00000100
00000010
00000100
0001MMMM
00000010
00000100
00000010
,
0001MMMM
00001000
00022000
00000000
00033000
00000000
00000000
00000000
;
