#TITLE:Don't Stop 'Til You Get Enough;
#SUBTITLE:;
#ARTIST:Michael Jackson;
#TITLETRANSLIT:;
#SUBTITLETRANSLIT:;
#ARTISTTRANSLIT:;
#GENRE:Popular Songs;
#CREDIT:;
#BANNER:Don't Stop 'Til You Get Enough.png;
#BACKGROUND:Don't Stop 'Til You Get Enough-bg.png;
#LYRICSPATH:;
#CDTITLE:../cdtitle.png;
#MUSIC:Don't Stop 'Til You Get Enough.ogg;
#OFFSET:1.386000;
#SAMPLESTART:56.830002;
#SAMPLELENGTH:15.000000;
#LASTBEATHINT:0.768462;
#SELECTABLE:YES;
#DISPLAYBPM:119.000000;
#BPMS:0.000000=119.449997
,20.000000=118.699997
,28.000000=119.000000
,36.000000=118.559998
,44.000000=119.199997
,52.000000=119.000000
,68.000000=118.559998
,76.000000=119.000000
,80.000000=119.099998
,84.000000=119.000000
,92.000000=118.000000
,96.000000=120.000000
,100.000000=118.000000
,108.000000=119.000000
,112.000000=120.000000
,116.000000=119.440002
,120.000000=119.000000
,124.000000=120.000000
,132.000000=118.000000
,136.000000=119.000000
,144.000000=118.000000
,152.000000=120.000000
,156.000000=118.000000
,160.000000=121.000000
,164.000000=118.000000
,172.000000=119.000000
,184.000000=122.000000
,188.000000=119.000000
;
#STOPS:
;
#BGCHANGES:3.750=Don't Stop 'Til You Get Enough.avi=1.000=0=0=0=StretchNoLoop====,
99999=-nosongbg-=1.000=0=0=0 // don't automatically add -songbackground-
;
#KEYSOUNDS:;
#ATTACKS:;

//---------------dance-single - ----------------
#NOTES:
     dance-single:
     :
     Beginner:
     2:
     0.080470,0.120380,0.027256,0.000000,0.000000,62.000000,59.000000,3.000000,0.000000,0.000000,0.000000,0.080470,0.120380,0.027256,0.000000,0.000000,62.000000,59.000000,3.000000,0.000000,0.000000,0.000000:
0000
0000
0000
0000
,
0000
0000
0000
0000
,
0000
0000
0000
0000
,
0000
0000
0000
0000
,
0000
0000
0000
0000
,
1000
0000
0000
0000
,
1000
0000
0000
0000
,
0001
0000
0000
0000
,
0001
0000
0000
0000
,
0100
0000
0000
0000
,
0100
0000
0000
0000
,
0010
0000
0000
0000
,
0010
0000
0000
0000
,
0001
0000
0000
0000
,
0001
0000
0000
0000
,
0100
0000
0000
0000
,
0100
0000
0000
0000
,
1000
0000
0000
0000
,
1000
0000
0000
0000
,
0010
0000
0000
0000
,
0010
0000
0000
0000
,
1000
0000
0000
0000
,
1000
0000
0000
0000
,
0001
0000
0000
0000
,
0001
0000
0000
0000
,
0100
0000
0000
0000
,
0100
0000
0000
0000
,
0010
0000
0000
0000
,
0010
0000
0000
0000
,
1000
0000
1000
0000
,
1000
0000
0000
0000
,
0001
0000
0001
0000
,
0001
0000
0000
0000
,
0001
0000
1000
0000
,
0001
0000
0000
0000
,
1000
0000
0001
0000
,
1001
0000
0000
0000
,
0010
0000
0010
0000
,
0010
0000
0000
0000
,
1000
0000
1000
0000
,
1000
0000
0000
0000
,
0001
0000
0001
0000
,
0001
0000
0000
0000
,
0100
0000
0100
0000
,
0110
0000
0000
0000
,
1000
0000
0000
0000
,
0001
0000
0000
0000
,
1000
0000
0000
0000
,
0001
0000
0000
0000
,
1000
0000
1000
0000
,
1000
0000
0000
0000
,
0001
0000
0001
0000
,
0001
0000
0000
0000
,
1001
0000
0000
0000
;

//---------------dance-single - ----------------
#NOTES:
     dance-single:
     :
     Hard:
     10:
     0.394561,0.457444,0.236218,0.000000,0.004543,304.000000,278.000000,26.000000,0.000000,0.000000,0.000000,0.394561,0.457444,0.236218,0.000000,0.004543,304.000000,278.000000,26.000000,0.000000,0.000000,0.000000:
// measure 0
0000
0000
0000
0000
,  // measure 1
0000
0000
0000
0000
,  // measure 2
0000
0000
0000
0000
,  // measure 3
0000
0000
0000
0000
,  // measure 4
0000
0000
0000
0000
,  // measure 5
1000
0100
0001
0000
1000
0100
0001
0000
,  // measure 6
1000
0100
0001
0000
1000
0100
0001
0000
,  // measure 7
1000
0100
0010
0000
0001
0100
0010
0000
,  // measure 8
1000
0100
0010
0000
0001
0100
0010
0000
,  // measure 9
1000
0010
0001
0000
1000
0010
0001
0000
,  // measure 10
1000
0010
0001
0000
1000
0010
0001
0000
,  // measure 11
1000
0010
0100
0000
0001
0010
0100
0000
,  // measure 12
1000
0010
0100
0000
0001
0010
0100
0010
,  // measure 13
0001
0010
0100
1000
,  // measure 14
1000
0100
0010
0001
,  // measure 15
0001
0100
0010
1000
,  // measure 16
1000
0010
0100
0001
,  // measure 17
1000
0100
1000
0100
1000
0100
1000
0000
,  // measure 18
0001
0100
0001
0100
0001
0100
0001
0000
,  // measure 19
1000
0100
0010
0100
0010
0100
1000
0000
,  // measure 20
0001
0100
0010
0100
0010
0000
0100
0000
,  // measure 21
0010
1000
0100
0000
0010
0001
0100
0000
,  // measure 22
0010
0100
0001
0000
0010
0100
1000
0000
,  // measure 23
0001
0100
0010
0100
1000
0100
0010
0000
,  // measure 24
1000
0100
0010
0100
0001
0100
0010
0000
,  // measure 25
0100
1000
0001
0000
0100
0010
1000
0000
,  // measure 26
1000
0100
0010
0000
0001
1000
0010
0000
,  // measure 27
0100
0010
0100
0010
0100
0010
1000
0000
,  // measure 28
0100
0010
0100
0010
0100
0010
0001
1000
,  // measure 29
0001
0000
1100
0000
0001
0100
1000
0000
,  // measure 30
0100
0000
0001
0010
1000
0010
0001
0000
,  // measure 31
1000
0000
0101
0000
1000
0100
0001
0000
,  // measure 32
0100
0000
1000
0010
0001
0010
1000
0000
,  // measure 33
0001
0000
1010
0000
0001
0010
1000
0000
,  // measure 34
0010
0000
0001
0100
1000
0100
0001
0000
,  // measure 35
1000
0000
0011
0000
1000
0010
0001
0010
,  // measure 36
1001
0000
0000
0000
,  // measure 37
0010
1000
1100
0000
0010
0001
0101
0000
,  // measure 38
0010
1000
1100
0000
0010
0011
1001
0000
,  // measure 39
0010
0001
0101
0000
0010
1000
1100
0000
,  // measure 40
0010
0001
0101
0000
0010
1010
1001
0000
,  // measure 41
0100
0010
0011
0000
0100
0010
1010
0000
,  // measure 42
0100
0010
0011
0000
0100
0110
1001
0000
,  // measure 43
0010
0100
1100
0000
0010
0100
0101
0000
,  // measure 44
0010
0000
0000
1001
0000
0000
0000
0000
0000
0000
0000
0000
0000
0000
0000
0000
,  // measure 45
1000
0100
0010
0000
1000
0100
0010
0000
,  // measure 46
0001
0100
0010
0000
0001
0100
0010
0000
,  // measure 47
1000
0001
0010
0000
1000
0001
0010
0000
,  // measure 48
0100
1000
0001
0000
0100
1000
0001
0000
,  // measure 49
0010
0000
1100
0000
0001
0100
1000
0000
,  // measure 50
0100
0000
0010
1000
0100
0001
0100
1000
,  // measure 51
0010
0000
0101
0000
1000
0100
0001
0000
,  // measure 52
0100
0000
0010
0001
0100
1000
0100
0001
,  // measure 53
1001
0000
0000
0000
;

//---------------dance-single - ----------------
#NOTES:
     dance-single:
     :
     Easy:
     5:
     0.219345,0.264836,0.054512,0.000000,0.000000,169.000000,163.000000,6.000000,0.000000,0.000000,0.000000,0.219345,0.264836,0.054512,0.000000,0.000000,169.000000,163.000000,6.000000,0.000000,0.000000,0.000000:
0000
0000
0000
0000
,
0000
0000
0000
0000
,
0000
0000
0000
0000
,
0000
0000
0000
0000
,
0000
0000
0000
0000
,
1000
0100
1000
0100
,
0010
0100
0010
0100
,
1000
0100
0001
0100
,
1000
0001
1000
1000
,
0001
0010
0001
0010
,
0100
0010
0100
0010
,
0001
0010
1000
0010
,
0001
1000
0001
1000
,
0001
0010
1000
0000
,
1000
0010
0001
0000
,
0001
0100
1000
0000
,
1000
0100
0001
0000
,
1000
1000
1000
0000
,
0001
0001
0001
0000
,
1000
0010
0100
0000
,
0001
0010
0100
0000
,
1000
0100
1000
0000
,
1000
0100
1000
0000
,
0001
0010
0001
0000
,
0001
0010
0001
0000
,
0001
1000
0001
0000
,
1000
0001
1000
0000
,
0010
0010
0010
0010
,
0010
0000
0010
0000
,
1000
0001
1000
0000
,
0001
1000
1000
0000
,
0001
1000
1000
0000
,
0001
1000
0001
0000
,
0001
1000
1000
0000
,
0001
1000
0001
0000
,
1000
0001
0001
0000
,
1001
0000
0000
0000
,
0001
1000
0001
0001
,
0001
0001
1000
1001
,
0010
0100
0010
0010
,
0010
0010
0100
0110
,
1000
0001
1000
1000
,
1000
1000
0001
1001
,
0100
0010
0100
0100
,
0010
1001
0000
0000
,
1000
0001
1000
0001
,
0010
0100
0010
0100
,
1000
0001
1000
0001
,
0100
0010
0100
0010
,
1000
0001
1000
1000
,
0001
1000
1000
0000
,
0001
1000
0001
0001
,
1000
0001
0001
0000
,
1001
0000
0000
0000
;

//---------------dance-single - ----------------
#NOTES:
     dance-single:
     :
     Medium:
     7:
     0.303708,0.337064,0.181706,0.000000,0.004543,234.000000,214.000000,20.000000,0.000000,0.000000,0.000000,0.303708,0.337064,0.181706,0.000000,0.004543,234.000000,214.000000,20.000000,0.000000,0.000000,0.000000:
0000
0000
0000
0000
,
0000
0000
0000
0000
,
0000
0000
0000
0000
,
0000
0000
0000
0000
,
0000
0000
0000
0000
,
0010
0100
0010
0100
,
0010
0100
0010
0100
,
1000
0000
0001
0000
0010
0100
1000
0000
,
0001
0000
1000
0000
0010
0100
0001
0000
,
0100
0010
0100
0010
,
0100
0010
0100
0010
,
1000
0000
0001
0000
0100
0010
1000
0000
,
0001
0000
1000
0000
0100
0010
0001
0000
,
1000
0010
0001
0000
0010
0000
1000
0000
,
0001
0010
0100
1000
,
0001
0000
0100
0000
0001
0100
0001
0000
,
1000
0000
0100
0000
1000
0100
1000
0000
,
0001
0100
1000
0000
0100
0000
0001
0000
,
1000
0100
0010
0001
,
1000
0000
0010
0000
0100
0010
0100
0000
,
0001
0000
0010
0100
0010
0000
0001
0000
,
1000
1000
1000
1000
,
1000
0000
0001
0000
1000
0001
1000
0000
,
0001
0000
0100
0000
0010
1000
0100
0000
,
0010
0000
0001
0000
0100
0010
1000
0000
,
0001
0001
0001
0001
,
0001
0000
1000
0000
0001
1000
0001
0000
,
1000
0000
0010
0000
0100
0001
0010
0000
,
0100
0000
1000
0000
0010
0100
0001
0000
,
0010
0100
1000
1001
,
0001
0000
0100
0000
1000
0100
0001
0000
,
1000
0001
0010
0110
,
1000
0000
0010
0000
0001
0010
1000
0000
,
0010
0100
0001
1001
,
1000
0000
0100
0000
0001
0100
1000
0000
,
0001
1000
0010
0110
,
1001
0000
0000
0000
,
1000
1100
0001
0011
,
1000
0000
1010
0000
0100
0100
0100
0000
,
0001
0101
1000
1010
,
0001
0000
0011
0000
0100
0100
0100
0000
,
0010
1001
0100
1001
,
0010
0000
1001
0000
0100
0100
0100
0000
,
0010
1001
0100
1001
,
0010
0000
0000
1001
0000
0000
0000
0000
0000
0000
0000
0000
0000
0000
0000
0000
,
0001
0010
1000
0010
,
0001
0000
0010
0000
0100
1000
0001
0000
,
1000
0010
0001
0010
,
1000
0000
0010
0000
0100
0001
1000
0000
,
0010
0100
0001
1001
,
1000
0000
0100
0000
0001
0100
1000
0000
,
0001
1000
0010
0110
,
0001
0000
0010
0000
1000
0010
0001
0000
,
1001
0000
0000
0000
;

//---------------dance-single - ----------------
#NOTES:
     dance-single:
     :
     Challenge:
     13:
     0.543820,0.625977,0.190791,0.000000,0.227132,419.000000,398.000000,21.000000,0.000000,0.000000,0.000000,0.543820,0.625977,0.190791,0.000000,0.227132,419.000000,398.000000,21.000000,0.000000,0.000000,0.000000:
0000
0000
0000
0000
,
0000
0000
0000
0000
,
0000
0000
0000
0000
,
0000
0000
0000
0000
,
0000
0000
0000
0000
,
1000
0100
0010
0100
1000
0100
0010
0100
,
1000
0010
0100
0010
1000
0010
0100
0010
,
1000
0100
0001
0100
1000
0100
0010
0001
,
1000
0010
0001
0010
1000
0010
0100
0000
,
0001
0010
0100
0010
0001
0010
0100
0010
,
0001
0100
0010
0100
0001
0100
0010
0100
,
0001
0010
1000
0010
0001
0010
0100
1000
,
0001
0100
1000
0100
0001
0100
0010
0000
,
1000
0100
0001
1000
0010
0001
1000
0100
,
0001
1000
0010
0001
1000
0100
0010
0000
,
0001
0100
1000
0001
0010
1000
0001
0100
,
1000
0001
0010
1000
0001
0100
0010
0000
,
1000
0001
0010
1000
0010
0001
1000
0000
,
0001
1000
0010
0001
0010
1000
0001
0000
,
1000
0100
0001
0010
0001
0100
1000
0010
,
0001
0100
0001
0010
1000
0100
0010
0001
,
1000
0010
0100
0001
0100
0010
1000
0000
,
0001
0010
0100
1000
0100
0010
0001
0000
,
1000
0010
0001
0010
0100
0010
1000
0000
,
0001
0010
0100
0010
1000
0010
0001
0000
,
1000
0010
0100
1000
0100
0010
1000
0100
,
0010
0100
1000
0010
0100
0001
1000
0000
,
0001
0010
0100
0001
0100
0010
0001
0100
,
0010
0000
0100
0000
0001
0000
0010
0000
0100
0000
1000
0000
0001
0000
0100
0010
,
1000
0000
0001
0000
1100
0000
1000
0001
0100
0000
0010
0000
1010
0000
0001
0000
,
0010
0000
0001
0100
0010
0000
0100
0010
1000
0000
0001
0010
0100
0000
0010
0100
,
1000
0000
0001
0000
1010
0000
1000
0001
0010
0000
0100
0000
1100
0000
0001
0000
,
0100
0000
0001
0010
0100
0000
0010
0100
1000
0000
0001
0100
0010
0000
0100
0010
,
1000
0000
0001
0000
1100
0000
1000
0001
0100
0000
0010
0000
1010
0000
0001
0000
,
0010
0000
0001
0100
0010
0000
0100
0010
1000
0000
0001
0010
0100
0000
0010
0100
,
1000
0000
0001
0000
1010
0000
1000
0001
0010
0000
0100
0000
1100
0001
0100
0000
,
1001
0000
0000
0000
,
0010
0001
0000
0001
0100
0000
0010
0000
1000
0100
0000
0100
0010
0000
0001
0000
,
1000
0010
0000
0010
0100
0000
0001
0000
1000
0000
1100
0000
0110
0000
0001
0000
,
1000
0010
0000
0100
0010
0000
1000
0000
0001
0010
0000
0100
0010
0000
0001
0000
,
1000
0010
0000
0100
0010
0000
1000
0000
0100
0000
0110
0000
1001
0000
0100
0000
,
0010
1000
0000
1000
0100
0000
0010
0000
0001
0100
0000
0100
0010
0000
1000
0000
,
0001
0010
0000
0010
0100
0000
1000
0000
0001
0000
0101
0000
0110
0000
1000
0000
,
0001
0010
0000
0100
0010
0000
0001
0000
1000
0010
0000
0100
0010
0000
1000
0000
,
0100
0010
0000
1001
0000
0000
0000
0000
0000
0000
0000
0000
0000
0000
0000
0000
,
0100
0010
1000
0100
0010
0100
1000
0010
,
0100
0001
0010
0001
0100
0010
1000
0000
,
0010
0100
0001
0010
0100
0010
0001
0100
,
0010
0000
1000
0000
0100
0000
1000
0000
0010
0000
0100
0000
0001
0000
0010
0100
,
1000
0000
0001
0000
1001
0000
1000
0010
0100
0000
0001
0000
1100
0000
0001
0000
,
0100
0000
0010
0000
1000
0000
0001
1000
0100
0000
0010
0001
1000
0000
0010
0100
,
0001
0000
1000
0000
1001
0000
0001
0010
0100
0000
1000
0000
0101
0000
1000
0000
,
0100
0000
0010
0000
0001
0000
1000
0001
0100
0000
0010
1000
0001
0000
0010
0000
,
1001
0000
0000
0000
;
