#TITLE:Diggy;
#SUBTITLE:;
#ARTIST:Spencer Ludwig;
#TITLETRANSLIT:;
#SUBTITLETRANSLIT:;
#ARTISTTRANSLIT:;
#GENRE:Popular Songs;
#CREDIT:;
#BANNER:Diggy.png;
#BACKGROUND:Diggy-bg.png;
#LYRICSPATH:;
#CDTITLE:../cdtitle.png;
#MUSIC:Diggy.ogg;
#OFFSET:2.162000;
#SAMPLESTART:44.903999;
#SAMPLELENGTH:15.000000;
#LASTBEATHINT:2.130333;
#SELECTABLE:YES;
#BPMS:0.000000=110.000000
;
#STOPS:
;
#BGCHANGES:3.875=Diggy.avi=1.000=0=0=0=StretchNoLoop==CrossFade_Faster==,
99999=-nosongbg-=1.000=0=0=0 // don't automatically add -songbackground-
;
#KEYSOUNDS:;
#ATTACKS:;

//---------------dance-single - ----------------
#NOTES:
     dance-single:
     :
     Beginner:
     3:
     0.103277,0.159164,0.000000,0.038868,0.000000,93.000000,93.000000,0.000000,5.000000,0.000000,0.000000,0.103277,0.159164,0.000000,0.038868,0.000000,93.000000,93.000000,0.000000,5.000000,0.000000,0.000000:
0000
0000
0000
0000
,
0000
0000
0000
0000
,
0000
0000
0000
0000
,
0000
0000
0000
0000
,
0000
0000
0000
0000
,
0200
0000
0000
0000
,
0000
0000
0000
0000
,
0000
0000
0000
0000
,
0300
0000
0000
0000
,
0000
1000
0000
0001
,
0000
1000
1000
0000
,
0000
0010
0000
0100
,
0000
0010
0010
0000
,
0001
0000
1000
0000
,
0001
0001
0002
0003
,
0100
0000
0010
0000
,
0100
0100
0100
0000
,
2000
0000
0000
0000
,
0000
0000
3000
0000
,
0002
0000
0000
0000
,
0000
0000
0000
0000
,
0003
0000
0000
0000
,
1000
0000
0010
0000
,
0001
0001
0001
0000
,
0100
0000
1000
0000
,
0001
0001
0001
0000
,
0010
0010
0010
0000
,
0100
0100
0100
0000
,
0010
0000
0001
0000
,
1000
1000
1000
0000
,
0000
0000
0000
0000
,
0000
0000
0000
0000
,
0010
0010
0010
0000
,
0100
0000
0001
0000
,
0010
0010
0010
0000
,
0100
0000
1000
0000
,
0001
0001
0001
0000
,
1000
1000
0000
0000
,
0000
0000
0000
0000
,
0000
0000
0000
0000
,
0000
0000
0000
0000
,
0000
0000
0000
0000
,
0100
0000
0000
0000
,
0010
0000
0000
0000
,
0001
0000
0000
0000
,
1000
0000
0000
0000
,
0002
0000
0003
0000
,
1000
0000
0100
0000
,
0001
0001
0001
0000
,
0010
0000
1000
0000
,
0001
0001
0001
0000
,
0100
0100
0100
0000
,
0010
0010
0010
0000
,
0100
0000
0001
0000
,
1000
1000
1000
0000
,
0001
0001
0001
0000
,
0010
0000
0100
0000
,
1000
1000
1000
0000
,
0001
0000
0010
0000
;

//---------------dance-single - ----------------
#NOTES:
     dance-single:
     :
     Easy:
     5:
     0.206555,0.272852,0.139924,0.054415,0.000000,186.000000,168.000000,18.000000,7.000000,0.000000,0.000000,0.206555,0.272852,0.139924,0.054415,0.000000,186.000000,168.000000,18.000000,7.000000,0.000000,0.000000:
0000
0000
0000
0000
,
0000
0000
0000
0000
,
0000
0000
0000
0000
,
0000
0000
0000
0000
,
0000
0000
0000
0000
,
2000
0001
0000
0001
,
0000
0001
0000
0001
,
0000
0001
0000
0001
,
3000
0000
0000
0000
,
0000
0001
0000
0001
,
0000
1000
1000
1000
,
0001
0101
0010
1010
,
0001
0100
0010
0100
,
0001
0011
0100
1100
,
0001
1000
2000
3001
,
1000
1000
0010
0100
,
0001
0001
0001
0000
,
0002
1000
0000
1000
,
0000
1000
0000
1000
,
2003
0001
0000
0001
,
0000
0001
0000
0001
,
3000
0000
0000
0000
,
0101
0010
0110
1000
,
0001
0001
0001
1000
,
1100
0010
0110
0001
,
1000
1000
1000
0001
,
0010
0010
0010
1000
,
0100
0100
0100
0001
,
0011
0100
1100
0001
,
0010
0010
0020
0030
,
0000
0100
0000
0100
,
0000
0100
0000
0100
,
0100
0100
0100
0010
,
0001
0100
0010
1001
,
0100
0100
0100
1000
,
0010
0100
0001
0101
,
0010
0010
0010
1000
,
0100
0001
0000
0000
,
0000
0100
0000
0100
,
0000
1000
0000
1000
,
0000
0010
0000
0010
,
0000
0001
0000
0001
,
0010
0010
0010
0000
,
1000
1000
1000
0000
,
0001
0000
0001
0000
,
0010
0010
0010
0000
,
0200
0000
0300
0000
,
0011
0100
0110
1000
,
0001
0001
0001
1000
,
1010
0100
0110
0001
,
1000
1000
1000
0001
,
0100
0100
0100
1000
,
0010
0010
0010
0001
,
0101
0010
1010
0001
,
0100
0100
0200
0300
,
1000
1000
1000
0001
,
0010
1000
0100
0001
,
1000
1000
1000
0010
,
0001
0100
1000
0000
;

//---------------dance-single - ----------------
#NOTES:
     dance-single:
     :
     Medium:
     8:
     0.302059,0.386541,0.171019,0.225434,0.000000,272.000000,250.000000,22.000000,29.000000,0.000000,0.000000,0.302059,0.386541,0.171019,0.225434,0.000000,272.000000,250.000000,22.000000,29.000000,0.000000,0.000000:
0000
0000
0000
0000
,
0000
0000
0000
0000
,
0000
0000
0000
0000
,
0000
0000
0000
0000
,
0000
0000
0000
0000
,
2000
0100
0000
0001
,
0000
0100
0000
0001
,
3002
0100
0000
1000
,
1003
0100
0001
0100
0000
0000
0000
0000
,
0000
1000
0001
0000
0010
0100
0110
0000
,
0000
1000
0010
0001
0010
1000
0100
0000
,
0010
0001
1001
0000
0100
0010
0110
0000
,
1000
0001
0100
1000
0100
0001
0010
0000
,
0100
0010
0011
0000
0100
0010
1010
0000
,
0001
0010
0100
0000
2000
0000
3001
0000
,
1000
0000
1000
0000
0010
0100
0001
0000
,
0010
0100
0010
0000
0200
0000
0300
0000
,
2000
0100
0000
0001
,
0000
0100
0000
0001
,
3002
0010
0000
1000
,
0000
0010
0000
1000
,
1003
0010
0001
0010
0000
0000
0000
0000
,
2001
3010
0102
0013
,
0100
1000
0001
1000
0010
0000
0010
0000
,
1200
0301
0021
1030
,
1000
0100
0001
0100
2000
0000
3001
0000
,
1000
0100
0001
0010
1000
0000
1100
0000
,
0001
0100
1000
0010
0001
0000
0101
0000
,
2010
3001
0021
0130
,
1000
0001
0010
0001
2000
0000
3000
0000
,
0200
0001
0000
0001
,
0000
1000
0000
1000
,
1300
0001
1000
0010
0100
0010
0001
0000
,
0010
0100
0001
0000
0010
0000
0110
0000
,
0001
1000
0010
0100
1000
0100
0010
0000
,
1000
0000
1000
0000
0001
0100
0010
0000
,
1000
0001
1000
0100
0010
0100
0001
0000
,
0100
0010
0001
0100
0010
0000
0000
0000
,
2000
3001
0000
0001
,
0000
0001
0000
0001
,
0002
1003
0000
1000
,
0000
1000
0000
1000
,
1000
0100
0001
0010
1000
0000
1000
0000
,
0001
0100
1000
0010
0001
0000
0001
0000
,
2000
3100
0002
0013
,
1000
1000
0100
0001
0200
0000
0300
0000
,
0020
0000
0030
0000
,
2001
3010
0102
0013
,
0100
1000
0001
1000
0010
0000
0010
0000
,
1200
0301
0021
1030
,
1000
0100
0001
0100
2000
0000
3001
0000
,
1000
0100
0001
0010
1000
0000
1100
0000
,
0001
0100
1000
0010
0001
0000
0101
0000
,
2010
3001
0021
0130
,
1000
0001
0010
0001
2000
0000
3001
0000
,
1000
0100
0001
0100
1000
0010
0001
0000
,
0010
0000
0010
0000
1000
0001
0100
0000
,
0001
0010
1000
0010
0001
0100
1000
0000
,
0100
0010
0100
0001
1000
0000
0000
0000
;

//---------------dance-single - ----------------
#NOTES:
     dance-single:
     :
     Challenge:
     9:
     0.315385,0.364969,0.178792,0.248754,0.066075,284.000000,261.000000,23.000000,32.000000,96.000000,0.000000,0.315385,0.364969,0.178792,0.248754,0.066075,284.000000,261.000000,23.000000,32.000000,96.000000,0.000000:
// measure 0
0000
0000
0000
0000
,  // measure 1
0000
0000
0000
0000
,  // measure 2
0000
0000
0000
0000
,  // measure 3
0000
0000
0000
0000
,  // measure 4
0000
0000
0000
0000
,  // measure 5
2000
0100
0000
0100
,  // measure 6
3020
0001
0000
0001
,  // measure 7
0230
1000
0000
1000
,  // measure 8
1300
0000
0100
0000
0001
0000
0010
1000
0000
0000
0000
0000
0000
0000
0000
0000
,  // measure 9
MMMM
0001
0100
0000
1000
0001
1001
0000
,  // measure 10
MMMM
1000
0010
0001
0010
1000
0100
0000
,  // measure 11
0010
0001
0101
0000
0010
1000
1100
0000
,  // measure 12
MMMM
0010
1000
0100
0001
0100
1000
0000
,  // measure 13
0001
0010
0110
0000
1000
0010
0110
0000
,  // measure 14
0001
0010
0100
1000
2000
0000
0002
3003
,  // measure 15
MMMM
0000
1000
0000
0001
0000
1000
0000
0010
0000
0000
0100
0000
0000
0001
0000
,  // measure 16
0010
0100
0001
0100
2000
0000
3000
0000
,  // measure 17
2000
0100
0000
0100
,  // measure 18
3002
0010
0000
0010
,  // measure 19
0203
1000
0000
1000
,  // measure 20
0320
0001
0000
0001
,  // measure 21
0031
0000
0010
0000
1000
0000
0100
0001
0000
0000
0000
0000
0000
0000
0000
0000
,  // measure 22
2001
0000
3010
0000
0102
0000
0013
0100
,  // measure 23
0010
0010
0010
0001
2000
0000
3010
0100
,  // measure 24
0102
0000
0013
0000
2100
0000
3010
0001
,  // measure 25
0010
0010
0010
1000
0002
0000
0013
0000
,  // measure 26
0100
1000
0010
1000
0100
0000
0101
0000
,  // measure 27
0100
0001
0010
0001
0100
0000
1100
0000
,  // measure 28
0021
0130
1020
0130
,  // measure 29
0010
0010
0010
1000
0002
0000
0003
0000
,  // measure 30
MMMM
0001
MMMM
0001
,  // measure 31
MMMM
1000
MMMM
1000
,  // measure 32
1000
0100
0001
1000
0001
0100
1000
0000
,  // measure 33
0001
0000
1000
0000
0010
0000
0100
0010
0000
MMMM
0000
MMMM
0000
0000
0000
0000
,  // measure 34
0001
1000
0010
0001
0010
1000
0001
0000
,  // measure 35
0010
0000
0000
0100
0000
0000
0100
0000
1000
0000
0000
0001
0000
0000
MMMM
0000
,  // measure 36
0001
0100
1000
0001
1000
0100
0001
0000
,  // measure 37
1000
0000
0001
0000
0010
0000
0100
0010
0000
MMMM
0000
MMMM
0000
0000
0000
0000
,  // measure 38
MMMM
1000
MMMM
1000
,  // measure 39
MMMM
0010
MMMM
0010
,  // measure 40
MMMM
0001
MMMM
0001
,  // measure 41
MMMM
0100
MMMM
0100
,  // measure 42
1000
0100
0001
0100
1000
0000
1100
0000
,  // measure 43
0001
0100
1000
0100
0001
0000
0101
0000
,  // measure 44
2000
0000
0000
3001
0000
0000
0000
0000
0002
0000
0000
0000
0003
0000
0000
0010
,  // measure 45
0100
0000
0100
0000
0100
0000
1000
0002
0000
0000
0000
0000
0003
0000
0000
0000
,  // measure 46
0020
0000
0030
MMMM
,  // measure 47
2001
0000
3010
0000
0102
0000
0013
0100
,  // measure 48
0010
0010
0010
0001
2000
0000
3010
0100
,  // measure 49
0102
0000
0013
0000
2100
0000
3010
0001
,  // measure 50
0010
0010
0010
1000
0002
0000
0013
0000
,  // measure 51
0100
1000
0010
1000
0100
0000
0101
0000
,  // measure 52
0100
0001
0010
0001
0100
0000
1100
0000
,  // measure 53
0021
0130
1020
0130
,  // measure 54
0010
0010
0010
1000
0002
0000
0013
0000
,  // measure 55
0100
1000
0001
1000
0010
0001
0010
0000
,  // measure 56
1000
0000
0001
0000
0010
0100
1000
0001
,  // measure 57
0010
0001
1000
0001
0100
1000
0100
0000
,  // measure 58
0001
0000
1000
0000
0100
0000
0010
0100
0000
MMMM
0000
MMMM
0000
0000
0000
0000
;

//---------------dance-single - ----------------
#NOTES:
     dance-single:
     :
     Hard:
     12:
     0.461972,0.593075,0.139924,0.520829,0.516943,416.000000,398.000000,18.000000,67.000000,0.000000,0.000000,0.461972,0.593075,0.139924,0.520829,0.516943,416.000000,398.000000,18.000000,67.000000,0.000000,0.000000:
0000
0000
0000
0000
,
0000
0000
0000
0000
,
0000
0000
0000
0000
,
0000
0000
0000
0000
,
0000
0000
0000
0000
,
2000
0100
0000
0100
,
3002
0100
0000
0100
,
2003
0010
0000
0010
,
3001
0000
0010
0000
0100
0000
1000
0001
0000
0000
0000
0000
0000
0000
0000
0000
,
0000
0000
0010
0000
0110
0000
0000
0000
1000
0001
1000
0001
0010
0000
0000
0000
,
0001
0000
1000
0010
0100
0000
0010
1000
0000
1000
0001
0000
0100
0000
0000
0000
,
0001
0000
0100
0000
0110
0000
0000
0000
1000
0001
1000
0001
0100
0000
0000
0000
,
0001
0000
1000
0100
0010
0100
1000
0001
0000
0001
1000
0000
0010
0000
0100
0001
,
0010
0100
0010
0100
0000
0000
0010
0001
0100
0010
0100
0010
0000
0010
1000
0001
,
0100
0000
0010
1000
0000
1000
0100
0000
0002
0000
0000
0000
0103
0000
0000
0000
,
1000
0000
0100
0000
0010
0000
0100
1000
0001
0010
0001
0010
0000
0100
1000
0001
,
1000
0000
0010
0100
0001
0100
0000
0010
0200
0000
0000
0000
0301
0000
0000
0020
,
0000
0230
0000
0320
0000
0032
0000
2003
0000
3020
0000
0230
0000
0320
0000
2030
,
0000
3002
0000
0203
0000
0320
0000
0230
0000
0000
0000
0000
0301
0000
1000
0000
,
0100
0020
0000
0230
0000
2300
0000
3002
0000
2003
0000
3020
0000
0032
0000
0023
,
0000
2030
0000
3200
0000
0320
0000
0032
0000
0000
2000
0000
0000
0000
0003
0000
,
3001
0000
0010
0000
0100
0000
1000
0001
0000
0000
0000
0000
0000
0000
0000
0000
,
2100
0000
0000
0000
3010
0000
0000
0000
0102
0000
0000
0000
0013
0000
0100
1000
,
0001
0010
0001
0010
0001
0010
0100
0020
0000
0000
0000
0000
0031
0000
1000
0000
,
1020
0000
0000
0000
0130
0000
0000
0000
0201
0000
0000
0000
0310
0000
1000
0001
,
0100
0000
0100
0000
0100
0000
0010
1000
0002
0000
0000
0000
2003
0000
0000
0000
,
3001
0100
1000
0010
0001
0100
0101
0000
,
1000
0100
0001
0010
1000
0100
1100
0000
,
2001
0000
0000
0000
3010
0000
0000
0000
0012
0000
0000
0000
1003
0000
0000
0001
,
0100
0010
0100
0010
0100
0010
1000
0002
0000
1000
0000
1000
0003
0000
0000
0000
,
2000
0001
0000
0001
,
3002
0000
0000
0013
0000
0000
0010
0000
0100
0000
1000
0001
0000
0000
0000
0000
,
0010
0100
0010
0100
1000
0001
1000
0010
0000
0100
0001
0100
0000
0000
0010
0000
,
1000
0000
0100
0000
0001
0000
0100
1000
0000
0000
0001
0000
1000
0000
1000
0000
,
0010
0100
0010
0100
0001
1000
0001
0010
0000
0100
1000
0100
0000
0000
0010
0000
,
0002
0000
0000
1003
0001
0000
0100
0000
0010
0000
1000
0100
0010
0000
0001
0000
,
0010
0100
0010
0100
1000
0001
1000
0010
0000
0100
0001
0100
0000
0000
0010
0000
,
1000
0000
0100
0000
0002
0000
0103
0010
0000
0000
0001
0000
1000
0000
0001
0000
,
2000
0000
0000
3100
0000
0000
0000
0000
0002
0000
0000
0000
0103
0000
0000
0100
,
1000
0000
1000
0000
1000
0000
0001
2000
0000
0000
0000
0000
3001
0000
1000
0000
,
0020
0000
0000
0031
0000
0000
0000
0000
0020
0000
0000
0000
0030
0000
1000
0001
,
0010
0000
0010
0000
0010
0000
0100
2000
0000
0000
0000
0000
3001
0000
0000
0000
,
1000
0100
0001
0010
1000
0000
1000
0000
,
0001
0100
1000
0010
0001
0000
0001
0000
,
2000
0000
0000
3010
0000
0000
0000
0000
0002
0000
0000
0000
0013
0000
0000
0010
,
1000
0000
1000
0000
1000
0000
0100
0002
0000
0000
0000
0000
0003
0000
0000
0000
,
0200
0000
0300
0000
,
2100
0000
0000
0000
3010
0000
0000
0000
0102
0000
0000
0000
0013
0000
0100
1000
,
0001
0010
0001
0010
0001
0010
0100
0020
0000
0000
0000
0000
0031
0000
1000
0000
,
1020
0000
0000
0000
0130
0000
0000
0000
0201
0000
0000
0000
0310
0000
1000
0001
,
0100
0000
0100
0000
0100
0000
0010
1000
0002
0000
0000
0000
2003
0000
0000
0000
,
3001
0100
1000
0010
0001
0100
0101
0000
,
1000
0100
0001
0010
1000
0100
1100
0000
,
2001
0000
0000
0000
3010
0000
0000
0000
0012
0000
0000
0000
1003
0000
0000
0001
,
0100
0010
0100
0010
0100
0010
1000
0002
0000
1000
0003
1000
0001
0000
0001
0000
,
0010
0100
0010
0100
1000
0001
1000
0010
0000
0100
0001
0100
0000
0000
0010
0000
,
1000
0000
0100
0000
0001
0000
0100
0000
1000
0000
1000
0000
0001
2000
0000
3000
,
0100
0010
0100
0010
0001
1000
0001
0100
0000
0010
1000
0010
0000
0000
0100
0000
,
0001
0000
0010
0000
2000
0000
3001
0100
0000
1000
0001
1000
0000
0000
0000
0000
;
