#VERSION:0.83;
#TITLE:Die For You;
#SUBTITLE:;
#ARTIST:Grabbitz;
#TITLETRANSLIT:;
#SUBTITLETRANSLIT:;
#ARTISTTRANSLIT:;
#GENRE:Anime/Game;
#ORIGIN:;
#CREDIT:;
#BANNER:Die For You.png;
#BACKGROUND:Die For You-bg.png;
#PREVIEWVID:;
#JACKET:Die For You-jacket.png;
#CDIMAGE:;
#DISCIMAGE:;
#LYRICSPATH:;
#CDTITLE:../cdtitle.png;
#MUSIC:Die For You.ogg;
#OFFSET:1.924000;
#SAMPLESTART:111.759003;
#SAMPLELENGTH:15.000000;
#SELECTABLE:YES;
#BPMS:0.000=95.000;
#STOPS:;
#DELAYS:;
#WARPS:;
#TIMESIGNATURES:0.000=4=4;
#TICKCOUNTS:0.000=4;
#COMBOS:0.000=1;
#SPEEDS:0.000=1.000=0.000=0;
#SCROLLS:0.000=1.000;
#FAKES:;
#LABELS:0.000=Song Start;
#BGCHANGES:4.000=Die For You.avi=1.000=0=0=0=StretchNoLoop====,
99999=-nosongbg-=1.000=0=0=0 // don't automatically add -songbackground-
;
#KEYSOUNDS:;
#ATTACKS:
;

//---------------dance-single - ----------------
#NOTEDATA:;
#CHARTNAME:;
#STEPSTYPE:dance-single;
#DESCRIPTION:;
#CHARTSTYLE:;
#DIFFICULTY:Beginner;
#METER:1;
#RADARVALUES:0.040989,0.058212,0.000000,0.022071,0.000000,39.000000,39.000000,0.000000,3.000000,0.000000,0.000000,0.000000,0.000000,0.000000,0.040989,0.058212,0.000000,0.022071,0.000000,39.000000,39.000000,0.000000,3.000000,0.000000,0.000000,0.000000,0.000000,0.000000;
#CREDIT:led_light;
#NOTES:
// measure 0
0000
0000
0000
0000
,  // measure 1
0000
0000
0000
0000
,  // measure 2
0000
0000
0000
0000
,  // measure 3
0001
0000
0000
0000
,  // measure 4
0000
0000
0000
0000
,  // measure 5
1000
0000
0000
0000
,  // measure 6
0000
0000
0000
0000
,  // measure 7
1000
0000
0000
0000
,  // measure 8
0000
0000
0000
0000
,  // measure 9
0001
0000
0000
0000
,  // measure 10
0000
0000
0000
0000
,  // measure 11
0100
0000
0000
0000
,  // measure 12
0000
0000
0000
0000
,  // measure 13
0010
0000
0000
0000
,  // measure 14
0000
0000
0000
0000
,  // measure 15
1000
0000
0000
0000
,  // measure 16
0000
0000
0000
0000
,  // measure 17
0001
0000
0000
0000
,  // measure 18
0000
0000
0000
0000
,  // measure 19
1000
0000
0000
0000
,  // measure 20
0100
0000
0000
0000
,  // measure 21
0010
0000
0000
0000
,  // measure 22
0010
0000
0000
0000
,  // measure 23
0001
0000
0000
0000
,  // measure 24
1000
0000
0000
0000
,  // measure 25
0010
0000
0000
0000
,  // measure 26
0010
0000
0000
0000
,  // measure 27
0001
0000
0000
0000
,  // measure 28
0000
0000
0000
0000
,  // measure 29
1000
0000
0000
0000
,  // measure 30
1000
0000
0000
0000
,  // measure 31
0001
0000
0000
0000
,  // measure 32
0010
0000
0000
0000
,  // measure 33
0100
0000
0000
0000
,  // measure 34
0100
0000
0000
0000
,  // measure 35
1000
0000
0000
0000
,  // measure 36
0010
0000
0000
0000
,  // measure 37
1000
0000
0000
0000
,  // measure 38
1000
0000
0000
0000
,  // measure 39
0001
0000
0000
0000
,  // measure 40
0001
0000
0000
0000
,  // measure 41
0020
0000
0000
0000
,  // measure 42
0030
0000
0000
0000
,  // measure 43
2000
0000
0000
0000
,  // measure 44
3000
0000
0000
0000
,  // measure 45
0010
0000
0000
0000
,  // measure 46
0010
0000
0000
0000
,  // measure 47
0001
0000
0000
0000
,  // measure 48
1000
0000
0000
0000
,  // measure 49
0001
0000
0000
0000
,  // measure 50
0001
0000
0000
0000
,  // measure 51
1000
0000
0000
0000
,  // measure 52
0020
0000
0000
0030
;

//---------------dance-single - ----------------
#NOTEDATA:;
#CHARTNAME:;
#STEPSTYPE:dance-single;
#DESCRIPTION:;
#CHARTSTYLE:;
#DIFFICULTY:Easy;
#METER:2;
#RADARVALUES:0.097743,0.116976,0.036785,0.066213,0.000000,93.000000,88.000000,5.000000,9.000000,0.000000,0.000000,0.000000,0.000000,0.000000,0.097743,0.116976,0.036785,0.066213,0.000000,93.000000,88.000000,5.000000,9.000000,0.000000,0.000000,0.000000,0.000000,0.000000;
#CREDIT:led_light;
#NOTES:
// measure 0
0000
0000
0000
0000
,  // measure 1
0000
0000
0000
0000
,  // measure 2
0000
0000
0000
0000
,  // measure 3
0001
0000
0000
0000
,  // measure 4
0001
0000
0001
0000
,  // measure 5
1000
0000
0000
0000
,  // measure 6
1000
0000
1000
0000
,  // measure 7
0100
0000
0000
0000
,  // measure 8
1000
0000
1000
0000
,  // measure 9
0010
0000
0000
0000
,  // measure 10
0100
0000
0100
0000
,  // measure 11
0001
0000
0000
0000
,  // measure 12
0010
0000
0100
0000
,  // measure 13
1000
0000
0000
0000
,  // measure 14
0001
0000
1000
0000
,  // measure 15
0001
0000
0000
0000
,  // measure 16
0100
0000
1000
0000
,  // measure 17
0001
0000
0000
0000
,  // measure 18
0010
0000
1000
0000
,  // measure 19
0002
0000
0003
0000
,  // measure 20
0001
0000
1000
0001
,  // measure 21
1000
0000
1000
0000
,  // measure 22
0001
0000
0001
1000
,  // measure 23
0001
0000
0001
0000
,  // measure 24
0010
0000
1000
0001
,  // measure 25
1000
0000
1000
0000
,  // measure 26
0100
0000
0100
0001
,  // measure 27
2000
0000
0000
0000
,  // measure 28
3000
0000
0000
0000
,  // measure 29
1001
0000
0001
0000
,  // measure 30
1000
0000
1000
0000
,  // measure 31
0100
0000
0010
0000
,  // measure 32
0001
0000
0001
0000
,  // measure 33
1001
0000
1000
0000
,  // measure 34
0001
0000
0001
0000
,  // measure 35
0100
0000
0010
0000
,  // measure 36
2000
0000
3000
0000
,  // measure 37
1000
0000
1000
0000
,  // measure 38
0100
0000
0100
0000
,  // measure 39
0010
0000
0010
0000
,  // measure 40
0001
0000
0001
0000
,  // measure 41
2000
0000
0000
3000
,  // measure 42
0002
0000
0000
0003
,  // measure 43
0200
0000
0000
0300
,  // measure 44
0020
0000
0000
0030
,  // measure 45
0110
0000
0010
0000
,  // measure 46
0100
0000
0100
0000
,  // measure 47
0001
0000
1000
0000
,  // measure 48
0100
0000
1000
0000
,  // measure 49
0110
0000
0010
0000
,  // measure 50
0100
0000
0100
0000
,  // measure 51
1000
0000
0001
0000
,  // measure 52
0100
0000
0001
2002
,  // measure 53
3003
0000
0000
0000
;

//---------------dance-single - ----------------
#NOTEDATA:;
#CHARTNAME:;
#STEPSTYPE:dance-single;
#DESCRIPTION:;
#CHARTSTYLE:;
#DIFFICULTY:Medium;
#METER:5;
#RADARVALUES:0.187078,0.253449,0.125069,0.147140,0.000000,178.000000,161.000000,17.000000,20.000000,0.000000,0.000000,0.000000,0.000000,0.000000,0.187078,0.253449,0.125069,0.147140,0.000000,178.000000,161.000000,17.000000,20.000000,0.000000,0.000000,0.000000,0.000000,0.000000;
#CREDIT:led_light;
#NOTES:
// measure 0
0000
0000
0000
0000
,  // measure 1
0000
0000
0000
0000
,  // measure 2
0000
0000
0000
0000
,  // measure 3
0010
0000
0010
0000
,  // measure 4
0001
0010
1000
0010
,  // measure 5
0001
0000
0001
0000
,  // measure 6
0001
1000
0010
0100
,  // measure 7
0001
0000
0001
0000
,  // measure 8
0010
1000
0100
1000
,  // measure 9
0010
0000
0010
0000
,  // measure 10
0001
0010
0100
1000
,  // measure 11
0001
0000
0010
0000
,  // measure 12
1000
1000
0001
1000
,  // measure 13
0010
0000
0010
1000
,  // measure 14
0010
0001
0100
0010
,  // measure 15
1000
0000
0010
0000
,  // measure 16
0001
0001
1000
0001
,  // measure 17
0010
0000
0010
0001
,  // measure 18
0010
1000
0100
0010
,  // measure 19
0002
0003
0001
1000
,  // measure 20
0010
1000
0100
0010
,  // measure 21
0002
0003
1000
0001
,  // measure 22
0010
0001
0100
0010
,  // measure 23
2000
3000
1000
0001
,  // measure 24
0100
0001
0010
0100
,  // measure 25
2000
3000
0001
1000
,  // measure 26
0100
1000
0010
0100
,  // measure 27
0002
0000
0000
0000
,  // measure 28
0000
0000
0000
0000
,  // measure 29
1003
1100
0001
0101
,  // measure 30
1000
0110
0001
0100
,  // measure 31
0010
1100
0010
1000
,  // measure 32
0100
1000
0002
0003
,  // measure 33
0001
0110
1000
1001
,  // measure 34
0001
0101
0001
1000
,  // measure 35
0100
0110
1000
0001
,  // measure 36
0020
0100
0000
0100
,  // measure 37
0031
0000
0001
0101
,  // measure 38
1000
0000
1000
0011
,  // measure 39
0100
0000
0100
1100
,  // measure 40
0010
0000
0010
0101
,  // measure 41
2000
0000
0000
0010
,  // measure 42
3020
0000
0000
0100
,  // measure 43
0230
0000
0000
0001
,  // measure 44
0302
0000
0000
1003
,  // measure 45
0001
0110
1000
1001
,  // measure 46
0001
0101
0001
1000
,  // measure 47
0100
0110
1000
0001
,  // measure 48
0020
0130
2000
3001
,  // measure 49
2000
0100
0010
3100
,  // measure 50
0002
0010
0100
0013
,  // measure 51
2000
3100
0002
0103
,  // measure 52
2000
0000
0001
0000
0001
3000
0220
0000
,  // measure 53
0330
0000
0000
0000
;

//---------------dance-single - ----------------
#NOTEDATA:;
#CHARTNAME:;
#STEPSTYPE:dance-single;
#DESCRIPTION:;
#CHARTSTYLE:;
#DIFFICULTY:Hard;
#METER:7;
#RADARVALUES:0.245934,0.311937,0.132426,0.353136,0.000000,234.000000,216.000000,18.000000,48.000000,0.000000,0.000000,0.000000,0.000000,0.000000,0.245934,0.311937,0.132426,0.353136,0.000000,234.000000,216.000000,18.000000,48.000000,0.000000,0.000000,0.000000,0.000000,0.000000;
#CREDIT:led_light;
#NOTES:
// measure 0
0000
0000
0000
0000
,  // measure 1
0000
0000
0000
0000
,  // measure 2
0000
0000
0000
0000
,  // measure 3
1000
0000
1000
0001
,  // measure 4
1000
0100
0010
0001
,  // measure 5
1000
0000
0001
0000
,  // measure 6
1000
0001
0100
0010
,  // measure 7
1000
0000
1000
0001
,  // measure 8
1000
0010
0100
0001
,  // measure 9
1000
0000
0001
0000
,  // measure 10
1000
0001
0010
0100
,  // measure 11
1000
0000
0000
0000
1000
0001
0100
0000
,  // measure 12
0002
0023
2030
3200
,  // measure 13
0302
0000
0003
0000
0100
0001
1000
0000
,  // measure 14
0200
1300
0020
0130
,  // measure 15
0002
0000
0003
0000
0001
1000
0100
0000
,  // measure 16
2000
3020
0032
0203
,  // measure 17
2300
0000
3000
0000
0100
1000
0001
0000
,  // measure 18
0200
0000
0301
0000
0020
0000
0130
1000
,  // measure 19
0100
0000
0011
0000
0001
0100
0001
0000
,  // measure 20
2000
3100
0002
0203
,  // measure 21
2300
0000
3000
0000
0001
0010
0001
0000
,  // measure 22
2000
3010
0002
0023
,  // measure 23
2030
0000
3000
0000
0001
0100
0010
0000
,  // measure 24
2000
3002
0023
0230
,  // measure 25
2300
0000
3000
0000
0100
0010
0001
0000
,  // measure 26
2000
0000
3020
0000
0230
0000
0301
1000
,  // measure 27
0002
0000
0000
0000
,  // measure 28
0000
0000
0000
0000
,  // measure 29
1003
0000
1100
0000
0001
0100
0001
0000
,  // measure 30
1000
0000
0110
0000
0001
0010
0100
0010
,  // measure 31
0001
0000
0101
0000
0010
1000
0100
1000
,  // measure 32
0020
0000
0230
0000
0302
0000
1003
0100
,  // measure 33
0001
0000
0011
0000
1000
0010
1000
0000
,  // measure 34
0001
0000
0110
0000
1000
0100
0010
0100
,  // measure 35
1000
0000
1010
0000
0100
0001
0010
0001
,  // measure 36
0200
2300
3020
0032
,  // measure 37
1003
0100
1000
0101
,  // measure 38
0010
1000
0010
1100
,  // measure 39
0001
0010
0001
1010
,  // measure 40
0100
0001
0100
0011
,  // measure 41
2000
0000
0100
3100
,  // measure 42
0002
0000
0010
0013
,  // measure 43
2000
0000
0100
0000
3010
1000
0100
0000
,  // measure 44
0010
0100
0010
0000
0001
0100
0002
0000
,  // measure 45
1003
0000
1010
0000
0001
0010
0001
0000
,  // measure 46
1000
0000
0110
0000
0001
0100
0010
0100
,  // measure 47
0001
0000
0011
0000
0100
1000
0010
1000
,  // measure 48
0200
0000
0320
0000
0032
0000
1003
0010
,  // measure 49
1000
0100
0010
0000
0100
1000
1010
0000
,  // measure 50
0100
0001
0100
0000
0010
1000
1001
0000
,  // measure 51
1000
0010
0100
0000
0010
1000
1100
0000
,  // measure 52
0010
0001
0010
0000
0100
1000
2002
0000
,  // measure 53
3003
0000
0000
0000
;

//---------------dance-single - ----------------
#NOTEDATA:;
#CHARTNAME:;
#STEPSTYPE:dance-single;
#DESCRIPTION:;
#CHARTSTYLE:;
#DIFFICULTY:Challenge;
#METER:9;
#RADARVALUES:0.337371,0.448409,0.154497,0.411992,0.099319,321.000000,300.000000,21.000000,56.000000,0.000000,0.000000,0.000000,0.000000,0.000000,0.337371,0.448409,0.154497,0.411992,0.099319,321.000000,300.000000,21.000000,56.000000,0.000000,0.000000,0.000000,0.000000,0.000000;
#CREDIT:led_light;
#NOTES:
// measure 0
0000
0000
0000
0000
,  // measure 1
0000
0000
0000
0000
,  // measure 2
0000
0000
0000
0000
,  // measure 3
0001
0000
1000
0000
0100
1000
0001
0000
,  // measure 4
0100
0000
0010
0000
0100
0001
1000
0000
,  // measure 5
0100
0000
0010
0000
0100
1000
0001
0000
,  // measure 6
0010
0010
0001
0000
0200
0000
0320
0000
,  // measure 7
2030
0000
3001
0000
0100
0001
0010
0000
,  // measure 8
0100
0000
1000
0000
0001
0100
0010
0000
,  // measure 9
1000
0000
0001
0000
1000
0100
0001
0000
,  // measure 10
1000
1000
0001
0000
0200
0000
2300
0000
,  // measure 11
3002
0000
0003
0000
1000
0001
0100
0001
,  // measure 12
0020
0230
2300
3002
,  // measure 13
0203
0000
0300
0000
0001
1000
0010
0100
,  // measure 14
0002
0000
0103
0010
2000
0000
3100
0010
,  // measure 15
0002
0000
0003
0000
1000
0001
0010
0001
,  // measure 16
0200
0320
2030
3002
,  // measure 17
0023
0000
0030
0000
0001
1000
0100
0010
,  // measure 18
0002
0000
0023
0000
2030
0000
3001
0100
,  // measure 19
2000
3000
0110
0000
0100
1000
0010
1000
,  // measure 20
0001
0100
1000
0100
0020
1000
2030
0000
,  // measure 21
3002
0003
0101
0000
0010
1000
0100
1000
,  // measure 22
0001
0010
1000
0010
0200
1000
2300
0000
,  // measure 23
3002
0003
0101
0000
0010
1000
0100
1000
,  // measure 24
0020
0032
0203
2300
,  // measure 25
3002
0003
0011
0000
0100
1000
0010
1000
,  // measure 26
0200
0000
0302
0000
0023
0000
1030
0001
,  // measure 27
2000
0000
0000
0000
,  // measure 28
0000
0000
0000
0000
,  // measure 29
3010
0000
0000
0000
0101
0000
0010
0100
0000
0010
0100
0000
0001
0000
1000
0000
,  // measure 30
0100
0010
0001
0000
0101
0000
0010
0100
0000
0010
0100
0000
0001
0000
1000
0000
,  // measure 31
0110
0000
0000
0000
1000
0000
0001
0010
0100
0000
1000
0000
0001
0000
0100
0000
,  // measure 32
0020
0000
2030
0000
3200
0000
0301
0100
,  // measure 33
0011
0000
0000
0000
1010
0000
0100
0010
0000
0100
0010
0000
1000
0000
0001
0000
,  // measure 34
0010
0100
1000
0000
1010
0000
0100
0010
0000
0100
0010
0000
1000
0000
0001
0000
,  // measure 35
0110
0000
0000
0000
0001
0000
1000
0100
0010
0000
0001
0000
1000
0000
0010
0000
,  // measure 36
0200
1000
0320
2030
,  // measure 37
3002
0100
0010
0103
,  // measure 38
2000
0100
0010
3100
,  // measure 39
0002
0000
0013
0000
1000
0100
1000
0000
,  // measure 40
2000
0000
3010
0000
0001
0010
0001
0100
,  // measure 41
0020
0000
0100
0000
0130
0001
1100
0000
,  // measure 42
0200
0000
0010
0000
0310
1000
0011
0000
,  // measure 43
0010
0100
0010
0100
1000
0001
1000
0001
,  // measure 44
0100
0010
0100
0000
0010
0000
1000
0000
0100
0010
0100
0000
0201
0000
0000
0000
,  // measure 45
1300
0000
0000
0000
1010
0000
0100
0010
0000
0100
0010
0000
1000
0000
0001
0000
,  // measure 46
0010
0100
1000
0000
1010
0000
0100
0010
0000
0100
0010
0000
1000
0000
0001
0000
,  // measure 47
0110
0000
0000
0000
0001
0000
1000
0100
0010
0000
0001
0000
1000
0000
0010
0000
,  // measure 48
0200
0000
0302
0000
0023
0000
1030
0010
,  // measure 49
0001
0010
0001
0000
1000
0000
0010
0000
0100
0000
0010
0000
1100
0000
0000
0000
,  // measure 50
0001
0100
0001
0000
1000
0000
0100
0000
0010
0001
0010
0000
1001
0000
0000
0000
,  // measure 51
1000
0100
1000
0000
0001
0000
0100
0000
0010
0100
0010
0000
0011
0000
0000
0000
,  // measure 52
1000
0010
1000
0000
0001
0000
0010
0000
0100
1000
0001
0000
2002
0000
0000
0000
,  // measure 53
3003
0000
0000
0000
;

//---------------dance-double - ----------------
#NOTEDATA:;
#CHARTNAME:;
#STEPSTYPE:dance-double;
#DESCRIPTION:;
#CHARTSTYLE:;
#DIFFICULTY:Easy;
#METER:2;
#RADARVALUES:0.088284,0.155968,0.022071,0.102998,0.000000,84.000000,81.000000,3.000000,14.000000,0.000000,0.000000,0.000000,0.000000,0.000000,0.088284,0.155968,0.022071,0.102998,0.000000,84.000000,81.000000,3.000000,14.000000,0.000000,0.000000,0.000000,0.000000,0.000000;
#CREDIT:led_light;
#NOTES:
00000000
00000000
00000000
00000000
,
00000000
00000000
00000000
00000000
,
00000000
00000000
00000000
00000000
,
10000000
00000000
00000000
00000000
,
10000000
00000000
10000000
00000000
,
00010000
00000000
00000000
00000000
,
00010000
00000000
00010000
00000000
,
01000000
00000000
00000000
00000000
,
00001000
00000000
00001000
00000000
,
00010000
00000000
00000000
00000000
,
00000100
00000000
00000100
00000000
,
00010000
00000000
00000000
00000000
,
00000010
00000000
00001000
00000000
,
00000001
00000000
00000000
00000000
,
00000100
00000000
00000001
00000000
,
00001000
00000000
00000000
00000000
,
00010000
00000000
10000000
00000000
,
00100000
00000000
00000000
00000000
,
01000000
00000000
00010000
00000000
,
20000000
00000000
30000000
00000000
,
10000000
00000000
10000000
00000000
,
00020000
00000000
00030000
00000000
,
00001000
00000000
00001000
00000000
,
00020000
00000000
00030000
00000000
,
00001000
00000000
00000100
00000000
,
00000002
00000000
00000003
00000000
,
00000010
00000000
00001000
00000000
,
00020000
00000000
00000000
00000000
,
00030000
00000000
00000000
00000000
,
00001000
00000000
00001000
00000000
,
00010000
00000000
00010000
00000000
,
01000000
00000000
01000000
00000000
,
20000000
00000000
30000000
00000000
,
10010000
00000000
00100000
00000000
,
10000000
00000000
01000000
00000000
,
00100000
00000000
00001000
00000000
,
00020000
00000000
00000000
00030000
,
00001000
00000000
00000000
00000000
,
00001000
00000000
00000000
00000000
,
00000001
00000000
00000000
00000000
,
00000001
00000000
00000000
00000000
,
00002000
00000000
00000000
00003000
,
00020000
00000000
00000000
00030000
,
00200000
00000000
00000000
00300000
,
10000000
10000000
20000000
30000000
,
10010000
00000000
00010000
00000000
,
00100000
00000000
01000000
00000000
,
00010000
00000000
00000100
00000000
,
00020000
00000000
00030000
00000000
,
00000010
00000010
00000010
00000000
,
00001000
00001000
00001000
00000000
,
00000100
00000100
00000100
00000000
,
00000010
00000100
00000010
00002002
,
00003003
00000000
00000000
00000000
;

//---------------dance-double - ----------------
#NOTEDATA:;
#CHARTNAME:;
#STEPSTYPE:dance-double;
#DESCRIPTION:;
#CHARTSTYLE:;
#DIFFICULTY:Medium;
#METER:5;
#RADARVALUES:0.171313,0.233953,0.095641,0.250138,0.000000,163.000000,150.000000,13.000000,34.000000,0.000000,0.000000,0.000000,0.000000,0.000000,0.171313,0.233953,0.095641,0.250138,0.000000,163.000000,150.000000,13.000000,34.000000,0.000000,0.000000,0.000000,0.000000,0.000000;
#CREDIT:led_light;
#NOTES:
00000000
00000000
00000000
00000000
,
00000000
00000000
00000000
00000000
,
00000000
00000000
00000000
00000000
,
00001000
00000000
00001000
00000000
,
00001000
00000000
00010000
01000000
,
10000000
00000000
10000000
00000000
,
10000000
00000000
00100000
00010000
,
00001000
00000000
00001000
00000000
,
00010000
00000000
00000100
00000010
,
00000001
00000000
00000001
00000000
,
00001000
00000000
00010000
00100000
,
00010000
00000000
00010000
01000000
,
00200000
00300000
20000000
30000000
,
00020000
00030000
01000000
00001000
,
00020000
00030000
00000200
00000300
,
00002000
00003000
00001000
00000010
,
00000200
00000300
00000002
00000003
,
00002000
00003000
00000010
00010000
,
00002000
00003000
00200000
00300000
,
00002000
00003000
00000100
00001000
,
00010000
00010000
00000010
00001000
,
00020000
00030000
01000000
00010000
,
00001000
00001000
00100000
00010000
,
00002000
00003000
00001000
00010000
,
00001000
00000010
00001000
00000010
,
00000002
00000003
00000001
00001000
,
00000010
00000100
00000010
00010000
,
00002000
00000000
00000000
00000000
,
00000000
00000000
00000000
00000000
,
00013000
00110000
00010000
01010000
,
00010000
00100000
01000000
10000000
,
00100000
01100000
00010000
10000000
,
00010000
00100000
00200000
00300000
,
00001000
00001010
00001000
00001100
,
00001000
00000010
00000100
00000001
,
00000010
00000110
00001000
00000001
,
00002000
00000000
00003020
00000000
,
00000130
00000000
00000100
00001010
,
00000001
00000000
00000001
00001100
,
00000010
00000000
00000010
00011000
,
01000000
00000000
01000000
00001000
,
00020000
00000000
00002000
00033000
,
00000200
00000000
00020000
00030300
,
00000020
00000000
00000200
00000330
,
00000002
00000010
00000020
00000033
,
00001000
00001100
00001000
00001010
,
00001000
00000100
00000010
00000001
,
00000100
00000110
00001000
00000001
,
00001000
00000100
00000200
00000300
,
00020000
00001000
00001000
00031000
,
20000000
00010000
00010000
30010000
,
02000000
00100000
00100000
03100000
,
00020000
00031000
00010000
00022000
,
00033000
00000000
00000000
00000000
;

//---------------dance-double - ----------------
#NOTEDATA:;
#CHARTNAME:;
#STEPSTYPE:dance-double;
#DESCRIPTION:;
#CHARTSTYLE:;
#DIFFICULTY:Hard;
#METER:7;
#RADARVALUES:0.253291,0.350929,0.132426,0.331065,0.000000,241.000000,223.000000,18.000000,45.000000,0.000000,0.000000,0.000000,0.000000,0.000000,0.253291,0.350929,0.132426,0.331065,0.000000,241.000000,223.000000,18.000000,45.000000,0.000000,0.000000,0.000000,0.000000,0.000000;
#CREDIT:led_light;
#NOTES:
00000000
00000000
00000000
00000000
,
00000000
00000000
00000000
00000000
,
00000000
00000000
00000000
00000000
,
00000001
00000000
00000001
00000000
,
00001000
00000100
00000001
00000100
,
00001000
00000000
00001000
00000000
,
00000010
00000100
00001000
00000100
,
00000010
00000000
00000010
00000000
,
00010000
00001000
00000010
00001000
,
00010000
00000000
00010000
00000000
,
00001000
00010000
00100000
00010000
,
00001000
00000000
00000000
00000000
00001000
01000000
00001000
00000000
,
00020000
02030000
23000000
30200000
,
00320000
00000000
00030000
00000000
00100000
01000000
00100000
00000000
,
20000000
00000000
30010000
00100000
00020000
00000000
10030000
01000000
,
00020000
00000000
00030000
00000000
00010000
00000100
00010000
00000000
,
00002000
00003200
00000302
00000023
,
00002030
00000000
00003000
00000000
00000010
00000100
00000010
00000000
,
00000002
00000000
00001003
00000000
00000020
00000000
00000130
00000001
,
00001000
00000000
00000110
00000000
00001000
00000100
00000001
00000100
,
00002000
00003010
00020000
00032000
,
00203000
00000000
00300000
00000000
00010000
00100000
10000000
00100000
,
00020000
01030000
00002000
00023000
,
00030200
00000000
00000300
00000000
00010000
01000000
10000000
00000000
,
00200000
00320000
00032000
00003020
,
00000032
00000000
00000003
00000000
00001000
00000010
00000001
00000000
,
00002000
00000000
00003200
00000000
00000302
00000000
00001003
00000100
,
00020000
00000000
00000000
00000000
,
00000000
00000000
00000000
00000000
,
00031000
00000000
10010000
00000000
00001000
00010000
00001000
00000000
,
00000100
00000000
00000101
00000000
00000010
00001000
00000100
00001000
,
00000010
00000000
00001100
00000000
00000001
00001000
00000010
00000100
,
00000002
00000000
00000023
00000000
00002030
00000000
00013000
00001000
,
00010000
00000000
00001001
00000000
00010000
00001000
00010000
00000000
,
00100000
00000000
10100000
00000000
01000000
00010000
00100000
00010000
,
01000000
00000000
00110000
00000000
10000000
00010000
01000000
00100000
,
20000000
01000000
30200000
01000000
,
00310000
00001000
00010000
01010000
,
00001000
00010000
00001000
00001100
,
00000010
00000100
00000010
00011000
,
00000100
00000010
00000100
00001001
,
00000002
00000000
00001000
00001003
,
00000200
00000000
00000010
00000310
,
00001000
00000010
00001000
00000000
00100000
00001000
00100000
00000000
,
00010000
01000000
00100000
00000000
10000000
01000000
00020000
00000000
,
00031000
00000000
10010000
00000000
00001000
00010000
00001000
00000000
,
00000100
00000000
00000101
00000000
00000010
00001000
00000100
00001000
,
00000010
00000000
00001100
00000000
00000001
00001000
00000010
00000100
,
00000002
00000000
00000023
00000000
00002030
00000000
00013000
00001000
,
00100000
00010000
01000000
00001000
00100000
00010000
00011000
00000000
,
00000100
00001000
00000001
00000100
00000010
00001000
00001001
00000000
,
00000010
00001000
00000100
00010000
00000010
00001000
00011000
00000000
,
01000000
00010000
10000000
01000000
00100000
00010000
20020000
00000000
,
30030000
00000000
00000000
00000000
;

//---------------dance-double - ----------------
#NOTEDATA:;
#CHARTNAME:;
#STEPSTYPE:dance-double;
#DESCRIPTION:;
#CHARTSTYLE:;
#DIFFICULTY:Challenge;
#METER:9;
#RADARVALUES:0.323708,0.448409,0.154497,0.426706,0.099319,308.000000,287.000000,21.000000,58.000000,0.000000,0.000000,0.000000,0.000000,0.000000,0.323708,0.448409,0.154497,0.426706,0.099319,308.000000,287.000000,21.000000,58.000000,0.000000,0.000000,0.000000,0.000000,0.000000;
#CREDIT:led_light;
#NOTES:
00000000
00000000
00000000
00000000
,
00000000
00000000
00000000
00000000
,
00000000
00000000
00000000
00000000
,
00000001
00000000
00000010
00000000
00000001
00000100
00000010
00000000
,
00001000
00000000
00000100
00000000
00001000
00000010
00010000
00000000
,
00001000
00000000
00010000
00000000
00001000
00100000
01000000
00000000
,
10000000
10000000
00010000
00000000
02000000
00000000
03200000
00000000
,
20300000
00000000
30000000
00000000
10000000
01000000
00100000
00000000
,
00010000
00000000
01000000
00000000
00010000
00100000
00001000
00000000
,
00010000
00000000
00001000
00000000
00010000
00000010
00000100
00000000
,
00000001
00000001
00001000
00000000
00000200
00000000
00000320
00000000
,
00000032
00000000
00000003
00000000
00000001
00000100
00001000
00000100
,
00000002
00000023
00002030
00023000
,
00230000
00000000
00300000
00000000
10000000
00100000
01000000
00010000
,
00200000
00000000
01300000
10000000
00020000
00000000
01030000
00100000
,
20000000
00000000
30000000
00000000
10000000
00100000
00010000
00100000
,
20000000
32000000
03020000
00032000
,
00003200
00000000
00000300
00000000
00000001
00000100
00000010
00001000
,
00000200
00000000
00000302
00000000
00002003
00000000
00003010
00000001
,
00002000
00000000
00003000
00000000
00000100
00001000
00000010
00000100
,
00000001
00000100
00000010
00001000
00000200
00000000
00020300
00000000
,
00032000
00000000
00003000
00000000
00100000
00010000
01000000
00100000
,
10000000
00100000
01000000
00010000
00200000
00000000
00302000
00000000
,
00023000
00000000
00030000
00000000
00001000
01000000
00010000
01000000
,
00200000
20300000
32000000
03020000
,
00032000
00000000
00003000
00000000
00000100
00000010
00001000
00000010
,
00000200
00000000
00000302
00000000
00000023
00000000
00001030
00010000
,
00002000
00000000
00000000
00000000
,
00000000
00000000
00000000
00000000
,
00003010
00000000
00000000
00000000
00001100
00000000
00010000
00001000
00000000
00010000
00001000
00000000
00100000
00000000
00010000
00000000
,
10000000
00000000
00010000
00000000
00011000
00000000
00100000
00010000
00000000
00100000
00010000
00000000
10000000
00000000
00010000
00000000
,
01100000
00000000
00000000
00000000
00010000
00000000
01000000
00000000
00100000
01000000
00100000
00000000
01000000
00000000
00001000
00000000
,
00020000
00000000
00030200
00000000
00000320
00000000
00002030
00003000
,
00110000
00000000
00000000
00000000
01010000
00000000
00001000
00010000
00000000
00001000
00010000
00000000
00000100
00000000
00001000
00000000
,
00000010
00000100
00000010
00000000
00011000
00000000
00000010
00001000
00000000
00000010
00001000
00000000
00000001
00000000
00001000
00000000
,
00000110
00000000
00000000
00000000
00001000
00000000
00000100
00000000
00000010
00000100
00000010
00000000
00000100
00000000
00010000
00000000
,
00002000
00003020
00000032
00000203
,
00002300
00010000
00013000
00110000
,
20000000
01000000
31000000
01100000
,
00020000
00001000
00031000
00001100
,
00000002
00000010
00000013
00000110
,
00002000
00000000
00000000
00000000
00003010
00001000
00011000
00000000
,
00020000
00000000
00000000
00000000
00130000
00010000
00011000
00000000
,
01000000
00001000
01000000
00001000
00010000
00000100
00010000
00000100
,
00000010
00000100
00000010
00000000
00001000
00000000
00010000
00000000
00100000
01000000
00100000
00000000
20100000
00000000
00000000
00000000
,
31000000
00000000
00000000
00000000
00110000
00000000
00001000
00010000
00000000
00001000
00010000
00000000
00000010
00000000
00001000
00000000
,
00000100
00000010
00000100
00000000
00011000
00000000
00000100
00001000
00000000
00000100
00001000
00000000
00000001
00000000
00001000
00000000
,
00000110
00000000
00000000
00000000
00001000
00000000
00000010
00000000
00000100
00000010
00000100
00000000
00000010
00000000
00010000
00000000
,
00002000
00000000
00203000
00000000
02300000
00000000
13000000
00010000
,
10000000
00100000
10000000
00000000
00010000
00000000
00100000
00000000
01000000
10000000
01000000
00000000
01100000
00000000
00000000
00000000
,
00010000
00001000
00010000
00000000
00000100
00000000
00010000
00000000
00001000
00000100
00000001
00000000
00001001
00000000
00000000
00000000
,
00000001
00000100
00000001
00000000
00001000
00000000
00000100
00000000
00000010
00000001
00000010
00000000
00000110
00000000
00000000
00000000
,
00001000
00010000
00001000
00000000
00100000
00000000
00001000
00000000
00010000
00100000
10000000
00000000
20020000
00000000
00000000
00000000
,
30030000
00000000
00000000
00000000
;
