#TITLE:Diamond City Lights;
#SUBTITLE:;
#ARTIST:LazuLight;
#TITLETRANSLIT:;
#SUBTITLETRANSLIT:;
#ARTISTTRANSLIT:;
#GENRE:にじさんじ;
#CREDIT:;
#BANNER:Diamond City Lights.png;
#BACKGROUND:../bg.png;
#LYRICSPATH:;
#CDTITLE:../cdtitle.png;
#MUSIC:Diamond City Lights.ogg;
#OFFSET:0.912000;
#SAMPLESTART:57.584999;
#SAMPLELENGTH:15.000000;
#SELECTABLE:YES;
#BPMS:0.000000=182.000000
;
#STOPS:66.937500=0.330000
;
#BGCHANGES:3.000=Diamond City Lights.avi=1.000=0=0=0=StretchNoLoop====,
99999=-nosongbg-=1.000=0=0=0 // don't automatically add -songbackground-
;
#KEYSOUNDS:;
#ATTACKS:;

//---------------dance-single - ----------------
#NOTES:
     dance-single:
     :
     Hard:
     11:
     0.430682,0.554434,0.231165,0.443066,0.000000,313.000000,289.000000,24.000000,46.000000,0.000000,0.000000,0.430682,0.554434,0.231165,0.443066,0.000000,313.000000,289.000000,24.000000,46.000000,0.000000,0.000000:
// measure 0
0000
0000
0000
0000
,  // measure 1
0000
0000
0000
0000
,  // measure 2
0000
0000
0000
0000
,  // measure 3
0000
0000
0000
0000
,  // measure 4
0000
0000
0000
0000
,  // measure 5
0000
0000
0000
0000
,  // measure 6
0000
0000
0000
0000
,  // measure 7
0000
0000
0000
0000
,  // measure 8
0000
0000
0000
0000
,  // measure 9
2000
0000
3000
0000
,  // measure 10
0020
0000
0030
0000
,  // measure 11
0200
0000
0002
0000
,  // measure 12
0000
0000
0303
0000
,  // measure 13
0020
0000
0030
0000
,  // measure 14
0200
0000
1300
0000
,  // measure 15
0002
0000
0000
0000
,  // measure 16
0000
0000
0000
0000
0000
0000
0000
0000
0000
0000
0000
0003
1001
0000
0000
0000
,  // measure 17
0100
0010
0010
1000
,  // measure 18
0100
0001
0100
0010
,  // measure 19
0010
0200
1000
0000
1300
0000
0001
0000
,  // measure 20
0001
0020
0100
0000
0100
0000
0031
0000
,  // measure 21
1000
0010
0010
0100
,  // measure 22
0010
1000
0000
0001
0100
0001
0000
0100
,  // measure 23
0020
1000
1000
0130
,  // measure 24
0001
1001
0101
2100
,  // measure 25
3001
1000
0001
1000
,  // measure 26
1000
0010
0010
0002
,  // measure 27
0103
0002
0013
1000
,  // measure 28
1000
0100
1000
0001
,  // measure 29
0101
0000
0010
0000
0010
0000
0100
0001
,  // measure 30
0100
0001
0010
0100
1000
0000
1010
0000
,  // measure 31
1000
0100
0000
0100
0001
0000
0001
0010
,  // measure 32
0000
0010
1000
0000
0100
0000
0001
0000
,  // measure 33
0001
0000
0120
0000
0031
0000
0100
0010
,  // measure 34
0100
2010
3001
0010
,  // measure 35
0010
0000
2100
0000
3001
0000
0010
0100
,  // measure 36
0010
0000
0001
0100
0010
2000
0000
3100
,  // measure 37
0010
0100
0010
0000
1000
0000
0010
0000
,  // measure 38
0001
0000
0010
0000
0100
2000
0000
3100
,  // measure 39
0010
0000
0001
0100
0001
0000
1000
0010
,  // measure 40
1000
0010
0100
0001
0010
2000
0000
3010
,  // measure 41
0001
0000
1000
0100
0010
0002
0000
0103
,  // measure 42
0010
0000
1000
0010
0100
0002
0000
0103
,  // measure 43
0010
1000
0001
0010
0000
0220
0000
0000
,  // measure 44
0330
0000
0000
0100
0010
0000
1001
0000
,  // measure 45
0001
0010
0100
1000
0000
0020
0000
0130
,  // measure 46
0001
1000
0000
0010
0100
0010
1000
0100
,  // measure 47
1000
0100
0010
0001
0000
2010
0000
3001
,  // measure 48
0010
0100
0000
0010
0100
1000
0001
0000
,  // measure 49
0101
0000
1000
0010
0100
0002
0000
0103
,  // measure 50
0010
0000
1010
0000
0001
1000
0100
0001
,  // measure 51
0100
1000
0000
0101
0000
2010
0000
3001
,  // measure 52
0010
1000
0000
0001
0100
1000
0010
0000
,  // measure 53
0110
0000
1000
0001
0000
0020
0000
0031
,  // measure 54
0100
0010
0000
1000
0100
0010
0001
0000
,  // measure 55
0010
0000
0110
0000
0001
2000
0000
3100
,  // measure 56
0010
0100
0000
1000
0000
1000
0002
0000
,  // measure 57
0103
0000
0010
1000
0010
0000
2000
0000
,  // measure 58
3100
0000
0010
0001
0010
0001
0100
0000
,  // measure 59
0010
0000
1001
0000
0001
0020
0000
0031
,  // measure 60
0100
0001
0000
1000
0010
0100
0002
0000
,  // measure 61
0000
0000
0000
0000
0003
0000
0110
0110
,  // measure 62
0000
0000
0000
0000
0000
1002
0000
0103
,  // measure 63
0010
2000
3100
2000
,  // measure 64
3010
2000
3100
0020
,  // measure 65
0100
1000
0031
2000
,  // measure 66
0100
0000
3001
0100
0001
2000
0000
3010
,  // measure 67
0100
0000
0001
0100
1000
0200
0000
0301
,  // measure 68
1000
0000
0010
0100
0001
2000
0000
3010
,  // measure 69
0100
0000
0100
0010
1000
0002
0000
0013
,  // measure 70
0100
0000
0010
0100
1000
0002
0000
0000
,  // measure 71
0000
0000
0003
0000
0010
0110
0000
0100
,  // measure 72
0010
0100
1000
0001
0000
0220
0000
0000
,  // measure 73
0000
0000
0000
0000
,  // measure 74
0000
0000
0000
0030
,  // measure 75
0000
0000
0000
0000
,  // measure 76
0000
0000
0000
0300
;

//---------------dance-double - ----------------
#NOTES:
     dance-double:
     :
     Hard:
     12:
     0.459578,0.591397,0.202269,0.443066,0.000000,334.000000,313.000000,21.000000,46.000000,0.000000,0.000000,0.459578,0.591397,0.202269,0.443066,0.000000,334.000000,313.000000,21.000000,46.000000,0.000000,0.000000:
00000000
00000000
00000000
00000000
,
00000000
00000000
00000000
00000000
,
00000000
00000000
00000000
00000000
,
00000000
00000000
00000000
00000000
,
00000000
00000000
00000000
00000000
,
00000000
00000000
00000000
00000000
,
00000000
00000000
00000000
00000000
,
00000000
00000000
00000000
00000000
,
00000000
00000000
00000000
00000000
,
00020000
00000000
00031000
00000000
,
00002000
00000000
00003100
00000000
,
00000002
00000000
00002000
00000000
,
00000000
00000000
00003003
00000000
,
00000002
00000000
00000013
00000000
,
00000020
00000000
00001030
00000000
,
00020000
00000000
00000000
00000000
,
00000000
00000000
00000000
00000000
00000000
00000000
00000000
00000000
00000000
00000000
00000000
00030000
00001000
00000000
00000000
00000000
,
00001000
00000000
00100000
00000000
00001000
00010000
00001000
00000000
,
01000000
00010000
10000000
02000000
,
03100000
01000000
00100000
00000000
00100000
00000000
00002000
00000000
,
00013000
00001000
00010000
00000000
00010000
00000000
00000100
00000000
,
00010000
00000100
00010000
00001000
,
00000100
00000001
00000000
00000100
00000010
00000100
00000000
00000010
,
00002000
00000100
00000100
00003001
,
00000100
00000010
00001000
00001002
,
00000103
00000001
00000100
00000010
,
00001000
00000100
00000001
00002000
,
00003010
00002000
00013000
00001000
,
00001000
00100000
00001000
00012000
,
00003100
00000000
00000010
00000000
00000010
00000000
00000100
00001000
,
00000100
00001000
00000100
00000001
00000010
00000000
00000110
00000000
,
00001000
00010000
00001000
00010000
00000100
00010000
00001000
00000100
,
00000010
00000001
00000020
00000000
00020030
00000000
00031000
00000000
,
00001000
00000000
01200000
00000000
00310000
00000000
10000000
01000000
,
10000000
10200000
01300000
00010000
,
00010000
12000000
03010000
02000000
,
03100000
00000000
00100000
01000000
00100000
00010000
00000000
10000000
,
01000000
00010000
00001000
00000000
00001000
00000000
00000100
00000000
,
00000100
00000000
00000001
00000000
00000100
00000020
00000000
00001030
,
00000001
00000000
00000010
00000100
00000010
00000000
00000001
00000100
,
00000001
00000100
00000010
00010000
00001000
00200000
00000000
00301000
,
00010000
00000000
00001000
00000100
00001000
00020000
00000000
00031000
,
00100000
00000000
00001000
00010000
01000000
00020000
00000000
00031000
,
00000010
00000100
00010000
00001000
00000000
00022000
00000000
00000000
,
00033000
00000000
00000000
01100000
,
00010000
01000000
00100000
10000000
01000000
00020000
00000000
01030000
,
10000000
00020000
00000000
00130000
01000000
10000000
00100000
01000000
,
10000000
01000000
00100000
00010000
00001000
00020000
00000000
00031000
,
00000100
00001000
00000000
00000100
00000001
00001000
00000010
00000000
,
00000110
00000000
00000001
00000010
00001000
00020000
00000000
00031000
,
00000010
00000000
00000110
00000000
00001000
00000010
00000001
00000100
,
00001000
00010000
00000000
00110000
00000000
20100000
00000000
31000000
,
00100000
00010000
00000000
00100000
01000000
10000000
00100000
00000000
,
00100000
01000000
00010000
10000000
00100000
02000000
00000000
03001000
,
00010000
00002000
00000000
00013000
00000100
00000010
00000001
00000000
,
00001000
00000000
00000110
00000000
00000001
00002000
00000000
00003100
,
00000010
00000100
00000000
00000010
00000001
00001000
00000200
00000000
,
00000310
00000000
00000100
00001000
00000100
00001000
00000020
00000000
,
00000130
00000000
00001000
00010000
00001000
00010000
00100000
00000000
,
00010000
00000000
00011000
00000000
00001000
02000000
00000000
03001000
,
00010000
00001000
00000000
00010000
01000000
00100000
02200000
00000000
,
00000000
00000000
00000000
00000000
03300000
00000000
10010000
10010000
,
00000000
00000000
00000000
00000000
00000000
01100000
00000000
00010000
,
10000000
00000000
00010000
01000000
00100000
00000000
10000000
01000000
,
00010000
00001000
00010000
00001000
00000010
00000000
00001000
00010000
,
00001000
00000000
01000000
00001000
00010000
00001000
00000000
00010000
,
00000100
00000000
00001000
00000010
00000100
00000002
00000000
00000103
,
00000001
00000100
00001000
00010000
01000000
20000000
00000000
31000000
,
00100000
01000000
10000000
01000000
00010000
00001000
00000000
00001000
,
00100000
00001000
00010000
00001000
01000000
00002000
00000000
00003100
,
00001000
00010000
01000000
00100000
00010000
00210000
00000000
00000000
,
10000000
00000000
10000000
00000000
01300000
21000000
00000000
30100000
,
10000000
01000000
00010000
00001000
00010000
00022000
00000000
00000000
,
00000000
00000000
00000000
00000000
,
00000000
00000000
00000000
00003000
,
00000000
00000000
00000000
00000000
,
00000000
00000000
00000000
00030000
;

//---------------dance-double - ----------------
#NOTES:
     dance-double:
     :
     Medium:
     9:
     0.353627,0.480510,0.163742,0.375643,0.000000,257.000000,240.000000,17.000000,39.000000,0.000000,0.000000,0.353627,0.480510,0.163742,0.375643,0.000000,257.000000,240.000000,17.000000,39.000000,0.000000,0.000000:
00000000
00000000
00000000
00000000
,
00000000
00000000
00000000
00000000
,
00000000
00000000
00000000
00000000
,
00000000
00000000
00000000
00000000
,
00000000
00000000
00000000
00000000
,
00000000
00000000
00000000
00000000
,
00000000
00000000
00000000
00000000
,
00000000
00000000
00000000
00000000
,
00000000
00000000
00000000
00000000
,
00200000
00000000
00300000
00000000
,
00000020
00000000
00000030
00000000
,
00020000
00000000
00002000
00000000
,
00000000
00000000
00033000
00000000
,
00000200
00000000
00000300
00000000
,
02000000
00000000
03010000
00000000
,
00002000
00000000
00000000
00000000
,
00000000
00000000
00000000
00000000
00000000
00000000
00000000
00000000
00000000
00000000
00000000
00003000
00010000
00000000
00000000
00000000
,
00010000
00001000
00001000
00100000
,
01000000
00010000
00001000
00000010
,
00000010
00000100
00000100
00001000
,
00001000
00000002
00000003
00000001
,
00000001
00000100
00000100
00000010
,
00001000
00000100
00010000
00001000
,
00001000
00100000
00100000
00010000
,
01000000
00010000
01000000
20010000
,
00010000
30010000
00100000
00010000
,
10000000
00100000
01000000
00020000
,
00100000
00230000
00001000
00301000
,
00010000
00001000
00100000
02100000
,
13000000
00010000
00100000
01000000
,
00010000
00001000
00010000
00001000
00010000
00000000
00011000
00000000
,
00001000
00000010
00000000
00000010
00000001
00000000
00000001
00000100
,
00000000
00000100
00002000
00000000
00003100
00000000
00000010
00000000
,
00000010
00001002
00000103
00000010
,
00000010
00001200
00000310
00001000
,
00001000
00021000
01030000
00100000
,
00100000
00000000
00001000
00010000
00001000
00020000
00000000
00000000
,
00000100
00000100
00000100
00001000
,
00001000
00000000
00030010
00000000
00000100
00002000
00000000
00000000
,
00010000
00000000
00010000
00000000
00013000
00000000
01000000
00100000
,
01000000
00000000
10000000
00010000
00100000
02000000
00000000
03100000
,
00010000
00000000
10000000
00000000
00100000
02000000
00000000
03100000
,
10000000
00000000
01000000
00000000
00010000
00001000
00000000
00001000
,
00000100
00000000
00001000
00010000
00000000
00022000
00000000
00000000
,
00033000
00000000
00000000
00011000
,
00001000
00000000
00100000
00010000
00000000
01000000
00000000
00001000
,
00010000
00001000
00000000
00010000
00000100
00000000
00010000
00001000
,
00010000
00000000
00010000
00000010
00000000
00000200
00000000
00000300
,
00000100
00000010
00000000
00000010
00001000
00000000
00000001
00000000
,
00000110
00000000
00000001
00000000
00000010
00000100
00000000
00000100
,
00001000
00000000
00011000
00000000
00100000
00010000
10000000
00000000
,
01000000
00010000
00000000
00001000
00000000
00022000
00000000
00033000
,
00000000
00000100
00000000
00000100
00000010
00000000
00000100
00000000
,
00001001
00000000
00000001
00000100
00000000
00000010
00000000
00001000
,
00000000
00000010
00000000
00000010
00000100
00000000
00000001
00000000
,
00001000
00000000
00001001
00000000
00000001
00000010
00000000
00000010
,
00000100
00000010
00000000
00000100
00000000
00000100
00020000
00000000
,
00001000
00000000
00031000
00002000
,
00010000
00000000
00013000
00001000
,
01000000
00000000
01010000
00000000
10000000
00200000
00000000
00300000
,
00010000
00100000
00000000
01000000
00100000
00000000
02200000
00000000
,
00000000
00000000
00000000
00000000
03300000
00000000
10000000
00010000
,
00000000
00000000
00000000
00000000
00000000
00102000
00000000
00000000
,
00010000
00000000
00013000
00020000
,
00000100
00000000
00030100
00010000
,
00001000
00010000
00001000
00000100
,
00000001
00000000
00001000
00000000
00000001
00000020
00000000
00000000
,
00000100
00000000
00000130
00000000
00001000
00000020
00000000
00000000
,
00000100
00000000
00000130
00000000
00001000
00020000
00000000
00000000
,
00001000
00000000
00031000
00000000
00100000
00020000
00000000
00130000
,
01000000
00000000
10000000
00000000
00100000
00020000
00000000
00000000
,
00000000
00000000
00030000
00000000
00001000
00010000
00000000
00001000
,
00000100
00000000
00000001
00001000
00000000
00002002
00000000
00000000
,
00000000
00000000
00000000
00000000
,
00000000
00000000
00000000
00003000
,
00000000
00000000
00000000
00000000
,
00000000
00000000
00000000
00000003
;

//---------------dance-single - ----------------
#NOTES:
     dance-single:
     :
     Medium:
     8:
     0.335739,0.480510,0.173374,0.452698,0.000000,244.000000,226.000000,18.000000,47.000000,0.000000,0.000000,0.335739,0.480510,0.173374,0.452698,0.000000,244.000000,226.000000,18.000000,47.000000,0.000000,0.000000:
// measure 0
0000
0000
0000
0000
,  // measure 1
0000
0000
0000
0000
,  // measure 2
0000
0000
0000
0000
,  // measure 3
0000
0000
0000
0000
,  // measure 4
0000
0000
0000
0000
,  // measure 5
0000
0000
0000
0000
,  // measure 6
0000
0000
0000
0000
,  // measure 7
0000
0000
0000
0000
,  // measure 8
0000
0000
0000
0000
,  // measure 9
2000
0000
3000
0000
,  // measure 10
0002
0000
0003
0000
,  // measure 11
0010
0000
0200
0000
,  // measure 12
0000
0000
0300
0000
,  // measure 13
2000
0000
3000
0000
,  // measure 14
0002
0000
0003
0000
,  // measure 15
0200
0000
0000
0000
,  // measure 16
0000
0000
0000
0000
0000
0000
0000
0000
0000
0000
0000
0300
0010
0000
0000
0000
,  // measure 17
0010
1000
1000
0001
,  // measure 18
0100
0001
1000
0020
,  // measure 19
0030
0100
0020
0000
0030
0000
2000
0000
,  // measure 20
3000
0100
0020
0000
0030
0000
0001
0000
,  // measure 21
1000
0001
0000
1000
,  // measure 22
1000
0010
0000
0200
,  // measure 23
0000
0320
0000
1030
,  // measure 24
1000
0100
0000
2002
,  // measure 25
3003
0100
0000
0001
,  // measure 26
1000
0010
0100
0002
,  // measure 27
0000
2003
0000
3001
,  // measure 28
0000
0100
0001
2002
,  // measure 29
3003
0000
0001
0000
1000
0000
0100
0010
,  // measure 30
0100
0010
0100
0000
1000
0000
1001
0000
,  // measure 31
0001
0100
0010
0000
0010
0000
1000
0100
,  // measure 32
0010
0002
2003
3010
,  // measure 33
0010
0110
0001
1000
,  // measure 34
0000
1100
0100
1000
,  // measure 35
1000
1001
0010
0200
,  // measure 36
0300
0000
0110
0000
0001
0020
0000
0000
,  // measure 37
0100
0100
0100
0001
,  // measure 38
0001
0000
0031
0000
1000
0020
0000
0000
,  // measure 39
0100
0000
0100
0000
0130
0000
0001
1000
,  // measure 40
0100
0000
1000
0001
1000
0020
0000
0130
,  // measure 41
0001
0000
1000
0000
0001
0200
0000
0310
,  // measure 42
1000
0000
0001
0000
0010
0200
0000
0310
,  // measure 43
0100
0000
1000
0001
0000
2002
0000
0000
,  // measure 44
3003
0000
0000
1001
,  // measure 45
0001
0000
0100
0010
0000
1000
0000
0100
,  // measure 46
0010
0100
0000
1000
0100
0000
1000
0001
,  // measure 47
1000
0000
0010
0100
0000
0020
0000
0030
,  // measure 48
1000
0010
0000
0100
0001
0000
1000
0000
,  // measure 49
1001
0000
0001
0000
0010
0100
0000
1000
,  // measure 50
0001
0110
0001
0100
,  // measure 51
0010
1000
0000
0010
0000
0220
0000
0330
,  // measure 52
0000
0100
0000
0010
1000
0000
0001
0000
,  // measure 53
1001
0000
0001
0100
0000
0010
0000
0100
,  // measure 54
0000
1000
0000
1000
0100
0000
0001
0000
,  // measure 55
1000
0000
1100
0000
1000
0001
0000
0010
,  // measure 56
0100
0010
0000
0001
0000
0001
2000
0000
,  // measure 57
0100
0000
3100
0002
,  // measure 58
0100
0000
0103
1000
,  // measure 59
0100
0000
0110
0000
0001
2000
0000
3100
,  // measure 60
0010
0001
0000
0100
0010
0000
0220
0000
,  // measure 61
0000
0000
0000
0000
0330
0000
1000
0001
,  // measure 62
0000
0000
0000
0000
0000
1002
0000
0000
,  // measure 63
0103
0002
1003
2000
,  // measure 64
3100
2000
3010
0200
,  // measure 65
1000
0010
0301
1000
,  // measure 66
0100
0000
0010
0000
0010
0002
0000
0000
,  // measure 67
0100
0000
0103
0000
0010
2000
0000
0000
,  // measure 68
0100
0000
3100
0000
1000
0001
0000
0001
,  // measure 69
0100
0000
0001
0000
0100
0020
0000
0000
,  // measure 70
1030
0000
0100
0000
0010
0200
0000
0000
,  // measure 71
0000
0000
0300
0000
1000
1000
0000
0001
,  // measure 72
0001
0000
0100
0010
0000
0220
0000
0000
,  // measure 73
0000
0000
0000
0000
,  // measure 74
0000
0000
0000
0030
,  // measure 75
0000
0000
0000
0000
,  // measure 76
0000
0000
0000
0300
;

//---------------dance-single - ----------------
#NOTES:
     dance-single:
     :
     Easy:
     5:
     0.229789,0.332661,0.173374,0.279324,0.000000,167.000000,149.000000,18.000000,29.000000,0.000000,0.000000,0.229789,0.332661,0.173374,0.279324,0.000000,167.000000,149.000000,18.000000,29.000000,0.000000,0.000000:
// measure 0
0000
0000
0000
0000
,  // measure 1
0000
0000
0000
0000
,  // measure 2
0000
0000
0000
0000
,  // measure 3
0000
0000
0000
0000
,  // measure 4
0000
0000
0000
0000
,  // measure 5
0000
0000
0000
0000
,  // measure 6
0000
0000
0000
0000
,  // measure 7
0000
0000
0000
0000
,  // measure 8
0000
0000
0000
0000
,  // measure 9
2000
0000
3000
0000
,  // measure 10
0002
0000
0003
0000
,  // measure 11
0020
0000
0000
0000
,  // measure 12
0000
0000
0030
0000
,  // measure 13
0200
0000
0300
0000
,  // measure 14
2000
0000
3000
0000
,  // measure 15
0002
0000
0000
0000
,  // measure 16
0003
0000
0000
0000
,  // measure 17
1000
0001
0000
0100
,  // measure 18
0100
0010
0010
2000
,  // measure 19
3000
0002
0000
0100
,  // measure 20
0100
0100
0000
1003
,  // measure 21
0100
0001
0000
0001
,  // measure 22
0100
1000
0000
0002
,  // measure 23
0000
2003
0000
0100
,  // measure 24
0100
3100
0000
2002
,  // measure 25
0000
3003
0000
0100
,  // measure 26
0000
0001
0000
2000
,  // measure 27
0000
3020
0000
0030
,  // measure 28
0000
0100
0010
0220
,  // measure 29
0330
0000
0000
0100
,  // measure 30
0001
0100
0001
1001
,  // measure 31
0000
0010
0010
0100
,  // measure 32
0100
1000
0001
1000
,  // measure 33
0000
1100
0000
0001
,  // measure 34
0001
0011
0000
1000
,  // measure 35
0000
1010
0000
0001
,  // measure 36
0000
0000
0001
0000
0000
2000
0000
0000
,  // measure 37
0100
0100
3000
0010
,  // measure 38
0010
0000
0010
0000
0000
0002
0000
0000
,  // measure 39
0100
0103
0000
0010
,  // measure 40
0100
0010
0100
0001
,  // measure 41
0010
1000
0000
0001
,  // measure 42
0100
1000
0000
0010
,  // measure 43
0100
0010
0000
0110
,  // measure 44
0000
0000
0000
0110
,  // measure 45
0000
1001
0000
0010
,  // measure 46
0010
0010
0000
0001
,  // measure 47
0100
0001
0100
0001
,  // measure 48
0000
1000
0000
0001
,  // measure 49
0100
0010
0000
1000
,  // measure 50
0100
0010
0000
0100
,  // measure 51
0001
0100
0000
1000
,  // measure 52
0000
0001
0000
1001
,  // measure 53
0000
0110
0000
1000
,  // measure 54
1000
1000
0000
0010
,  // measure 55
0001
0010
0000
1000
,  // measure 56
0100
1000
0000
0002
,  // measure 57
0000
0103
0000
2000
,  // measure 58
0000
3010
0000
0001
,  // measure 59
0001
0001
0000
1000
,  // measure 60
0100
1000
0000
2002
,  // measure 61
0000
0000
3003
0110
,  // measure 62
0000
0000
0000
2000
,  // measure 63
0000
3100
0000
0002
,  // measure 64
0000
0103
0000
2000
,  // measure 65
0000
0010
0000
0100
,  // measure 66
0000
3010
0100
0110
,  // measure 67
0000
0001
1000
1001
,  // measure 68
0000
0010
0010
0010
,  // measure 69
0000
0100
0100
0110
,  // measure 70
0000
0001
0000
0220
,  // measure 71
0000
0330
0000
0010
,  // measure 72
0100
0010
0000
2002
,  // measure 73
0000
0000
0000
0000
,  // measure 74
0000
0000
0000
0003
,  // measure 75
0000
0000
0000
0000
,  // measure 76
0000
0000
0000
3000
;

//---------------dance-single - ----------------
#NOTES:
     dance-single:
     :
     Beginner:
     3:
     0.121086,0.251994,0.038527,0.154110,0.000000,88.000000,84.000000,4.000000,16.000000,0.000000,0.000000,0.121086,0.251994,0.038527,0.154110,0.000000,88.000000,84.000000,4.000000,16.000000,0.000000,0.000000:
// measure 0
0000
0000
0000
0000
,  // measure 1
0000
0000
0000
0000
,  // measure 2
0000
0000
0000
0000
,  // measure 3
0000
0000
0000
0000
,  // measure 4
0000
0000
0000
0000
,  // measure 5
0000
0000
0000
0000
,  // measure 6
0000
0000
0000
0000
,  // measure 7
0000
0000
0000
0000
,  // measure 8
0000
0000
0000
0000
,  // measure 9
2000
0000
0000
0000
,  // measure 10
0000
0000
3000
0000
,  // measure 11
0002
0000
0000
0000
,  // measure 12
0000
0000
0003
0000
,  // measure 13
0200
0000
0000
0000
,  // measure 14
0000
0000
0300
0000
,  // measure 15
0020
0000
0000
0000
,  // measure 16
0030
0000
0000
0000
,  // measure 17
0000
1000
0000
0000
,  // measure 18
0000
0100
0000
2000
,  // measure 19
0000
3000
0000
0020
,  // measure 20
0000
0000
0000
0030
,  // measure 21
0000
0001
0000
0000
,  // measure 22
0000
0100
0000
0002
,  // measure 23
0000
0000
0000
0003
,  // measure 24
0000
0010
0000
2000
,  // measure 25
0000
3000
0000
1000
,  // measure 26
0000
0000
0000
0002
,  // measure 27
0000
0000
0000
0003
,  // measure 28
0000
0000
0000
0001
,  // measure 29
0000
0000
0000
0100
,  // measure 30
0000
0000
0000
0110
,  // measure 31
0000
0000
0000
0000
,  // measure 32
0000
0000
0000
0100
,  // measure 33
0000
0100
0000
0100
,  // measure 34
0000
0000
0000
1000
,  // measure 35
0000
0001
0000
1000
,  // measure 36
0000
0000
0000
0010
,  // measure 37
0000
0010
0000
0001
,  // measure 38
0000
0001
0000
2000
,  // measure 39
0000
3000
0000
0001
,  // measure 40
0000
0100
0000
0010
,  // measure 41
0000
0010
0000
0010
,  // measure 42
0000
0000
0000
0100
,  // measure 43
0000
0100
0000
0110
,  // measure 44
0000
0000
0000
1000
,  // measure 45
0000
0100
0000
0010
,  // measure 46
0000
0000
0000
0001
,  // measure 47
0000
0100
0000
0010
,  // measure 48
0000
0000
0000
0001
,  // measure 49
0000
0001
0000
1000
,  // measure 50
0000
0001
0000
1001
,  // measure 51
0000
0000
0000
0000
,  // measure 52
0000
0000
0000
0001
,  // measure 53
0000
0010
0000
1000
,  // measure 54
0000
0000
0000
0001
,  // measure 55
0000
0100
0000
1000
,  // measure 56
0000
0000
0000
0002
,  // measure 57
0000
0003
0000
2000
,  // measure 58
0000
3000
0000
0010
,  // measure 59
0000
0010
0000
0010
,  // measure 60
0000
0000
0000
0200
,  // measure 61
0000
0000
0000
0300
,  // measure 62
0000
0000
0000
0001
,  // measure 63
0000
0001
0000
0100
,  // measure 64
0000
0010
0000
1000
,  // measure 65
0000
1000
0000
0001
,  // measure 66
0000
0010
0010
0010
,  // measure 67
0000
0100
0100
0100
,  // measure 68
0000
1000
1000
1000
,  // measure 69
0000
0001
0001
0001
,  // measure 70
0000
0100
0000
0220
,  // measure 71
0000
0330
0000
0001
,  // measure 72
0000
1000
0000
0200
,  // measure 73
0000
0000
0000
0000
,  // measure 74
0000
0000
0000
0300
;

//---------------dance-double - ----------------
#NOTES:
     dance-double:
     :
     Easy:
     5:
     0.225661,0.332661,0.125214,0.250429,0.000000,164.000000,151.000000,13.000000,26.000000,0.000000,0.000000,0.225661,0.332661,0.125214,0.250429,0.000000,164.000000,151.000000,13.000000,26.000000,0.000000,0.000000:
00000000
00000000
00000000
00000000
,
00000000
00000000
00000000
00000000
,
00000000
00000000
00000000
00000000
,
00000000
00000000
00000000
00000000
,
00000000
00000000
00000000
00000000
,
00000000
00000000
00000000
00000000
,
00000000
00000000
00000000
00000000
,
00000000
00000000
00000000
00000000
,
00000000
00000000
00000000
00000000
,
00200000
00000000
00300000
00000000
,
00002000
00000000
00003000
00000000
,
00020000
00000000
00000000
00000000
,
00000000
00000000
00030000
00000000
,
00000200
00000000
00000300
00000000
,
00002000
00000000
00003000
00000000
,
00000020
00000000
00000000
00000000
,
00000030
00000000
00000000
00000100
,
00000100
00000100
00000000
00000001
,
00001000
00000001
00000000
00000100
,
00000000
00000020
00000000
00001000
,
00000000
00002030
00000000
00003100
,
00000000
00010000
00000000
00001000
,
00010000
00001000
00000000
00200000
,
00000000
01000000
00000000
00310000
,
01000000
00010000
00000000
20020000
,
30030000
01000000
00000000
10000000
,
01000000
10000000
00000000
00200000
,
00000000
20300000
00000000
30010000
,
00000000
01000000
00010000
20020000
,
30030000
00100000
00000000
00010000
,
00001000
00010000
00001000
00011000
,
00000000
00001000
00001000
00010000
,
00010000
00001000
00000100
00001000
,
00000000
00000110
00000000
00000001
,
00001000
00001001
00000000
00000010
,
00000000
00011000
00000000
00000100
,
00000000
00010000
00000000
00001000
,
00001000
00001000
00000000
00100000
,
00010000
00100000
00000000
00001000
,
00001000
00001000
00000000
00000100
,
00000001
00000100
00000001
00001000
,
00000100
00000010
00000000
00000001
,
00000100
00000010
00000000
00010000
,
00001000
00010000
00000000
00011000
,
00000000
00000000
00000000
00011000
,
00000000
00001000
00000000
00100000
,
01000000
10000000
00000000
01000000
,
01000000
00100000
00100000
01000000
,
00000000
10000000
00000000
00100000
,
00010000
00001000
00000000
00000100
,
00001000
00010000
00000000
01000000
,
00010000
01000000
00010000
00001000
,
00000000
00010000
00000000
00011000
,
00000000
00001000
00000000
00000100
,
00000010
00000100
00000000
00000001
,
00000001
00000001
00000000
00001000
,
00000100
00000001
00000000
00000200
,
00000000
00001300
00000000
00000020
,
00000000
00010030
00000000
01000000
,
01000000
01000000
00000000
00100000
,
00100000
00100000
00000000
20020000
,
00000000
00000000
30030000
01100000
,
00000000
00000000
00000000
20000000
,
00000000
31000000
00000000
00020000
,
00000000
00031000
00000000
00000020
,
00000000
00001030
00000000
00020000
,
00000000
00031000
00000000
00011000
,
00000000
00100000
00100000
00100000
,
00000000
00010000
00010000
00010000
,
00000000
01000000
00001000
00010000
,
00000000
00000100
00000010
00000200
,
00000000
00000300
00000000
00000010
,
00000000
00000100
00000000
00002002
,
00000000
00000000
00000000
00000000
,
00000000
00000000
00000000
00000003
,
00000000
00000000
00000000
00000000
,
00000000
00000000
00000000
00003000
;
