#TITLE:Dharma;
#SUBTITLE:;
#ARTIST:Headhunterz & KSHMR;
#TITLETRANSLIT:;
#SUBTITLETRANSLIT:;
#ARTISTTRANSLIT:;
#GENRE:Spinnin' Records;
#CREDIT:;
#BANNER:Dharma.png;
#BACKGROUND:Dharma-bg.png;
#LYRICSPATH:;
#CDTITLE:../cdtitle.png;
#MUSIC:Dharma.ogg;
#OFFSET:1.560000;
#SAMPLESTART:45.312000;
#SAMPLELENGTH:15.000000;
#LASTBEATHINT:1.194667;
#SELECTABLE:YES;
#BPMS:0.000000=128.000000
;
#STOPS:
;
#BGCHANGES:0.000=Dharma.avi=1.000=0=0=0=StretchNoLoop====,
99999=-nosongbg-=1.000=0=0=0 // don't automatically add -songbackground-
;
#KEYSOUNDS:;
#ATTACKS:;

//---------------dance-single - ----------------
#NOTES:
     dance-single:
     :
     Challenge:
     13:
     0.514183,0.673660,0.310652,0.589168,0.610592,336.000000,307.000000,29.000000,55.000000,44.000000,0.000000,0.514183,0.673660,0.310652,0.589168,0.610592,336.000000,307.000000,29.000000,55.000000,44.000000,0.000000:
// measure 0
0000
0000
0000
0000
,  // measure 1
0000
0000
0000
0000
,  // measure 2
0000
0000
0000
0000
,  // measure 3
0000
0000
0000
0000
,  // measure 4
0000
0000
0000
0000
0000
0000
0000
0000
0000
0000
0000
0000
0000
0000
0001
1000
0001
0000
0001
0000
0000
0000
0001
0000
0000
0000
0100
0000
0010
0000
0000
0000
,  // measure 5
2020
0000
0000
0000
,  // measure 6
0000
0000
0000
0000
,  // measure 7
0030
0000
0000
0000
,  // measure 8
3000
0000
0000
0000
0000
0000
0000
0000
0000
0000
0000
0000
0000
0000
0100
0001
0100
0000
0100
0000
0000
0000
0010
0000
0000
0000
0001
0000
1000
0000
0000
0000
,  // measure 9
2100
0000
0000
0000
0010
0000
0000
0000
3020
0000
0000
0230
0000
0000
0301
0000
,  // measure 10
0102
0000
0000
0000
0010
0000
0000
0000
1003
0000
0000
1000
0000
0000
0100
0000
,  // measure 11
0120
0000
0000
0000
0001
0000
0000
0000
0032
0000
0000
0203
0000
0000
0310
0000
,  // measure 12
0021
0000
0000
0000
0100
0000
0000
0000
0130
0000
0000
0001
0000
0001
0010
0000
,  // measure 13
0012
0000
0000
0000
0100
0000
0000
0000
0203
0000
0000
0320
0000
0000
1030
0000
,  // measure 14
2010
0000
0000
0000
0100
0000
0000
0000
3001
0000
0000
0001
0000
0000
0010
0000
,  // measure 15
0210
0000
0000
0000
1000
0000
0000
0000
2300
0000
0000
3020
0000
0000
0130
0000
,  // measure 16
1200
0000
0000
0000
0010
0000
0000
0000
0310
0000
0000
1000
0000
0000
0100
0000
,  // measure 17
2100
0000
0000
3002
0000
0000
0103
0000
0010
0000
0001
0010
0000
0000
0010
0000
,  // measure 18
0200
0000
0000
0302
0000
0000
0013
0000
0100
0000
0001
0100
0000
0000
0100
0000
,  // measure 19
0020
0000
0000
0230
0000
0000
1300
0000
0001
0000
1000
0010
0000
0000
0010
0000
,  // measure 20
0200
0000
0000
0320
0000
0000
1030
0000
0100
0000
0010
0001
0000
0000
0001
0000
,  // measure 21
0012
0000
0000
0203
0000
0000
0310
0000
1000
0000
1000
0010
0100
0000
0001
0000
,  // measure 22
0102
0000
0000
0023
0000
0000
0130
0000
1000
0000
1000
0100
0010
0000
0001
0000
,  // measure 23
0001
0100
0000
0001
0000
0000
0001
0000
1000
0100
0000
1000
0000
0000
1000
0000
,  // measure 24
0002
0000
0000
0013
0200
0000
1300
0001
0100
0000
0010
0000
0110
0000
MMMM
0000
,  // measure 25
1100
0000
0000
0000
0101
0000
0000
0000
0001
0010
0000
1000
0000
1000
0200
0000
,  // measure 26
1300
0010
0000
0001
0000
0001
1000
0000
0100
0001
0000
0001
0000
0000
0020
0000
,  // measure 27
0130
1000
0000
0010
0000
0010
0001
0000
0100
0001
0000
0010
0000
0010
1000
0000
,  // measure 28
1100
0000
0000
0100
0101
0000
0100
0000
2100
0000
0000
0000
0002
0000
3003
0000
,  // measure 29
0011
0000
0000
0000
1010
0000
0000
0000
1000
0100
0000
0001
0000
0001
0020
0000
,  // measure 30
0031
0100
0000
1000
0000
1000
0001
0000
0010
1000
0000
1000
0000
0000
0200
0000
,  // measure 31
0310
0001
0000
0100
0000
0100
1000
0000
0010
1000
0000
0100
0000
0100
0001
0000
,  // measure 32
2000
0000
0000
0100
0000
0000
3100
0000
0010
0001
0000
0001
0000
0100
MMMM
0000
,  // measure 33
1100
0000
0000
0000
0101
0000
0000
0000
1000
0100
0000
0100
0001
0100
2000
0000
,  // measure 34
3001
0010
0000
0010
1000
0001
0200
0000
0310
0100
0000
0100
1000
0001
0020
0000
,  // measure 35
0031
1000
0000
1000
0010
0001
2000
0000
3100
0001
0000
0001
1000
0010
0001
0000
,  // measure 36
0011
0000
0000
0010
1010
0000
1000
0000
2002
0000
0000
0000
0000
0000
3003
0000
,  // measure 37
0011
0000
0000
0000
1010
0000
0000
0000
0001
0010
0000
0010
1000
0010
0002
0000
,  // measure 38
1003
0100
0000
0100
0001
1000
0020
0000
0130
0010
0000
0010
0001
1000
0200
0000
,  // measure 39
1300
0001
0000
0001
0100
1000
0002
0000
0013
1000
0000
1000
0001
0100
1000
0000
,  // measure 40
1100
0000
0000
0100
0000
0000
0002
0000
2000
0000
3000
0000
2000
0000
3003
0000
,  // measure 41
2001
0000
0000
0000
0000
0000
0000
0000
0000
0001
0000
0000
3000
0000
0000
0000
0000
0000
0001
0000
0000
0000
0000
0000
MMMM
0000
0000
0000
0000
0000
0010
0000
0000
0000
0000
0000
MMMM
0000
0000
0000
0000
0000
0001
0000
1000
0000
0001
0000
,  // measure 42
1000
1000
1000
0100
0001
0001
0010
1000
,  // measure 43
0001
0000
0000
0001
0000
0000
0001
0000
MMMM
0000
1000
0000
MMMM
0000
0002
0000
,  // measure 44
1003
0100
0100
0001
0010
0000
0100
0000
MMMM
0000
0000
0000
0000
0000
0000
0000
,  // measure 45
1000
0000
0000
0000
0000
0000
0000
0000
0000
1000
0000
0000
0000
0000
0000
0000
0000
0000
1000
0000
0000
0000
0000
0000
MMMM
0000
0000
0000
0000
0000
0010
0000
0000
0000
0000
0000
MMMM
0000
0000
0000
0000
0000
1000
0000
0001
0000
1000
0000
,  // measure 46
0001
0001
0001
0100
1000
1000
0010
0001
,  // measure 47
1000
0000
0000
1000
0000
0000
1000
0000
MMMM
0000
0001
0000
MMMM
0000
2000
0000
,  // measure 48
3001
0100
0100
1000
0010
0000
0001
0000
0000
0000
0000
0000
0000
0000
0000
0000
;

//---------------dance-single - ----------------
#NOTES:
     dance-single:
     :
     Beginner:
     3:
     0.082637,0.179964,0.010712,0.192819,0.000000,54.000000,53.000000,1.000000,18.000000,0.000000,0.000000,0.082637,0.179964,0.010712,0.192819,0.000000,54.000000,53.000000,1.000000,18.000000,0.000000,0.000000:
0000
0000
0000
0000
,
0000
0000
0000
0000
,
0000
0000
0000
0000
,
0000
0000
0000
0000
,
0000
0000
0000
0000
,
0220
0000
0000
0000
,
0000
0000
0000
0000
,
0000
0000
0000
0000
,
0330
0000
0000
0000
,
2000
0000
3000
0000
,
0002
0000
0003
0000
,
0020
0000
0030
0000
,
2000
0000
3000
0000
,
0002
0000
0003
0000
,
2000
0000
3000
0000
,
0200
0000
0300
0000
,
0002
0000
0003
0000
,
0020
0000
0000
0000
,
0000
0000
0000
0000
,
0000
0000
0000
0000
,
0030
0000
0000
0000
,
0100
0000
0000
0000
,
0010
0000
0000
0000
,
0100
0000
0100
0000
,
0010
0000
0000
0000
,
0001
0000
1000
0000
,
0010
0000
0010
0000
,
0001
0000
1000
0000
,
0100
0000
0200
0300
,
0001
0000
1000
0000
,
0100
0000
0100
0000
,
0001
0000
1000
0000
,
0000
0000
0000
0000
,
0010
0010
0010
0000
,
0001
0001
0001
0000
,
1000
0000
0010
0000
,
0100
0100
0200
0300
,
0010
0010
0010
0000
,
1000
1000
1000
0000
,
0001
0000
0010
0000
,
0200
0000
0300
0000
,
2000
0000
0000
0000
,
0000
0000
3000
0000
,
0002
0000
0000
0000
,
0000
0000
0003
0000
,
0200
0000
0000
0000
,
0000
0000
0300
0000
,
0020
0000
0000
0000
,
0030
0000
0000
0000
;

//---------------dance-single - ----------------
#NOTES:
     dance-single:
     :
     Easy:
     6:
     0.240258,0.413489,0.524895,0.503471,0.000000,157.000000,108.000000,49.000000,47.000000,0.000000,0.000000,0.240258,0.413489,0.524895,0.503471,0.000000,157.000000,108.000000,49.000000,47.000000,0.000000,0.000000:
0000
0000
0000
0000
,
0000
0000
0000
0000
,
0000
0000
0000
0000
,
0000
0000
0000
0000
,
0000
0000
0000
0000
,
2002
0000
0000
0000
,
0000
0000
0000
0000
,
3000
0000
0000
0000
,
0003
0000
0000
0000
,
2002
0003
0020
3000
,
0100
0100
2000
3030
,
2200
0300
0002
3000
,
0203
0010
0020
0330
,
2002
0003
0200
3000
,
0010
0010
2000
3300
,
2020
0030
0002
3000
,
0023
0100
0200
0330
,
2200
0000
0000
3000
,
0002
0000
0000
0300
,
0020
0000
0000
0003
,
2000
0000
0000
3030
,
2002
0000
0000
3003
,
0220
0000
0000
0330
,
1010
0000
0011
0000
,
0220
0000
0000
0330
,
1100
0101
1100
0001
,
0110
1000
0110
0001
,
0101
0010
1100
0010
,
0101
1100
2002
3003
,
1010
0011
1010
0001
,
0110
1000
0110
0001
,
0011
0100
1010
0100
,
0020
0000
0000
0030
,
1100
1010
0011
1010
,
2100
3001
0120
1030
,
0101
0010
1001
0010
,
1100
1100
0202
0303
,
1010
1100
0101
1100
,
2010
3001
0210
1300
,
0011
0100
1001
0100
,
1010
0001
2000
3000
,
2001
0000
3002
0000
,
1003
1000
0010
0001
,
2000
0000
3200
0000
,
0302
2000
3003
0000
,
0001
0000
1000
0000
,
0001
0001
0010
1000
,
0001
0000
0100
0000
,
1000
0001
0000
0000
;

//---------------dance-single - ----------------
#NOTES:
     dance-single:
     :
     Medium:
     8:
     0.316773,0.388650,0.321364,0.321364,0.032136,207.000000,177.000000,30.000000,30.000000,0.000000,0.000000,0.316773,0.388650,0.321364,0.321364,0.032136,207.000000,177.000000,30.000000,30.000000,0.000000,0.000000:
0000
0000
0000
0000
,
0000
0000
0000
0000
,
0000
0000
0000
0000
,
0000
0000
0000
0000
,
0000
0000
0000
0000
0000
0000
0000
0000
0010
0000
0000
0010
0000
0000
0100
0000
,
2002
0000
0000
0000
,
0000
0000
0000
0000
,
0003
0000
0000
0000
,
3000
0000
0000
0000
0000
0000
0000
0000
0100
0000
0000
0100
0000
0000
0010
0000
,
1002
0100
2000
0003
,
3200
0001
0310
0010
,
0021
0100
0200
0030
,
2300
0001
3010
0100
,
2001
0100
0002
3000
,
0203
1000
0310
0010
,
1020
0100
0200
0030
,
0302
1000
0013
0100
,
2100
0000
3010
0000
,
0002
0000
0103
0000
,
2000
0000
3100
0000
,
0002
0000
0013
0000
,
2100
0000
0010
3001
,
0102
0000
0010
1003
,
1100
0010
0101
0010
,
2100
0000
0001
3001
,
0101
0000
1010
0000
1100
0010
0001
0000
,
1000
0100
0001
0000
1000
0010
0001
0000
,
1000
0100
0100
0000
0001
0010
0010
0000
,
1010
1100
0202
0303
,
0011
0000
1100
0000
1010
0100
0001
0000
,
1000
0010
0001
0000
1000
0100
0001
0000
,
1000
0010
0010
0000
0001
0100
0100
0000
,
2000
0000
0001
3001
,
0101
0000
0110
0000
0101
0001
0010
0000
,
0100
0010
0010
0000
1000
0001
0001
0000
,
0100
1000
0010
0000
0001
0010
1000
0000
,
1100
0011
0220
0330
,
1100
0000
0110
0000
1100
1000
0010
0000
,
0100
0010
0010
0000
0001
1000
1000
0000
,
0100
0001
0010
0000
1000
0010
0001
0000
,
0101
0010
2000
3200
,
0301
0000
0000
0001
0000
0000
0001
0000
0000
0000
0100
0000
0000
0000
1000
0000
,
0010
0010
0010
0000
0100
0001
0010
0000
,
0100
0000
0000
0100
0000
0000
0100
0000
0000
0000
0001
0000
0000
0000
0200
0000
,
1300
1000
0001
0010
0000
0000
0000
0000
,
1000
0000
0000
1000
0000
0000
1000
0000
0000
0000
0010
0000
0000
0000
0001
0000
,
0100
0100
0100
0000
0010
1000
0100
0000
,
0010
0000
0000
0010
0000
0000
0010
0000
0000
0000
1000
0000
0000
0000
0020
0000
,
0031
0001
1000
0100
0000
0000
0000
0000
;

//---------------dance-single - ----------------
#NOTES:
     dance-single:
     :
     Hard:
     12:
     0.456031,0.570020,0.289228,0.621304,0.444554,298.000000,271.000000,27.000000,58.000000,0.000000,0.000000,0.456031,0.570020,0.289228,0.621304,0.444554,298.000000,271.000000,27.000000,58.000000,0.000000,0.000000:
0000
0000
0000
0000
,
0000
0000
0000
0000
,
0000
0000
0000
0000
,
0000
0000
0000
0000
,
0000
0000
0000
0000
0000
0000
0000
0010
0100
0010
0000
0010
0000
1000
0100
0000
,
0022
0000
0000
0000
,
0000
0000
0000
0000
,
0003
0000
0000
0000
,
0030
0000
0000
0000
0000
0000
0000
0100
0010
0100
0000
0100
0000
1000
0010
0000
,
1002
0000
0000
0000
0010
0000
0000
0000
0023
0000
0000
0230
0000
0000
1300
0000
,
2100
0000
0000
0000
0001
0000
0000
0000
3010
0000
0000
0010
0000
0000
0100
0000
,
0210
0000
0000
0000
0001
0000
0000
0000
0302
0000
0000
0023
0000
0000
1030
0000
,
1020
0000
0000
0000
0100
0000
0000
0000
0130
0000
0000
1000
0000
0000
0001
0000
,
2001
0000
0000
0000
0010
0000
0000
0000
3020
0000
0000
0230
0000
0000
0301
0000
,
0102
0000
0000
0000
1000
0000
0000
0000
0013
0000
0000
0010
0000
0000
0100
0000
,
0210
0000
0000
0000
1000
0000
0000
0000
2300
0000
0000
3020
0000
0000
0031
0000
,
0021
0000
0000
0000
0100
0000
0000
0000
0130
0000
0000
0001
0000
0000
0010
0000
,
0021
0000
0000
0230
0000
0000
1300
0000
0001
0000
0000
0001
0000
0000
0001
0000
,
2000
0000
0000
3020
0000
0000
0031
0000
0010
0000
0000
0010
0000
0000
0010
0000
,
0200
0000
0000
0302
0000
0000
0013
0000
0100
0000
0000
0100
0000
0000
0100
0000
,
0002
0000
0000
0203
0000
0000
1300
0000
0010
0000
0000
0010
0000
0000
0010
0000
,
2010
0000
0000
3200
0000
0000
0310
0000
0001
0000
0001
0000
0010
0000
0100
0000
,
2100
0000
0000
3020
0000
0000
0130
0000
0001
0000
0001
0000
0100
0000
0010
0000
,
1000
0100
0000
0100
0000
0000
0010
0000
0001
0100
0000
0100
0000
0000
0010
0000
,
2000
0000
0000
3010
0100
0000
0001
0000
0010
0000
0100
0000
0110
0000
0000
0000
,
1100
0000
0000
0000
0101
0000
0000
0000
0001
0010
0000
0010
0000
0000
2000
0000
,
3100
0001
0000
0001
0000
0000
0010
0000
0100
1000
0000
1000
0000
0000
0002
0000
,
0103
0010
0000
0010
0000
0000
0001
0000
0010
0100
0000
0100
0000
0000
0001
0000
,
0011
0000
0000
0010
0100
0000
0100
0000
2200
0000
0000
0000
0000
0000
3300
0000
,
1010
0000
0000
0000
0011
0000
0000
0000
0001
0100
0000
0100
0000
0000
2000
0000
,
3010
0001
0000
0001
0000
0000
0100
0000
0010
1000
0000
1000
0000
0000
0002
0000
,
0013
0100
0000
0100
0000
0000
0001
0000
0100
0010
0000
0010
0000
0000
0001
0000
,
2000
0000
0000
0001
0000
0000
0001
0000
3002
0000
0000
1000
0003
1000
0000
0000
,
1100
0000
0000
0000
0011
0000
0000
0000
0100
1000
0000
1000
0010
0000
0002
0000
,
0013
1000
0000
1000
0001
0000
0200
0000
0310
1000
0000
1000
0100
0000
0020
0000
,
0031
1000
0000
1000
0001
0000
0200
0000
0310
1000
0000
1000
0010
0000
0100
0000
,
0101
0000
0000
0001
0010
0000
0010
0000
0220
0000
0000
0000
0000
0000
0330
0000
,
0011
0000
0000
0000
1100
0000
0000
0000
0010
0001
0000
0001
0100
0000
2000
0000
,
3100
0001
0000
0001
1000
0000
0020
0000
0130
0001
0000
0001
0010
0000
0200
0000
,
1300
0001
0000
0001
1000
0000
0020
0000
0130
0001
0000
0001
0100
0000
0010
0000
,
1010
0000
0000
1000
0000
0000
0200
0000
0020
0000
0300
0000
0002
0000
0033
0000
,
2001
0000
0000
0001
3000
0000
0001
0000
0000
0000
1000
0000
0000
0000
0020
0000
,
0031
0001
0001
0010
1000
1000
0100
0010
,
0001
0000
0000
0001
0000
0000
0001
0000
0000
0000
1000
0000
0000
0000
0020
0000
,
0130
0001
1000
0000
0001
0000
0002
0000
0003
0000
0000
0000
0000
0000
0000
0000
,
1000
0000
0000
1000
0000
0000
1000
0000
0000
0000
0001
0000
0000
0000
0020
0000
,
1030
1000
1000
0010
0001
0001
0100
0010
,
1000
0000
0000
1000
0000
0000
1000
0000
0000
0000
0001
0000
0000
0000
0020
0000
,
0130
1000
0001
0000
0010
0000
0010
0000
0000
0000
0000
0000
0000
0000
0000
0000
;
