#VERSION:0.83;
#TITLE:デーモンロード;
#SUBTITLE:;
#ARTIST:Kanaria;
#TITLETRANSLIT:Demon Lord;
#SUBTITLETRANSLIT:;
#ARTISTTRANSLIT:;
#GENRE:J-Music;
#ORIGIN:;
#CREDIT:;
#BANNER:Demon Lord.png;
#BACKGROUND:Demon Lord-bg.png;
#PREVIEWVID:;
#JACKET:Demon Lord-jacket.png;
#CDIMAGE:;
#DISCIMAGE:;
#LYRICSPATH:;
#CDTITLE:../cdtitle.png;
#MUSIC:Demon Lord.ogg;
#OFFSET:0.958000;
#SAMPLESTART:50.124001;
#SAMPLELENGTH:15.000000;
#SELECTABLE:YES;
#BPMS:0.000=172.000;
#STOPS:;
#DELAYS:;
#WARPS:;
#TIMESIGNATURES:0.000=4=4;
#TICKCOUNTS:0.000=4;
#COMBOS:0.000=1;
#SPEEDS:0.000=1.000=0.000=0;
#SCROLLS:0.000=1.000;
#FAKES:;
#LABELS:0.000=Song Start;
#BGCHANGES:2.750=Demon Lord.avi=1.000=0=0=0=StretchNoLoop====,
99999=-nosongbg-=1.000=0=0=0 // don't automatically add -songbackground-
;
#KEYSOUNDS:;
#ATTACKS:
;

//---------------dance-single - ----------------
#NOTEDATA:;
#CHARTNAME:;
#STEPSTYPE:dance-single;
#DESCRIPTION:;
#CHARTSTYLE:;
#DIFFICULTY:Beginner;
#METER:1;
#RADARVALUES:0.063045,0.141631,0.061579,0.061579,0.000000,43.000000,37.000000,6.000000,6.000000,0.000000,0.000000,0.000000,0.000000,0.000000,0.063045,0.141631,0.061579,0.061579,0.000000,43.000000,37.000000,6.000000,6.000000,0.000000,0.000000,0.000000,0.000000,0.000000;
#CREDIT:led_light;
#NOTES:
0000
0000
0000
0000
,
0000
0000
0000
0000
,
0000
0000
0000
0000
,
0000
0000
0000
0000
,
0000
0000
0000
0000
,
1001
0000
0000
0000
,
0000
0000
0000
0000
,
0100
0000
0000
0000
,
0000
0000
0000
0000
,
1001
0000
0000
0000
,
0000
0000
0000
0000
,
0100
0000
0000
0000
,
0000
0000
0000
0000
,
1000
0000
0000
0000
,
0000
0000
0000
0000
,
1000
0000
0000
0000
,
0000
0000
0000
0000
,
0001
0000
0000
0000
,
0000
0000
0000
0000
,
0001
0000
0000
0000
,
0000
0000
0000
0000
,
0100
0000
0000
0000
,
0100
0000
0000
0000
,
0001
0000
0000
0000
,
0000
0000
0000
0000
,
0010
0000
0000
0000
,
0010
0000
0000
0000
,
0001
0000
0000
0000
,
0000
0000
0000
0000
,
2000
0000
0000
0000
,
0000
0000
0000
0000
,
3000
0000
0000
0000
,
0000
0000
0000
0000
,
0002
0000
0000
0000
,
0000
0000
0000
0000
,
0003
0000
0000
0000
,
0000
0000
0000
0000
,
0100
0000
0000
0000
,
0100
0000
0000
0000
,
0010
0000
0000
0000
,
0000
0000
0000
0000
,
0100
0000
0000
0000
,
0001
0000
0000
0000
,
1000
0000
0000
0000
,
0000
0000
0000
0000
,
0100
0000
0000
0000
,
0100
0000
0000
0000
,
0010
0000
0000
0000
,
0000
0000
0000
0000
,
0100
0000
0000
0000
,
1000
0000
0000
0000
,
0001
0000
0000
0000
,
0000
0000
0000
0000
,
2002
0000
0000
0000
,
3003
0000
0000
0000
,
0220
0000
0000
0000
,
0330
0000
0000
0000
,
1001
0000
0000
0000
,
0000
0000
0000
0000
,
0010
0000
0000
0000
,
0000
0000
0000
0000
,
0001
0000
0000
0000
,
0000
0000
0000
0000
,
0100
0000
0000
0000
,
0000
0000
0000
0000
,
1000
0000
0000
0000
,
0000
0000
0000
0000
,
0010
0000
0000
0000
,
0000
0000
0000
0000
,
1001
0000
0000
0000
;

//---------------dance-single - ----------------
#NOTEDATA:;
#CHARTNAME:;
#STEPSTYPE:dance-single;
#DESCRIPTION:;
#CHARTSTYLE:;
#DIFFICULTY:Easy;
#METER:6;
#RADARVALUES:0.299097,0.389486,0.153947,0.143684,0.000000,204.000000,189.000000,15.000000,14.000000,0.000000,0.000000,0.000000,0.000000,0.000000,0.299097,0.389486,0.153947,0.143684,0.000000,204.000000,189.000000,15.000000,14.000000,0.000000,0.000000,0.000000,0.000000,0.000000;
#CREDIT:led_light;
#NOTES:
0000
0000
0000
0000
,
0000
0000
0000
0000
,
0000
0000
0000
0000
,
0000
0000
0000
0000
,
0000
0000
0000
0000
,
1001
0000
0100
0000
,
1000
0100
1000
0000
,
1001
0000
0100
0000
,
0001
0001
0100
0001
,
1001
0000
0010
0000
,
0001
0010
0001
0000
,
1001
0000
0010
0000
,
1000
1000
0010
1000
,
1001
0000
0100
0000
,
0001
0000
0100
0000
,
0110
0000
1000
0000
,
0001
0000
0100
0000
,
1001
0000
0010
0000
,
1000
0000
0010
0000
,
0110
0000
0001
0000
,
0000
1000
0010
0000
,
0100
0100
0001
0001
,
1000
0010
0100
0010
,
1000
1000
0100
0100
,
0001
0100
1000
0000
,
0010
0010
1000
1000
,
0001
0100
0010
0100
,
0001
0001
0010
0010
,
0200
2300
3002
2003
,
3000
0001
0100
0100
,
1000
0100
0001
0000
,
2000
0000
0200
0000
,
3300
0000
0000
0000
,
0000
1000
0010
0000
,
0001
0010
1000
0000
,
0002
0000
0020
0000
,
0033
0000
0000
0000
,
0001
0001
1000
1000
,
0001
0100
0010
1000
,
0100
0010
0100
2000
,
3000
0000
0000
0001
,
1000
1000
0001
0001
,
1000
0010
0100
0001
,
0010
0010
0100
1000
,
0002
0000
0003
0000
,
0010
1000
0010
0001
,
1000
1000
0010
1000
,
0100
0100
0010
0002
,
0003
0000
0000
1000
,
0010
0001
0010
1000
,
0001
0001
0010
0001
,
0100
0100
0010
1000
,
0002
0000
0003
0000
,
0120
0000
1030
1000
,
0010
1000
0100
0000
,
0120
0000
0031
0001
,
0010
0001
0100
0001
,
1001
0000
0010
0000
,
0001
0000
0010
0001
,
1001
0000
0010
0000
,
1000
0000
0010
1000
,
0100
0010
0100
0010
,
0001
1000
0100
0000
,
1000
0001
1000
0001
,
0100
0010
1001
0011
,
0010
0100
0010
0100
,
1000
0100
0010
0000
,
0001
0100
0001
0100
,
0010
1000
0100
0000
,
0110
0000
0000
0000
;

//---------------dance-single - ----------------
#NOTEDATA:;
#CHARTNAME:;
#STEPSTYPE:dance-single;
#DESCRIPTION:;
#CHARTSTYLE:;
#DIFFICULTY:Medium;
#METER:9;
#RADARVALUES:0.409060,0.460302,0.297631,0.133421,0.000000,279.000000,250.000000,29.000000,13.000000,0.000000,0.000000,0.000000,0.000000,0.000000,0.409060,0.460302,0.297631,0.133421,0.000000,279.000000,250.000000,29.000000,13.000000,0.000000,0.000000,0.000000,0.000000,0.000000;
#CREDIT:led_light;
#NOTES:
0000
0000
0000
0000
,
0000
0000
0000
0000
,
0000
0000
0000
0000
,
0000
0000
0000
0000
,
0000
0000
0000
0000
,
0110
0000
0001
0000
0010
0000
1000
0010
,
0000
0001
0010
0000
0100
0000
1000
0000
,
1001
0000
0010
0000
1000
0000
0100
1000
,
0000
0010
1000
0000
0001
0000
0100
0000
,
0110
0000
1000
0000
0100
0000
0001
0100
,
0000
1000
0100
0000
0010
0000
0001
0000
,
1001
0000
0100
0000
0001
0000
0010
0001
,
0000
0100
0001
0000
1000
0000
0010
0000
,
0110
0000
0000
0000
0001
0100
0001
0000
,
0010
0000
0000
0000
0100
1000
0100
0000
,
0010
0000
0000
0000
0001
1000
0001
0000
,
0100
0000
0000
0000
0010
0100
0010
0000
,
0110
0000
0000
0000
1000
0100
1000
0000
,
0010
0000
0000
0000
0100
0001
0100
0000
,
0010
0000
0000
0000
1000
0001
1000
0000
,
0000
0100
0010
0000
0100
0000
0010
0000
,
1001
0000
0001
0000
0100
0010
0100
0000
,
0010
1000
0100
0010
,
0110
0000
0100
0000
1000
0001
1000
0000
,
0001
0100
0010
0000
,
1001
0000
1000
0000
0010
0100
0010
0000
,
0100
0001
0010
0100
,
0110
0000
0010
0000
0001
1000
0001
0000
,
2000
3020
0230
0302
,
0003
1000
0010
0010
,
1000
0100
1000
0000
0100
0000
0010
0000
,
0012
0000
2000
0000
,
3003
0000
0000
0000
,
0000
0000
0001
0000
0100
0010
0100
0000
,
0001
0010
0001
0000
0010
0000
0100
0000
,
2100
0000
0002
0000
,
3003
0000
0000
0000
,
1000
1100
0001
0101
,
1000
0000
0100
0000
0001
0100
0001
0000
,
0100
1000
1000
0020
,
0030
0000
0000
1000
,
0001
0011
1000
1100
,
0001
0000
0100
0000
0010
1000
0010
0100
,
0000
0001
0010
0000
0100
0000
1000
0000
,
0001
0000
0000
0000
,
0001
0011
1000
1010
,
0001
0000
0010
0000
1000
0010
1000
0000
,
0010
0001
0001
0200
,
0300
0000
0000
0001
,
1000
1100
0001
0011
,
1000
0000
0010
0000
0100
0001
0100
0010
,
0000
1000
0100
0000
0010
0000
0001
0000
,
2000
0000
3000
0000
,
2001
0000
0100
0100
,
0001
0100
3001
0100
,
0120
0000
1000
1000
,
0100
1000
0130
0001
,
1001
0000
0000
0000
0001
0000
0010
0001
,
0000
0100
0001
0000
1000
0000
0010
0000
,
0110
0000
0001
0000
0010
0000
1000
0010
,
0000
0001
0010
0000
0100
0000
1000
0000
,
0001
0000
1000
0100
1000
0000
0001
0000
,
0100
0010
1000
1001
,
0001
0000
0100
0001
0100
0000
0010
0000
,
1000
0001
0010
0110
,
1000
0000
0001
0010
0001
0000
1000
0000
,
0010
0100
0001
1001
,
1000
0000
0010
1000
0010
0000
0100
0000
,
0001
1000
0100
0110
,
1001
0000
0000
0000
;

//---------------dance-single - ----------------
#NOTEDATA:;
#CHARTNAME:;
#STEPSTYPE:dance-single;
#DESCRIPTION:;
#CHARTSTYLE:;
#DIFFICULTY:Hard;
#METER:12;
#RADARVALUES:0.582067,0.566526,0.369473,0.123158,0.035921,397.000000,361.000000,36.000000,12.000000,0.000000,0.000000,0.000000,0.000000,0.000000,0.582067,0.566526,0.369473,0.123158,0.035921,397.000000,361.000000,36.000000,12.000000,0.000000,0.000000,0.000000,0.000000,0.000000;
#CREDIT:led_light;
#NOTES:
0000
0000
0000
0000
,
0000
0000
0000
0000
,
0000
0000
0000
0000
,
0000
0000
0000
0000
,
0000
0000
0000
0000
,
1100
0000
1000
0001
0100
0010
1000
0001
,
0000
0001
0010
0001
0100
0010
1000
0000
,
1001
0000
1000
0100
0010
0100
1000
0010
,
0000
0010
0100
0001
1000
0000
1100
0000
,
0011
0000
0001
1000
0010
0100
0001
1000
,
0000
1000
0100
1000
0010
0100
0001
0000
,
1001
0000
0001
0010
0100
0010
0001
0100
,
0000
0100
0010
1000
0001
0000
0011
0000
,
1100
0000
0000
1000
0000
0000
0001
0000
0100
0000
0010
0000
1000
0000
0000
0000
,
0010
0000
0000
0010
0000
0000
0100
0000
0001
0000
0010
0000
0001
0000
0000
0000
,
0100
0000
0000
0100
0000
0000
1000
0000
0001
0000
0010
0000
1000
0000
0000
0000
,
0100
0000
0000
0100
0000
0000
0010
0000
0001
0000
1000
0000
0001
0000
0000
0000
,
0011
0000
0000
0001
0000
0000
1000
0000
0010
0000
0100
0000
0001
0000
0000
0000
,
0100
0000
0000
0100
0000
0000
0010
0000
1000
0000
0100
0000
1000
0000
0000
0000
,
0010
0000
0000
0010
0000
0000
0001
0000
1000
0000
0100
0000
0001
0000
0000
0000
,
0000
0010
0001
0000
0100
0010
0100
0000
,
0110
0000
1000
0000
0100
0010
0001
0000
,
0010
0100
0010
0100
1000
0001
0100
0000
,
0110
0000
0001
0000
0010
0001
1000
0000
,
0100
0010
0100
0010
0001
1000
0010
0000
,
0110
0000
0001
0000
0100
0010
1000
0000
,
0010
0100
0010
0100
0001
1000
0100
0000
,
0110
0000
1000
0000
0010
1000
0001
0000
,
0020
0230
2300
3002
,
0003
0000
1000
0000
0100
0010
0100
0000
,
0010
0001
0010
0001
0010
0000
0001
0000
,
1100
0000
0001
0200
0020
0000
0300
0000
,
0130
0100
0001
1000
,
1001
0000
0001
0000
0010
0100
0010
0000
,
0100
1000
0100
1000
0100
0000
1000
0000
,
0011
0000
1000
0020
0200
0000
0030
0000
,
0320
2030
3001
0000
,
1001
0000
0100
1000
0010
0000
0100
0001
,
0010
0000
0100
0001
0100
1000
0100
0000
,
0110
0000
0001
1000
0000
1000
0100
0000
,
0010
0000
0001
0000
0010
0100
1000
0000
,
1001
0000
0001
0100
0010
0000
1000
0100
,
0010
0000
0100
0000
0001
0100
1000
0010
,
0000
0010
0100
0001
1000
0000
1000
0100
,
0020
0000
0030
0100
,
1001
0000
0010
0001
0100
0000
0010
1000
,
0100
0000
0010
1000
0010
0001
0010
0000
,
0110
0000
1000
0001
0000
0001
0010
0000
,
0100
0000
1000
0000
0100
0010
0001
0000
,
1001
0000
1000
0010
0100
0000
0001
0010
,
0100
0000
0010
0000
1000
0010
0001
0100
,
0000
0100
0010
1000
0001
0000
0001
0010
,
0200
0000
0300
0010
,
1100
0000
1000
0001
0100
0010
1000
0001
,
0000
0001
0010
0001
0100
0010
1000
0000
,
1001
0000
1000
0100
0010
0100
1000
0010
,
0000
0010
0100
0001
1000
0000
1100
0000
,
0011
0000
0001
1000
0010
0100
0001
1000
,
0000
1000
0100
1000
0010
0100
0001
0000
,
1001
0000
0001
0010
0100
0010
0001
0100
,
0000
0100
0010
1000
0001
0000
0011
0000
,
0110
0000
1000
0100
1000
0000
0001
0010
,
0100
1000
0100
1000
0010
0000
1001
0000
,
0101
0000
0010
0100
0010
0000
1000
0001
,
0010
0100
0010
0100
1000
0000
0101
0000
,
0110
0000
0001
0100
0001
0000
1000
0010
,
0100
0001
0100
0001
0010
0000
1001
0000
,
1100
0000
0010
0100
0010
0000
0001
1000
,
0010
0100
0010
0100
0001
0000
1100
0000
,
0110
0000
0000
0000
;

//---------------dance-single - ----------------
#NOTEDATA:;
#CHARTNAME:;
#STEPSTYPE:dance-single;
#DESCRIPTION:;
#CHARTSTYLE:;
#DIFFICULTY:Challenge;
#METER:14;
#RADARVALUES:0.725751,0.743565,0.379736,0.123158,0.153947,495.000000,458.000000,37.000000,12.000000,24.000000,0.000000,0.000000,0.000000,0.000000,0.725751,0.743565,0.379736,0.123158,0.153947,495.000000,458.000000,37.000000,12.000000,24.000000,0.000000,0.000000,0.000000,0.000000;
#CREDIT:led_light;
#NOTES:
// measure 0
0000
0000
0000
0000
,  // measure 1
0000
0000
0000
0000
,  // measure 2
0000
0000
0000
0000
,  // measure 3
0000
0000
0000
0000
,  // measure 4
0000
0000
0000
0000
,  // measure 5
1001
0000
1000
0100
0010
0001
0010
0001
,  // measure 6
1000
0100
0010
0001
1000
0010
0100
0001
,  // measure 7
1001
0000
0001
1000
0100
1000
0100
0010
,  // measure 8
0001
0010
0100
1000
1100
0000
0110
0000
,  // measure 9
1001
0000
0001
0010
0100
1000
0100
1000
,  // measure 10
0001
0010
0100
1000
0001
0100
0010
1000
,  // measure 11
1001
0000
1000
0001
0010
0001
0010
0100
,  // measure 12
1000
0100
0010
0001
0011
0000
0110
0000
,  // measure 13
1001
0000
0000
0001
0000
0000
0001
0000
0100
0000
1000
0000
0100
0000
0001
0000
,  // measure 14
1000
0000
0000
1000
0000
0000
1000
0000
0100
0000
0010
0000
0001
0000
0100
0000
,  // measure 15
0010
0000
0000
0010
0000
0000
0010
0000
0100
0000
0001
0000
1000
0000
0100
0000
,  // measure 16
0010
0000
0000
0010
0000
0000
0010
0000
1000
0000
0010
0000
0001
0000
0000
0000
,  // measure 17
1001
0000
0000
1000
0000
0000
1000
0000
0100
0000
0001
0000
0100
0000
1000
0000
,  // measure 18
0001
0000
0000
0001
0000
0000
0001
0000
0100
0000
0010
0000
1000
0000
0100
0000
,  // measure 19
0010
0000
0000
0010
0000
0000
0010
0000
0100
0000
1000
0000
0001
0000
0100
0000
,  // measure 20
0000
0001
0010
0001
0010
0100
1000
0000
,  // measure 21
1001
0000
0000
0001
0010
0000
0001
0000
1000
0000
0001
0000
0100
0000
0001
0000
,  // measure 22
1000
0000
0100
1000
0100
0000
0010
0000
0001
0000
0010
0000
0100
0000
1000
0000
,  // measure 23
1001
0000
0001
0010
0001
0000
0100
0000
0010
0000
0001
0000
1000
0000
0100
0000
,  // measure 24
0010
0000
1000
0010
1000
0000
0001
0000
0010
0000
0100
0000
1000
0000
0001
0000
,  // measure 25
1001
0000
0000
1000
0100
0000
1000
0000
0001
0000
1000
0000
0010
0000
1000
0000
,  // measure 26
0001
0000
0010
0001
0010
0000
0100
0000
1000
0000
0100
0000
0010
0000
0001
0000
,  // measure 27
1001
0000
1000
0100
1000
0000
0010
0000
1000
0000
0001
0000
0100
0000
0010
0000
,  // measure 28
0002
0023
2030
3100
,  // measure 29
0011
0000
0200
0000
1300
0100
1000
0100
,  // measure 30
0010
0100
0010
0001
0010
0000
0001
0000
,  // measure 31
1100
0000
0010
0002
0100
0000
0100
0000
,  // measure 32
0013
0100
0010
0100
0001
0100
1000
0000
,  // measure 33
1100
0000
0020
0000
0031
0010
0001
0010
,  // measure 34
0100
0010
0100
1000
0100
0000
1000
0000
,  // measure 35
0011
0000
0100
2000
0010
0000
0010
0000
,  // measure 36
3100
0010
0100
0020
0130
0000
MMMM
0000
,  // measure 37
1001
0000
0000
1000
0100
0000
1000
0000
0001
0000
0000
0001
0010
0000
0001
0000
,  // measure 38
1000
0000
0000
1000
0010
0000
0100
0000
1000
0000
0100
0000
0010
0000
1000
0000
,  // measure 39
0001
0000
0010
0100
1000
0000
0010
0000
0100
0000
0010
0000
2000
0000
0000
0000
,  // measure 40
3001
0100
0001
0100
0001
0010
0100
1000
,  // measure 41
1001
0000
0000
0001
0010
0000
0001
0000
1000
0000
0000
1000
0100
0000
1000
0000
,  // measure 42
0001
0000
0000
0001
0100
0000
0010
0000
0001
0000
0001
0000
0010
0000
0100
0000
,  // measure 43
0001
1000
0001
1000
0010
0100
0001
0010
,  // measure 44
MMMM
MMMM
MMMM
MMMM
MMMM
1000
0001
0100
,  // measure 45
0110
0000
0000
0100
0001
0000
0100
0000
0010
0000
0000
0010
1000
0000
0100
0000
,  // measure 46
0010
0000
0000
0010
0001
0000
1000
0000
0100
0000
1000
0000
0001
0000
0100
0000
,  // measure 47
0010
0000
0001
0010
0001
0000
0010
0000
1000
0000
0001
0000
0200
0000
0000
0000
,  // measure 48
0301
1000
0100
1000
0010
0100
0001
0010
,  // measure 49
0110
0000
0000
0100
1000
0000
0100
0000
0010
0000
0000
0010
0001
0000
0100
0000
,  // measure 50
0010
0000
0000
0010
1000
0000
0001
0000
0010
0000
0010
0000
0100
0000
1000
0000
,  // measure 51
0001
0100
0001
0100
0010
1000
0100
0010
,  // measure 52
0100
0100
0100
0100
0100
0000
0010
0000
,  // measure 53
1002
0000
1003
0100
0010
0001
0010
0001
,  // measure 54
1000
0100
0010
0001
1000
0010
0100
0001
,  // measure 55
2001
0000
3001
1000
0100
1000
0100
0010
,  // measure 56
0001
0010
0100
1000
1100
0000
0110
0000
,  // measure 57
1001
0000
0001
0010
0100
1000
0100
1000
,  // measure 58
0001
0010
0100
1000
0001
0100
0010
1000
,  // measure 59
1001
0000
1000
0001
0010
0001
0010
0100
,  // measure 60
1000
0100
0010
0001
0011
0000
0110
0000
,  // measure 61
1001
0000
0010
0001
0100
0001
1000
0100
,  // measure 62
1000
0001
0010
0100
1000
0100
0010
0000
,  // measure 63
0110
0000
0001
1000
0100
1000
0100
1000
,  // measure 64
0010
0100
0010
1000
1001
0001
0101
0000
,  // measure 65
0110
0000
1000
0100
1000
0001
0100
0001
,  // measure 66
0010
0001
0100
0010
1000
0100
0010
0000
,  // measure 67
0110
0000
0001
1000
0010
1000
0010
0100
,  // measure 68
0001
0000
0010
0000
0100
0000
1000
0000
1001
0000
0001
0000
0100
0010
0100
0010
,  // measure 69
1000
0000
0000
0000
;

//---------------dance-double - ----------------
#NOTEDATA:;
#CHARTNAME:;
#STEPSTYPE:dance-double;
#DESCRIPTION:;
#CHARTSTYLE:;
#DIFFICULTY:Easy;
#METER:6;
#RADARVALUES:0.293233,0.354079,0.143684,0.123158,0.000000,200.000000,186.000000,14.000000,12.000000,0.000000,0.000000,0.000000,0.000000,0.000000,0.293233,0.354079,0.143684,0.123158,0.000000,200.000000,186.000000,14.000000,12.000000,0.000000,0.000000,0.000000,0.000000,0.000000;
#CREDIT:led_light;
#NOTES:
00000000
00000000
00000000
00000000
,
00000000
00000000
00000000
00000000
,
00000000
00000000
00000000
00000000
,
00000000
00000000
00000000
00000000
,
00000000
00000000
00000000
00000000
,
00011000
00000000
00001000
00000000
,
00100000
00100000
00010000
00000000
,
10010000
00000000
01000000
00000000
,
10000000
10000000
00100000
00010000
,
00011000
00000000
00010000
00000000
,
00000100
00000100
00001000
00000000
,
00001001
00000000
00000010
00000000
,
00000001
00000001
00000100
00001000
,
00011000
00000000
00010000
00000000
,
00100000
00000000
10000000
00000000
,
01100000
00000000
10000000
00000000
,
01000000
00000000
00010000
00000000
,
00011000
00000000
00001000
00000000
,
00000100
00000000
00000001
00000000
,
00000110
00000000
00000001
00000000
,
00000000
00000010
00001000
00000000
,
00010000
00010000
00001000
00001000
,
00010000
00000100
00001000
00000000
,
00000001
00000001
00000100
00000100
,
00000010
00010000
00001000
00000000
,
00001000
00001000
00010000
00010000
,
00001000
00100000
00010000
00000000
,
10000000
10000000
00100000
00100000
,
02000000
03002000
00023000
00032000
,
00003000
00010000
00001000
00001000
,
00010000
01000000
10000000
00000000
,
00200000
00000000
02000000
00000000
,
03300000
00000000
00000000
00000000
,
00000000
00001000
00010000
00000000
,
00001000
00000100
00000001
00000000
,
00000020
00000000
00000200
00000000
,
00000330
00000000
00000000
00000000
,
00010000
00010000
00001000
00001000
,
00010000
00000100
00000010
00000001
,
00001000
00000010
00000100
00000020
,
00000030
00000000
00000000
00010000
,
00001000
00001000
00010000
00010000
,
00001000
00100000
01000000
10000000
,
00010000
01000000
00100000
00010000
,
00002000
00000000
00003000
00000000
,
00010000
00001000
00000010
00001000
,
00010000
00010000
00000100
00001000
,
00000001
00000001
00000100
00000020
,
00000030
00000000
00000000
00010000
,
00001000
00010000
01000000
00010000
,
00001000
00001000
00100000
01000000
,
10000000
10000000
00100000
00010000
,
00002000
00000000
00003000
00000000
,
00011000
00000000
00001000
00000000
,
00100000
00100000
00010000
00000000
,
10010000
00000000
01000000
00000000
,
10000000
10000000
00100000
00010000
,
00011000
00000000
00010000
00000000
,
00000100
00000100
00001000
00000000
,
00001001
00000000
00000010
00000000
,
00000001
00000001
00001000
00000100
,
00000010
00000100
00000010
00000100
,
00001000
00000100
00010000
00000000
,
00001000
01000000
00001000
01000000
,
00010000
00100000
01000000
11000000
,
01000000
00100000
01000000
00100000
,
00010000
00100000
00001000
00000000
,
00010000
00000010
00010000
00000010
,
00001000
00000100
00000010
00000000
,
00000110
00000000
00000000
00000000
;

//---------------dance-double - ----------------
#NOTEDATA:;
#CHARTNAME:;
#STEPSTYPE:dance-double;
#DESCRIPTION:;
#CHARTSTYLE:;
#DIFFICULTY:Medium;
#METER:9;
#RADARVALUES:0.397330,0.460302,0.318158,0.133421,0.000000,271.000000,240.000000,31.000000,13.000000,0.000000,0.000000,0.000000,0.000000,0.000000,0.397330,0.460302,0.318158,0.133421,0.000000,271.000000,240.000000,31.000000,13.000000,0.000000,0.000000,0.000000,0.000000,0.000000;
#CREDIT:led_light;
#NOTES:
00000000
00000000
00000000
00000000
,
00000000
00000000
00000000
00000000
,
00000000
00000000
00000000
00000000
,
00000000
00000000
00000000
00000000
,
00000000
00000000
00000000
00000000
,
00011000
00000000
00001000
00000000
00100000
00000000
00010000
01000000
,
00000000
00010000
01000000
00000000
00100000
00000000
10000000
00000000
,
10010000
00000000
00010000
00000000
10000000
00000000
01000000
00100000
,
00000000
01000000
00100000
00000000
00001000
00000000
00010000
00000000
,
00011000
00000000
00010000
00000000
00000100
00000000
00001000
00000010
,
00000000
00001000
00000010
00000000
00000100
00000000
00000001
00000000
,
00001001
00000000
00001000
00000000
00000001
00000000
00000010
00000100
,
00000000
00000010
00000100
00000000
00010000
00000000
00001000
00000000
,
00011000
00000000
00001000
00001000
,
00100000
00000000
10000000
10000000
,
00100000
00000000
00010000
00010000
,
01000000
00000000
00001000
00010000
,
00011000
00000000
00010000
00010000
,
00000100
00000000
00000001
00000001
,
00000100
00000000
00001000
00001000
,
00000000
00000010
00010000
00001000
,
00011000
00000000
00001000
00000000
00100000
00010000
00100000
00000000
,
00001000
00010000
00000100
00000010
,
00000110
00000000
00000001
00000000
00001000
00000100
00001000
00000000
,
00000001
00000100
00001000
00000000
,
00011000
00000000
00010000
00000000
00000100
00001000
00000100
00000000
,
00010000
00001000
00100000
01000000
,
01100000
00000000
10000000
00000000
00010000
00100000
00010000
00000000
,
20000000
30200000
00320000
00032000
,
00003000
00010000
00001000
00001000
,
00100000
01000000
00100000
00000000
00010000
00000000
10000000
00000000
,
12000000
00000000
00020000
00000000
,
03030000
00000000
00000000
00000000
,
00000000
00001000
00010000
00010000
,
00000100
00000010
00000100
00000000
00001000
00000000
00000001
00000000
,
00000021
00000000
00002000
00000000
,
00003030
00000000
00000000
00000000
,
00010000
00011000
00000100
00001100
,
00010000
00000000
00000010
00000000
00000100
00000001
00000010
00000000
,
00000100
00000100
00010000
00002000
,
00003000
00000000
00000000
00010000
,
00001000
00011000
01000000
01010000
,
00001000
00000000
00010000
00000000
01000000
00100000
01000000
00100000
,
00000000
01000000
10000000
00000000
00100000
00000000
00010000
00000000
,
00001000
00000000
00000000
00000000
,
00001000
00011000
00100000
00110000
,
00001000
00000000
01000000
00000000
00100000
10000000
01000000
00000000
,
00100000
00100000
00001000
00020000
,
00030000
00000000
00000000
00001000
,
00010000
00011000
00000010
00001010
,
00010000
00000000
00001000
00000000
00000010
00000100
00000010
00000100
,
00000000
00000010
00000001
00000000
00000100
00000000
00001000
00000000
,
00020000
00000000
00030000
00000000
,
00021000
00000000
00000100
00000100
,
00001000
00001000
00030010
00010000
,
00012000
00000000
00100000
00100000
,
00010000
00010000
01003000
00001000
,
00011000
00000000
00001000
00000000
00100000
00000000
00010000
01000000
,
00000000
00010000
01000000
00000000
00100000
00000000
10000000
00000000
,
10010000
00000000
00010000
00000000
10000000
00000000
01000000
00100000
,
00000000
01000000
00100000
00000000
00001000
00000000
00010000
00000000
,
00011000
00001000
00000010
00000001
,
00000010
00000000
00001000
00000000
00010000
00001000
00000010
00000000
,
00000110
00000100
00000001
00000100
,
00001000
00000010
00000011
00001000
,
00011000
00010000
01000000
10000000
,
01000000
00000000
00010000
00000000
00001000
00010000
01000000
00000000
,
01100000
00100000
10000000
00100000
,
00010000
01000000
11000000
00010000
,
00011000
00000000
00000000
00000000
;

//---------------dance-double - ----------------
#NOTEDATA:;
#CHARTNAME:;
#STEPSTYPE:dance-double;
#DESCRIPTION:;
#CHARTSTYLE:;
#DIFFICULTY:Hard;
#METER:12;
#RADARVALUES:0.551278,0.566526,0.348947,0.123158,0.035921,376.000000,342.000000,34.000000,12.000000,0.000000,0.000000,0.000000,0.000000,0.000000,0.551278,0.566526,0.348947,0.123158,0.035921,376.000000,342.000000,34.000000,12.000000,0.000000,0.000000,0.000000,0.000000,0.000000;
#CREDIT:led_light;
#NOTES:
00000000
00000000
00000000
00000000
,
00000000
00000000
00000000
00000000
,
00000000
00000000
00000000
00000000
,
00000000
00000000
00000000
00000000
,
00000000
00000000
00000000
00000000
,
00110000
00000000
10000000
01000000
00100000
00010000
10000000
00100000
,
00000000
01000000
00100000
00010000
00001000
00000000
00000100
00000000
,
00000110
00000000
00000100
00000001
00000010
00001000
00000010
00000001
,
00000000
00000010
00000100
00001000
00001100
00000000
00000100
00000000
,
00000101
00000000
00001000
00000001
00000100
00000010
00001000
00000001
,
00000000
00000010
00000100
00010000
00001000
00000000
00010000
00000000
,
00011000
00000000
00001000
00010000
01000000
00010000
00001000
00100000
,
00000000
00010000
10000000
00100000
01100000
00000000
00010000
00000000
,
00011000
00000000
00000000
00001000
00000000
00000000
00100000
00000000
00010000
00000000
00000000
00000000
10000000
00000000
00000000
00000000
,
01000000
00000000
00000000
01000000
00000000
00000000
00010000
00000000
01000000
00000000
00000000
00000000
10000000
00000000
00000000
00000000
,
00100000
00000000
00000000
00100000
00000000
00000000
00010000
00000000
00100000
00000000
00000000
00000000
01000000
00000000
00000000
00000000
,
00001000
00000000
00000000
00001000
00000000
00000000
00010000
00000000
00000100
00000000
00000000
00000000
00010000
00000000
00000000
00000000
,
00011000
00000000
00000000
00010000
00000000
00000000
00000010
00000000
00001000
00000000
00000000
00000000
00000001
00000000
00000000
00000000
,
00000100
00000000
00000000
00000100
00000000
00000000
00001000
00000000
00000100
00000000
00000000
00000000
00000001
00000000
00000000
00000000
,
00000010
00000000
00000000
00000010
00000000
00000000
00001000
00000000
00000010
00000000
00000000
00000000
00000100
00000000
00000000
00000000
,
00000000
00010000
00001000
00010000
00001000
00000000
00010000
00000000
,
00011000
00000000
00001000
00000000
00010000
00000100
00001000
00000000
,
00000001
00000000
00000001
00000000
00000100
00000010
00001000
00000000
,
00001001
00000000
00000001
00000000
00000010
00000100
00001000
00000000
,
00000100
00010000
00001000
00000000
00010000
00000000
00001000
00000000
,
00011000
00000000
00010000
00000000
00001000
00100000
00010000
00000000
,
10000000
00000000
10000000
00000000
00100000
01000000
00010000
00000000
,
10010000
00000000
10000000
00000000
01000000
00100000
00010000
00000000
,
00200000
00302000
00003020
00000032
,
00000003
00000000
00001000
00000000
00000010
00000100
00000010
00000000
,
00001000
00000100
00001000
00000100
00001000
00000000
00000001
00000000
,
00000011
00000000
00000100
00002000
00000020
00000000
00000030
00000000
,
00003001
00000010
00001000
00010000
,
01100000
00000000
00010000
00000000
00100000
01000000
00100000
00000000
,
00010000
01000000
00010000
01000000
00010000
00000000
10000000
00000000
,
10100000
00000000
01000000
00020000
00200000
00000000
00030000
00000000
,
00302000
00023000
00031000
00000000
,
00011000
00000000
00000100
00001000
00000100
00000000
00010000
00001000
,
00010000
00000000
00000010
00001000
00000010
00000100
00000001
00000000
,
00001001
00000000
00001000
00000100
00000000
00000100
00000001
00000000
,
00001000
00000010
00000100
00000010
,
00001001
00000000
00000001
00000010
00001000
00000000
00000001
00000100
,
00001000
00000000
00001000
00000000
00000010
00000100
00001000
00010000
,
00000000
00010000
00100000
01000000
00010000
00000000
10000000
01000000
,
00200000
00000000
00300000
00001000
,
00011000
00000000
00100000
00010000
00100000
00000000
00001000
00010000
,
00001000
00000000
01000000
00010000
01000000
00100000
10000000
00000000
,
10010000
00000000
00010000
00100000
00000000
00100000
10000000
00000000
,
00010000
01000000
00100000
01000000
,
10010000
00000000
10000000
01000000
00010000
00000000
10000000
00100000
,
00010000
00000000
00010000
00000000
01000000
00100000
00010000
00001000
,
00000000
00001000
00000100
00000010
00001000
00000000
00000001
00000010
,
00000200
00000000
00000300
00001000
,
00001100
00000000
00000001
00000010
00000100
00001000
00000001
00000100
,
00000000
00000010
00000100
00001000
00010000
00000000
00100000
00000000
,
01100000
00000000
00100000
10000000
01000000
00010000
01000000
10000000
,
00000000
01000000
00100000
00010000
00110000
00000000
00100000
00000000
,
10100000
00000000
00010000
10000000
00100000
01000000
00010000
10000000
,
00000000
01000000
00100000
00001000
00010000
00000000
00001000
00000000
,
00011000
00000000
00010000
00001000
00000010
00001000
00010000
00000100
,
00000000
00001000
00000001
00000100
00000110
00000000
00001000
00000000
,
00011000
00000000
00010000
00000100
00001000
00000000
00000100
00010000
,
00001000
01000000
00001000
00010000
00000010
00000000
00000100
00000000
,
00000110
00000000
00000001
00001000
00000100
00000000
00001000
00000001
,
00000100
00000010
00000100
00000010
00001010
00000000
00010000
00000000
,
00011000
00000000
00001000
01000000
00010000
00000000
01000000
00001000
,
00010000
00000100
00010000
00001000
00100000
00000000
01000000
00000000
,
01100000
00000000
10000000
00010000
01000000
00000000
00010000
10000000
,
01000000
00100000
01000000
00100000
00110000
00000000
00001000
00000000
,
00011000
00000000
00000000
00000000
;

//---------------dance-double - ----------------
#NOTEDATA:;
#CHARTNAME:;
#STEPSTYPE:dance-double;
#DESCRIPTION:;
#CHARTSTYLE:;
#DIFFICULTY:Challenge;
#METER:14;
#RADARVALUES:0.718420,0.708157,0.379736,0.153947,0.169342,490.000000,453.000000,37.000000,15.000000,48.000000,0.000000,0.000000,0.000000,0.000000,0.718420,0.708157,0.379736,0.153947,0.169342,490.000000,453.000000,37.000000,15.000000,48.000000,0.000000,0.000000,0.000000,0.000000;
#CREDIT:led_light;
#NOTES:
00000000
00000000
00000000
00000000
,
00000000
00000000
00000000
00000000
,
00000000
00000000
00000000
00000000
,
00000000
00000000
00000000
00000000
,
00000000
00000000
00000000
00000000
,
00000011
00000000
00001000
00000001
00000100
00000010
00001000
00000100
,
00010000
00001000
00010000
00001000
00100000
00010000
10000000
01000000
,
01100000
00000000
10000000
00010000
01000000
00010000
01000000
00100000
,
00010000
00001000
00000100
00000001
00000101
00000000
00001010
00000000
,
00000101
00000000
00001000
00000001
00000010
00000100
00001000
00000010
,
00010000
00001000
00010000
00001000
01000000
00010000
10000000
00100000
,
01100000
00000000
10000000
00010000
00100000
00010000
00100000
01000000
,
00010000
00001000
00000010
00000001
00000011
00000000
00001100
00000000
,
00001001
00000000
00000000
00000001
00000000
00000000
00000001
00000000
00000100
00000000
00001000
00000000
00000001
00000000
00000010
00000000
,
00001000
00000000
00000000
00001000
00000000
00000000
00001000
00000000
00000010
00000000
00010000
00000000
00001000
00000000
01000000
00000000
,
00001000
00000000
00000000
00001000
00000000
00000000
00001000
00000000
00010000
00000000
00001000
00000000
00100000
00000000
00010000
00000000
,
10000000
00000000
00000000
10000000
00000000
00000000
10000000
00000000
01000000
00000000
00100000
00000000
00010000
00000000
00000000
00000000
,
10010000
00000000
00000000
10000000
00000000
00000000
10000000
00000000
01000000
00000000
00010000
00000000
10000000
00000000
00100000
00000000
,
00010000
00000000
00000000
00010000
00000000
00000000
00010000
00000000
00100000
00000000
00001000
00000000
00010000
00000000
00000100
00000000
,
00010000
00000000
00000000
00010000
00000000
00000000
00010000
00000000
00001000
00000000
00010000
00000000
00000010
00000000
00001000
00000000
,
00000000
00000001
00000010
00000001
00000010
00000100
00001000
00000000
,
00011000
00000000
00000000
00100000
00010000
00000000
10000000
00000000
00100000
00000000
10000000
00000000
00010000
00000000
00100000
00000000
,
01000000
00000000
00010000
00001000
00000000
00010000
00001000
00000000
00010000
00000000
00001000
00000000
00000010
00000000
00000001
00000000
,
00001001
00000000
00000000
00001000
00000100
00000000
00010000
00000000
00001000
00000000
00010000
00000000
00000010
00000000
00001000
00000000
,
00000100
00000000
00001000
00000001
00000000
00001000
00000001
00000000
00000100
00000000
00000010
00000000
00010000
00000000
00001000
00000000
,
00011000
00000000
00000000
00000100
00001000
00000000
00000001
00000000
00000100
00000000
00000001
00000000
00001000
00000000
00000100
00000000
,
00000010
00000000
00001000
00010000
00000000
00001000
00010000
00000000
00001000
00000000
00010000
00000000
01000000
00000000
10000000
00000000
,
10010000
00000000
00000000
00010000
00100000
00000000
00001000
00000000
00010000
00000000
00001000
00000000
00100000
00000000
00010000
00000000
,
20000000
30200000
00320000
00032000
,
00013000
00000000
00021000
00000000
00030010
00001000
00000010
00000100
,
00000001
00001000
00000100
00010000
00001000
00000000
00100000
00000000
,
02100000
00000000
13000000
00020000
01000000
00000000
01000000
00000000
,
00130000
00010000
00100000
00010000
01000000
00001000
00010000
00000000
,
00001000
00000000
00012000
00000000
00103000
00010000
00100000
01000000
,
10000000
00010000
01000000
00001000
00010000
00000000
00000010
00000000
,
00000210
00000000
00000301
00002000
00000100
00000000
00000100
00000000
,
00003010
00001000
00000010
00020000
00031000
00000000
MMMMMMMM
00000000
,
01010000
00000000
00000000
01000000
00001000
00000000
00010000
00000000
00000010
00000000
00000000
00000010
00010000
00000000
00001000
00000000
,
00100000
00000000
00000000
00100000
00001000
00000000
00010000
00000000
00000100
00000000
01000000
00000000
00001000
00000000
00010000
00000000
,
00000010
00000000
00000000
00000010
00000100
00000000
00000001
00000000
00001000
00000000
00000100
00000000
00000020
00000000
00000000
00000000
,
00001030
00010000
00000100
00010000
00001000
00010000
01000000
10000000
,
11000000
00000000
00000000
01000000
00010000
00000000
00001000
00000000
00000010
00000000
00000000
00000010
00001000
00000000
00010000
00000000
,
00100000
00000000
00000000
00100000
00010000
00000000
00001000
00000000
00000100
00000000
00000100
00000000
00000010
00000000
00001000
00000000
,
00000001
00000010
00000001
00000010
00000100
00001000
00010000
00100000
,
MMMMMMMM
MMMMMMMM
MMMMMMMM
MMMMMMMM
MMMMMMMM
00010000
00000010
00001000
,
00001010
00000000
00000000
00000010
00010000
00000000
00001000
00000000
01000000
00000000
00000000
01000000
00001000
00000000
00010000
00000000
,
00000100
00000000
00000000
00000100
00010000
00000000
00001000
00000000
00100000
00000000
00000010
00000000
00010000
00000000
00001000
00000000
,
01000000
00000000
00000000
01000000
00100000
00000000
10000000
00000000
00010000
00000000
00100000
00000000
02000000
00000000
00000000
00000000
,
03010000
00001000
00100000
00001000
00010000
00001000
00000010
00000001
,
00000011
00000000
00000000
00000010
00001000
00000000
00010000
00000000
01000000
00000000
00000000
01000000
00010000
00000000
00001000
00000000
,
00000100
00000000
00000000
00000100
00001000
00000000
00010000
00000000
00100000
00000000
00100000
00000000
01000000
00000000
00010000
00000000
,
10000000
01000000
10000000
01000000
00100000
00010000
00001000
00000100
,
00000010
00000010
00000010
00000010
00000010
00000000
00000001
00000000
,
00000012
00000000
00001003
00000001
00000100
00000010
00001000
00000100
,
00010000
00001000
00010000
00001000
00100000
00010000
10000000
01000000
,
02100000
00000000
13000000
00010000
01000000
00010000
01000000
00100000
,
00010000
00001000
00000100
00000001
00000101
00000000
00001010
00000000
,
00000101
00000000
00001000
00000001
00000010
00000100
00001000
00000010
,
00010000
00001000
00010000
00001000
01000000
00010000
10000000
00100000
,
01100000
00000000
10000000
00010000
00100000
00010000
00100000
01000000
,
00010000
00001000
00000010
00000001
00000011
00000000
00001100
00000000
,
00001001
00000000
00000001
00000010
00000100
00001000
00000010
00000100
,
00001000
00010000
00001000
00010000
00100000
01000000
10000000
00000000
,
01100000
00000000
10000000
00010000
00100000
00010000
00100000
01000000
,
10000000
01000000
00010000
00001000
00011000
00000000
00110000
00000000
,
10010000
00000000
10000000
01000000
00100000
00010000
01000000
00100000
,
00010000
00001000
00010000
00001000
00000100
00000010
00000001
00000000
,
00000110
00000000
00000001
00001000
00000100
00001000
00000100
00000010
,
00000001
00000000
00000100
00000000
00001000
00000000
00010000
00000000
00011000
00000000
00001000
00000000
00100000
00010000
00100000
00010000
,
10000000
00000000
00000000
00000000
;
