#VERSION:0.83;
#TITLE:Deca Dance;
#SUBTITLE:;
#ARTIST:Yooh;
#TITLETRANSLIT:;
#SUBTITLETRANSLIT:;
#ARTISTTRANSLIT:;
#GENRE:Crossover;
#ORIGIN:;
#CREDIT:;
#BANNER:Deca Dance.png;
#BACKGROUND:Deca Dance-bg.png;
#PREVIEWVID:;
#JACKET:Deca Dance-jacket.png;
#CDIMAGE:;
#DISCIMAGE:;
#LYRICSPATH:;
#CDTITLE:../cdtitle.png;
#MUSIC:Deca Dance.ogg;
#OFFSET:-0.035000;
#SAMPLESTART:31.535000;
#SAMPLELENGTH:15.000000;
#SELECTABLE:YES;
#BPMS:0.000=160.000;
#STOPS:;
#DELAYS:;
#WARPS:;
#TIMESIGNATURES:0.000=4=4;
#TICKCOUNTS:0.000=4;
#COMBOS:0.000=1;
#SPEEDS:0.000=1.000=0.000=0;
#SCROLLS:0.000=1.000;
#FAKES:;
#LABELS:0.000=Song Start;
#BGCHANGES:-0.125=Deca Dance.avi=1.000=0=0=0=StretchNoLoop====,
99999=-nosongbg-=1.000=0=0=0 // don't automatically add -songbackground-
;
#KEYSOUNDS:;
#ATTACKS:
;

//---------------dance-single - ----------------
#NOTEDATA:;
#CHARTNAME:;
#STEPSTYPE:dance-single;
#DESCRIPTION:;
#CHARTSTYLE:;
#DIFFICULTY:Challenge;
#METER:15;
#RADARVALUES:0.682867,0.782193,0.281654,0.627686,0.502953,594.000000,559.000000,35.000000,78.000000,0.000000,0.000000,0.000000,0.000000,0.000000,0.682867,0.782193,0.281654,0.627686,0.502953,594.000000,559.000000,35.000000,78.000000,0.000000,0.000000,0.000000,0.000000,0.000000;
#CREDIT:led_light;
#NOTES:
// measure 0
0000
0000
0000
0000
,  // measure 1
0000
0000
0000
0000
,  // measure 2
0000
0000
0000
0000
,  // measure 3
0000
0000
0000
0000
,  // measure 4
0000
0000
0000
0000
,  // measure 5
2000
0000
0000
0000
0010
0000
0000
0010
0000
0000
0010
0000
3000
0000
1000
0000
,  // measure 6
0200
0000
0000
0000
0001
0000
0000
0001
0000
0000
0001
0000
0300
0000
0100
0000
,  // measure 7
0020
0000
0000
0000
1000
0000
0000
1000
0000
0000
1000
0000
0030
0000
0010
0000
,  // measure 8
0002
0000
0000
0000
0010
0000
0000
0100
0000
0000
0100
0000
0003
0000
0001
0000
,  // measure 9
1000
0000
0100
0000
0010
0000
0001
0000
0020
0000
0030
0000
0100
1000
0100
0000
,  // measure 10
2000
0000
0000
3010
0000
0000
1010
0000
0200
0000
0000
0301
0000
0000
0101
0000
,  // measure 11
0001
1000
0010
1000
0002
0010
0003
0010
,  // measure 12
0100
0000
1000
0000
0001
0000
1000
0100
1000
0000
0001
0100
0002
0000
0003
0000
,  // measure 13
1000
0000
0100
0000
0010
0000
0001
0000
0020
0000
0030
0000
0100
1000
0100
0000
,  // measure 14
0001
0000
0100
0000
1000
0000
0010
0000
0001
0000
0020
0200
0000
0000
0000
0000
,  // measure 15
0330
0000
0000
0000
0000
0000
0020
0000
2030
0000
0000
3200
0000
0000
0302
0000
,  // measure 16
2003
0000
0000
3020
0000
0000
0032
0000
0000
0003
0000
0000
1000
0000
0000
0000
,  // measure 17
1001
0000
0000
0000
1000
0000
0100
0010
0100
0000
0001
0000
0100
0000
0010
0000
,  // measure 18
0100
1000
0001
0000
1000
0100
0010
0001
,  // measure 19
1000
1000
0010
0010
0001
0001
0100
0100
,  // measure 20
1000
0010
1000
0100
0010
0001
0100
0010
1000
0001
0010
0100
1000
0000
0000
0000
,  // measure 21
2001
0000
3000
0000
0010
0000
0100
0001
2000
0000
0100
0000
3002
0000
0010
0000
,  // measure 22
2003
0000
0010
0000
3200
0000
0000
0300
0010
0000
0100
0000
1000
0000
0001
0000
,  // measure 23
1002
0000
0003
0000
0010
0000
0100
1000
0002
0000
0100
0000
2003
0000
0010
0000
,  // measure 24
3002
0000
0010
0000
0203
0000
0000
0300
0010
0000
0100
0000
0001
0000
1000
0000
,  // measure 25
2001
0000
3000
0000
0100
0000
1000
0010
0200
0000
1000
0000
0302
0000
0010
0000
,  // measure 26
2003
0000
0100
0000
3002
0000
0000
0003
1000
0000
0010
0000
0100
0000
0001
0000
,  // measure 27
1002
0000
0003
0000
0100
0000
0001
0010
0200
0000
0001
0000
2300
0000
0010
0000
,  // measure 28
3002
0010
1000
0103
,  // measure 29
0110
0000
0000
0000
0000
0000
0000
0000
0000
0000
0000
0000
1001
0000
1000
0100
,  // measure 30
0002
0000
0100
1003
0002
0000
0000
0003
1000
0000
0010
0000
0001
0000
0010
0000
,  // measure 31
2001
0000
3000
0000
0010
0000
1000
0100
0020
0000
0001
1000
0000
0000
1000
0100
,  // measure 32
0000
0000
0001
0130
0020
0000
0000
0030
0100
0000
0001
0010
0100
0000
1000
0000
,  // measure 33
1002
0000
0003
0000
0100
0000
0001
1000
0200
0000
1000
0010
0000
0000
0010
1000
,  // measure 34
0000
0000
0010
0301
0100
0000
0010
0000
2020
0000
0000
0000
3000
0000
0000
0000
,  // measure 35
0230
0000
0000
0000
0301
0000
0100
0100
1000
0000
0100
0100
0001
0000
0010
0010
,  // measure 36
0100
0000
0100
0000
1000
0000
0001
0000
0100
0010
1000
0001
0100
0000
0000
0000
,  // measure 37
2001
0000
3010
1000
2100
0000
3010
0200
,  // measure 38
0000
0000
0002
0003
0020
0030
2000
3000
0000
0000
2000
3000
0020
0030
0302
0003
,  // measure 39
2000
0000
0000
0000
0200
0300
0002
0003
3020
0000
0000
0000
0130
0000
0001
0000
,  // measure 40
0000
0000
0001
0000
0010
0000
0000
1010
0000
0000
1100
0000
0000
0101
0000
0000
,  // measure 41
2001
0000
3100
1000
2010
0000
3100
0020
,  // measure 42
0000
0000
0002
0003
0200
0300
2000
3000
0000
0000
2000
3000
0200
0300
0032
0003
,  // measure 43
1000
0000
0100
0000
1000
0000
0010
0000
0100
0001
0100
0000
0010
1000
0000
1000
,  // measure 44
0002
0000
0000
0000
0000
0000
0000
0000
0000
0000
0000
0003
0100
0000
0000
0000
,  // measure 45
1001
0000
0000
0000
,  // measure 46
0000
0000
0000
0000
,  // measure 47
0000
0000
0000
0000
,  // measure 48
0000
0000
0000
0000
,  // measure 49
1000
0000
0000
0000
0100
0000
0000
0010
0000
0000
0011
0000
0001
1000
0001
0000
,  // measure 50
0100
0000
0000
0000
0010
0000
0000
1000
0000
0000
1001
0000
0001
0100
0001
0000
,  // measure 51
0100
0000
0100
0000
0001
0000
0001
0000
0010
0100
0010
0100
1000
0001
1000
0001
,  // measure 52
2000
0000
0000
0000
0000
0000
0000
0000
0000
0000
0000
3000
0001
0000
0000
0000
,  // measure 53
0101
0000
0100
0000
0010
0000
1000
0100
0000
0001
0100
0000
1000
0000
0000
0000
,  // measure 54
1100
0000
0100
0000
0010
0000
0001
0100
0000
1000
0100
0000
0001
0000
0000
0000
,  // measure 55
1010
0000
0010
0000
0100
0000
0001
0010
0000
1000
0010
0000
0001
0000
0000
0000
,  // measure 56
0011
0000
0010
0000
0100
0000
1000
0010
0000
0001
0010
0000
1000
0000
0000
0000
,  // measure 57
0001
0100
0001
0000
0100
0000
0010
0000
1000
0100
1000
0000
0100
0000
0010
0000
,  // measure 58
0001
0000
0001
0000
1000
0000
0010
0000
0100
0001
0100
0010
1000
0001
0010
0100
,  // measure 59
2000
0000
0000
0000
,  // measure 60
3100
0000
0000
0000
0010
0000
0000
0000
0110
0000
0000
0000
0001
0100
0001
0000
,  // measure 61
1000
0000
0010
0000
0100
0000
0010
1000
0000
1000
0100
0000
0001
0000
0100
0000
,  // measure 62
1000
0000
0010
0000
1002
0003
0100
0010
0000
0010
0100
0000
0010
1000
0001
0000
,  // measure 63
0100
0000
0001
0000
0010
0000
0100
1000
0000
1000
0010
0000
1000
0100
0010
0001
,  // measure 64
1000
0000
0010
0000
0110
0000
0010
1000
0000
1000
0001
0000
0001
0100
0010
1000
,  // measure 65
0001
0000
0010
0000
0100
0000
0010
0001
0000
0001
1000
0000
0100
1000
0001
0000
,  // measure 66
0100
0000
0001
0000
2100
3000
0001
0100
0000
0100
0010
0000
1000
0001
0010
0000
,  // measure 67
0100
0000
0001
0000
0100
0000
0010
0001
0000
0001
0100
0000
0010
1000
0100
0000
,  // measure 68
0020
0000
0000
0000
0100
0000
0000
1000
0000
1030
0010
0000
0100
1000
0001
0000
,  // measure 69
1000
0100
1000
0000
0001
0000
1000
0100
1000
0000
0001
0000
0100
0010
1000
0000
,  // measure 70
0001
0000
0010
0000
0110
0000
1000
0010
0000
0010
1000
0000
0100
0010
0001
0000
,  // measure 71
0001
0100
0001
0000
1000
0000
0001
0100
0001
0000
1000
0000
0100
0010
0001
0000
,  // measure 72
1000
0000
0010
0000
0110
0000
0001
0010
0000
0010
0001
0000
0100
0010
1000
0000
,  // measure 73
0001
0010
0100
0000
0001
0000
0100
0010
0001
0000
1000
0000
0010
0100
1000
0000
,  // measure 74
0100
0000
0010
0000
1001
0000
1000
0010
0000
0100
0010
0000
0100
0001
1000
0000
,  // measure 75
0200
0000
0000
0000
0010
0000
0000
0001
0300
0001
0100
0000
1000
0001
1000
0001
,  // measure 76
0100
0000
0100
0000
0010
0000
0001
0010
0000
0010
1000
0000
0001
0000
0000
0000
,  // measure 77
1001
0000
1000
0010
0100
0000
0001
0000
0010
0000
0001
0100
0010
0000
1000
0000
,  // measure 78
0100
0000
0001
1000
0010
0000
0001
0000
1000
0000
0010
0001
1000
0000
0100
0000
,  // measure 79
0010
0000
0010
0000
1000
0000
0001
0000
0100
0001
0010
0001
0100
0010
1000
0001
,  // measure 80
0020
0000
0000
0130
,  // measure 81
1001
0000
0000
0000
;

//---------------dance-single - ----------------
#NOTEDATA:;
#CHARTNAME:;
#STEPSTYPE:dance-single;
#DESCRIPTION:;
#CHARTSTYLE:;
#DIFFICULTY:Hard;
#METER:12;
#RADARVALUES:0.554111,0.651828,0.346032,0.466741,0.096567,482.000000,439.000000,43.000000,58.000000,0.000000,0.000000,0.000000,0.000000,0.000000,0.554111,0.651828,0.346032,0.466741,0.096567,482.000000,439.000000,43.000000,58.000000,0.000000,0.000000,0.000000,0.000000,0.000000;
#CREDIT:led_light;
#NOTES:
// measure 0
0000
0000
0000
0000
,  // measure 1
0000
0000
0000
0000
,  // measure 2
0000
0000
0000
0000
,  // measure 3
0000
0000
0000
0000
,  // measure 4
0000
0000
0000
0000
,  // measure 5
2000
0100
0000
0100
,  // measure 6
3002
0100
0000
0100
,  // measure 7
2003
0010
0000
0010
,  // measure 8
3002
0010
0000
0013
,  // measure 9
0100
1000
0001
0000
2000
0000
3100
0000
,  // measure 10
2000
3010
0020
0130
,  // measure 11
0001
0010
0100
0000
0020
0000
0031
0000
,  // measure 12
1000
0100
1000
0000
0001
0100
0001
0000
,  // measure 13
0010
0001
1000
0000
0002
0000
0013
0000
,  // measure 14
0001
0000
0100
0000
0010
0000
0000
0000
2000
0000
0000
0200
0000
0000
0000
0000
,  // measure 15
3300
0000
0000
0000
0000
0000
0010
0000
0001
0000
0000
0001
0000
0000
1000
0000
,  // measure 16
0010
0000
0000
0100
0000
0000
0002
0000
0000
0000
0000
0000
1003
0000
0000
0000
,  // measure 17
1001
0000
0001
0010
0100
1000
0100
0000
,  // measure 18
0100
0001
0100
0000
0100
1000
0100
0000
,  // measure 19
1000
0010
0100
0001
1000
0010
0100
0001
,  // measure 20
0010
0100
0010
0100
0020
0000
0130
0000
,  // measure 21
1002
0000
0000
0003
1000
0000
0010
0000
1000
0000
0100
0000
0001
0000
0100
0000
,  // measure 22
1000
0010
0001
0000
1000
0100
0001
1000
,  // measure 23
2001
0000
0000
3000
0100
0000
1000
0000
0010
0000
0001
0000
0100
0000
0001
0000
,  // measure 24
0010
1000
0001
0000
1000
0010
0100
0001
,  // measure 25
1002
0000
0000
0003
0100
0000
0001
0000
0010
0000
1000
0000
0100
0000
1000
0000
,  // measure 26
0010
0001
1000
0000
0001
0010
0100
1000
,  // measure 27
1002
0000
0000
0003
0010
0000
0100
0000
1000
0000
0010
0000
0001
0000
0010
0000
,  // measure 28
0200
1000
0010
0301
,  // measure 29
1001
0000
0000
0110
,  // measure 30
0001
0100
0020
0030
1000
0100
0010
0100
,  // measure 31
2100
3000
0010
0100
2000
3100
0020
0130
,  // measure 32
2000
3100
0002
0003
0010
0100
1000
0100
,  // measure 33
0012
0003
1000
0001
0020
0031
0200
0301
,  // measure 34
0020
0031
2000
3000
2020
0000
3000
0000
,  // measure 35
0230
0300
0100
0001
0010
0010
0100
0100
,  // measure 36
0001
1000
0010
0001
0100
0010
1000
0000
,  // measure 37
1002
0000
0013
0100
0210
0000
1300
0010
,  // measure 38
0000
2000
3020
0032
0003
0002
0023
2030
,  // measure 39
3002
0000
0023
0000
0230
0000
1300
0010
,  // measure 40
0000
0000
0010
0000
0100
0000
0000
0011
0000
0000
0011
0000
0000
0110
0000
0000
,  // measure 41
2001
0000
3100
0010
0120
0000
0031
0100
,  // measure 42
0000
0002
0203
2300
3000
2000
3200
0302
,  // measure 43
1003
0000
0100
0000
0010
0000
0001
0000
0100
0000
0010
0000
1000
0001
0000
0001
,  // measure 44
2000
0000
0000
0000
0000
3000
0100
0000
,  // measure 45
1001
0000
0000
0000
,  // measure 46
0000
0000
0000
0000
,  // measure 47
0000
0000
0000
0000
,  // measure 48
0000
0000
0000
0000
,  // measure 49
1000
0000
0000
0000
0100
0000
0000
0010
0000
0000
0011
0000
0001
0000
1000
0000
,  // measure 50
0001
0000
0000
0000
0100
0000
0000
0010
0000
0000
1010
0000
1000
0000
0001
0000
,  // measure 51
0010
0010
1000
1000
0001
0100
1000
0010
,  // measure 52
0001
0000
0000
0010
,  // measure 53
0101
0000
0000
0000
0011
0000
0000
1001
0000
0000
0011
0000
0000
0000
0100
0000
,  // measure 54
1000
0000
0000
0000
1010
0000
0000
0110
0000
0000
1010
0000
0000
0000
0001
0000
,  // measure 55
0010
0000
0000
0000
0110
0000
0000
0101
0000
0000
0110
0000
0000
0000
1000
0000
,  // measure 56
0001
0000
0000
0000
0011
0000
0000
1100
0000
0000
0011
0000
0001
0000
1000
0000
,  // measure 57
0010
0010
0100
0001
0010
0010
0100
1000
,  // measure 58
0001
0001
0010
0001
0100
0010
1000
0001
,  // measure 59
0020
0000
0000
0000
,  // measure 60
0130
0000
0000
0000
0010
0000
0000
0000
0100
0000
0000
0000
1002
0003
0000
0000
,  // measure 61
0010
0001
1000
0001
0100
0010
1000
0100
,  // measure 62
0010
0000
0100
0000
1001
0000
1000
0010
0000
0000
0010
0000
0100
0000
0001
0000
,  // measure 63
1000
0100
1000
0010
0001
0010
1000
0100
,  // measure 64
0010
0000
0001
0000
1010
0000
0001
0010
0000
0000
0010
0000
0100
0000
1000
0000
,  // measure 65
0001
1000
0100
1000
0010
0100
0001
0010
,  // measure 66
0001
0000
0100
0000
0110
0000
0001
1000
0000
0000
1000
0000
0100
0000
1000
0000
,  // measure 67
0001
0010
0100
1000
0010
0100
0001
1000
,  // measure 68
0200
0000
0000
0000
0001
0000
0000
0010
0000
0000
1300
0000
1002
0003
0000
0000
,  // measure 69
0100
0100
1000
0100
0100
0001
1000
0010
,  // measure 70
0001
0000
0010
0000
1010
0000
0001
0010
0000
0010
0100
0000
1000
0000
0001
0000
,  // measure 71
0010
0010
1000
0010
0010
0001
1000
0100
,  // measure 72
0001
0000
0100
0000
1100
0000
0001
0100
0000
0100
0010
0000
1000
0000
0001
0000
,  // measure 73
0010
0010
1000
0100
0100
0001
0010
0010
,  // measure 74
1000
0000
0100
0000
0110
0000
1000
0001
0000
0001
0100
0000
0010
0000
1000
0000
,  // measure 75
0002
0000
0000
0000
0100
0000
0000
0010
0003
0000
0010
0000
1000
0000
0010
0000
,  // measure 76
0001
0001
1000
0001
0100
0010
1000
0000
,  // measure 77
1001
0001
0010
0001
0100
0010
1000
0100
,  // measure 78
0001
0100
1000
0010
0100
0001
0010
0001
,  // measure 79
1000
1000
0100
0100
1000
0010
0100
0001
,  // measure 80
0020
0000
0000
0130
,  // measure 81
1001
0000
0000
0000
;

//---------------dance-single - ----------------
#NOTEDATA:;
#CHARTNAME:;
#STEPSTYPE:dance-single;
#DESCRIPTION:;
#CHARTSTYLE:;
#DIFFICULTY:Medium;
#METER:9;
#RADARVALUES:0.413859,0.488871,0.217276,0.257512,0.008047,360.000000,333.000000,27.000000,32.000000,0.000000,0.000000,0.000000,0.000000,0.000000,0.413859,0.488871,0.217276,0.257512,0.008047,360.000000,333.000000,27.000000,32.000000,0.000000,0.000000,0.000000,0.000000,0.000000;
#CREDIT:led_light;
#NOTES:
// measure 0
0000
0000
0000
0000
,  // measure 1
0000
0000
0000
0000
,  // measure 2
0000
0000
0000
0000
,  // measure 3
0000
0000
0000
0000
,  // measure 4
0000
0000
0000
0000
,  // measure 5
0000
0010
0000
0010
,  // measure 6
0000
0100
0000
0100
,  // measure 7
0000
0001
0000
0001
,  // measure 8
0000
1000
0000
1000
,  // measure 9
0100
1000
0001
0000
0020
0000
0130
0000
,  // measure 10
2000
0010
0000
0100
,  // measure 11
3001
0100
1000
0000
0200
0000
0310
0000
,  // measure 12
1000
0001
1000
0000
1000
0000
0200
0000
,  // measure 13
0310
0001
1000
0000
0020
0000
0130
0000
,  // measure 14
0001
0010
0001
0000
1000
0000
0020
0000
,  // measure 15
0030
0000
0200
1300
,  // measure 16
0200
0010
0002
0303
,  // measure 17
1001
0001
0010
0010
,  // measure 18
0100
0100
1000
1000
,  // measure 19
0010
1000
0100
0000
0010
0001
0100
0000
,  // measure 20
0020
0100
0001
1030
,  // measure 21
2001
0000
3100
0000
1000
0010
0001
0010
,  // measure 22
1000
0010
0001
0000
1000
0100
0001
0000
,  // measure 23
1020
0000
0130
0000
0001
0010
1000
0010
,  // measure 24
0001
0010
1000
0000
0001
0100
1000
0000
,  // measure 25
2100
0000
3010
0000
0100
0001
0010
0001
,  // measure 26
0100
0001
0010
0000
0100
1000
0010
0000
,  // measure 27
0120
0000
1030
0000
0100
1000
0010
1000
,  // measure 28
0002
0010
0000
1003
,  // measure 29
0110
0000
0000
1001
,  // measure 30
0001
1000
0010
0000
1000
0100
0010
0000
,  // measure 31
1100
0000
0001
0000
0100
0100
1000
0000
,  // measure 32
0100
0100
0010
0000
1000
0000
0001
0000
,  // measure 33
0011
0000
1000
0000
0010
0010
0001
0000
,  // measure 34
0010
0010
0100
0000
0220
0000
0330
0000
,  // measure 35
1000
0000
1000
0000
0001
0100
0001
0000
,  // measure 36
0010
0010
0010
0000
0100
0010
0100
0000
,  // measure 37
0110
0000
0001
1000
0020
0000
0000
0130
,  // measure 38
0000
0100
0010
0000
0000
0010
1000
0000
,  // measure 39
0002
0000
0023
0000
0230
0000
1300
0001
,  // measure 40
0000
0000
0001
0000
0100
0000
0000
0100
0000
0000
0010
0000
0000
0010
0000
0000
,  // measure 41
0110
0000
1000
0001
0020
0000
0000
0130
,  // measure 42
0000
0100
0010
0000
0000
0010
0001
0000
,  // measure 43
1000
0100
1000
0000
0010
0100
0001
0000
,  // measure 44
0020
0000
0000
0000
0000
0030
0100
0000
,  // measure 45
1001
0000
0000
0000
,  // measure 46
0000
0000
0000
0000
,  // measure 47
0000
0000
0000
0000
,  // measure 48
0000
0000
0000
0000
,  // measure 49
0010
1000
0001
0000
0020
0000
0130
0000
,  // measure 50
1000
0100
1000
0000
0001
0100
0001
0000
,  // measure 51
0010
0100
0010
0100
1000
0001
1000
0001
,  // measure 52
1000
0000
0000
0010
,  // measure 53
0011
0000
1000
0100
0020
0000
0030
0000
,  // measure 54
1100
0000
0001
0100
0020
0000
0030
0000
,  // measure 55
0101
0000
1000
0010
0200
0000
0300
0000
,  // measure 56
1010
0000
0001
0010
0200
0000
0310
0000
,  // measure 57
0001
0100
0001
0000
0100
1000
0100
0000
,  // measure 58
1000
1000
0010
0000
0001
0010
0001
0000
,  // measure 59
0200
0000
0000
0000
,  // measure 60
0010
1000
0301
1001
,  // measure 61
1000
0100
0001
0000
1000
0000
0010
0000
,  // measure 62
0001
0000
1100
0000
0001
1000
0010
0000
,  // measure 63
0100
0000
0010
0000
1000
1000
0100
0000
,  // measure 64
0001
0100
1000
1001
,  // measure 65
0001
0010
1000
0000
0001
0000
0100
0000
,  // measure 66
1000
0000
0011
0000
1000
0001
0100
0000
,  // measure 67
0010
0000
0100
0000
0001
0001
0010
0000
,  // measure 68
0200
0010
0300
0110
,  // measure 69
0001
1000
0010
0000
0010
0001
1000
0000
,  // measure 70
0100
0000
1010
0000
0100
0001
1000
0000
,  // measure 71
0001
1000
0100
0000
0100
0001
1000
0000
,  // measure 72
0010
0000
1100
0000
0010
0001
1000
0000
,  // measure 73
0100
0001
0100
0000
0100
1000
0100
0000
,  // measure 74
0010
0000
0101
0000
0010
1000
0001
0000
,  // measure 75
0200
0010
0000
0310
,  // measure 76
1000
0001
1000
0000
0100
0000
1001
0000
,  // measure 77
0001
0010
0100
0000
1000
0000
0010
0000
,  // measure 78
1000
0100
0010
0000
0001
0100
0010
0000
,  // measure 79
1000
0100
1000
0000
0001
0010
0001
0100
,  // measure 80
0020
0000
0000
0130
,  // measure 81
1001
0000
0000
0000
;

//---------------dance-double - ----------------
#NOTEDATA:;
#CHARTNAME:;
#STEPSTYPE:dance-double;
#DESCRIPTION:;
#CHARTSTYLE:;
#DIFFICULTY:Challenge;
#METER:16;
#RADARVALUES:0.665623,0.749602,0.209229,0.627686,0.474788,579.000000,553.000000,26.000000,78.000000,0.000000,0.000000,0.000000,0.000000,0.000000,0.665623,0.749602,0.209229,0.627686,0.474788,579.000000,553.000000,26.000000,78.000000,0.000000,0.000000,0.000000,0.000000,0.000000;
#CREDIT:led_light;
#NOTES:
00000000
00000000
00000000
00000000
,
00000000
00000000
00000000
00000000
,
00000000
00000000
00000000
00000000
,
00000000
00000000
00000000
00000000
,
00000000
00000000
00000000
00000000
,
00200000
00000000
00000000
00000000
00010000
00000000
00000000
00010000
00000000
00000000
00010000
00000000
00300000
00000000
00100000
00000000
,
00002000
00000000
00000000
00000000
00000100
00000000
00000000
00000100
00000000
00000000
00000100
00000000
00003000
00000000
00001000
00000000
,
02000000
00000000
00000000
00000000
00100000
00000000
00000000
00100000
00000000
00000000
00100000
00000000
03000000
00000000
01000000
00000000
,
00020000
00000000
00000000
00000000
00100000
00000000
00000000
00100000
00000000
00000000
00100000
00000000
00030000
00000000
00100000
00000000
,
00001000
00000000
00010000
00000000
00000100
00000000
00010000
00000000
00002000
00000000
00003000
00000000
01000000
00010000
01000000
00000000
,
00002000
00000000
00000000
00013000
00000000
00000000
00011000
00000000
00000200
00000000
00000000
00001300
00000000
00000000
00001100
00000000
,
00000001
00000100
00001000
00000100
00000002
00000010
00000003
00000010
,
00000100
00000000
00001000
00000000
00000010
00000000
00010000
00001000
00010000
00000000
00000100
00001000
00000200
00000000
00000300
00000000
,
00010000
00000000
00001000
00000000
00100000
00000000
00010000
00000000
20000000
00000000
30000000
00000000
00010000
00100000
00010000
00000000
,
01000000
00000000
00100000
00000000
10000000
00000000
00010000
00000000
01000000
00000000
00002000
00200000
00000000
00000000
00000000
00000000
,
00303000
00000000
00000000
00000000
00000000
00000000
00001000
00000000
00010000
00000000
00000000
00010000
00000000
00000000
00000100
00000000
,
00000010
00000000
00000000
00000002
00000000
00000000
00002000
00000000
00000000
00000000
00000000
00000000
00003003
00000000
00000000
00000000
,
00001001
00000000
00000000
00000000
00000001
00000000
00000100
00000010
00000100
00000000
00001000
00000000
00000100
00000000
00000010
00000000
,
00000100
00000001
00001000
00000000
00000100
00010000
00001000
00001000
,
00100000
00100000
01000000
01000000
10000000
10000000
00010000
00010000
,
01000000
00100000
10000000
00010000
01000000
00001000
00010000
00001000
00010000
00000100
00001000
00000001
00000010
00000000
00000000
00000000
,
00000120
00000000
00000030
00000000
00000001
00000000
00001000
00000010
00020000
00000000
00001000
00000000
00030020
00000000
00000100
00000000
,
00002030
00000000
00000100
00000000
00003002
00000000
00000000
00000003
00000100
00000000
00001000
00000000
00010000
00000000
00100000
00000000
,
01200000
00000000
00300000
00000000
10000000
00000000
00010000
10000000
02000000
00000000
00010000
00000000
03200000
00000000
00010000
00000000
,
00302000
00000000
00010000
00000000
02003000
00000000
00000000
03000000
00100000
00000000
00010000
00000000
00001000
00000000
00000100
00000000
,
00000210
00000000
00000300
00000000
00000001
00000000
00001000
00000100
00020000
00000000
00001000
00000000
00030200
00000000
00000010
00000000
,
00002300
00000000
00000010
00000000
00003002
00000000
00000000
00000003
00000010
00000000
00001000
00000000
00010000
00000000
01000000
00000000
,
02100000
00000000
03000000
00000000
10000000
00000000
00010000
10000000
00200000
00000000
00010000
00000000
02300000
00000000
00010000
00000000
,
03002000
00100000
00000010
00003100
,
01001000
00000000
00000000
00000000
00000000
00000000
00000000
00000000
00000000
00000000
00000000
00000000
00011000
00000000
00000100
00010000
,
00002000
00000000
00000100
00003010
00002000
00000000
00000000
00003000
00000100
00000000
00010000
00000000
00001000
00000000
00100000
00000000
,
02100000
00000000
03000000
00000000
10000000
00000000
00100000
01000000
00020000
00000000
00100000
01000000
00000000
00000000
00001000
00100000
,
00000000
00000000
10000000
00130000
00020000
00000000
00000000
00030000
00001000
00000000
00100000
00001000
00010000
00000000
00000010
00000000
,
00000210
00000000
00000300
00000000
00000001
00000000
00000010
00000100
00002000
00000000
00000010
00000100
00000000
00000000
00010000
00000010
,
00000000
00000000
00000001
00003010
00001000
00000000
00010000
00000000
00022000
00000000
00000000
00000000
00003000
00000000
00000000
00000000
,
00032000
00000000
00000000
00000000
00103000
00000000
00010000
00010000
00001000
00000000
00010000
00010000
10000000
00000000
00100000
00100000
,
01000000
00000000
01000000
00000000
00010000
00000000
00100000
00000000
01000000
10000000
01000000
00100000
00001000
00000000
00000000
00000000
,
00012000
00000000
01003000
00100000
01200000
00000000
10300000
00020000
,
00000000
00000000
00200000
00300000
20000000
30000000
02000000
03000000
00000000
00000000
02000000
03000000
20000000
30000000
00200000
00300000
,
00032000
00000000
00000000
00000000
00000200
00000300
00000002
00000003
00003020
00000000
00000000
00000000
00000130
00000000
00000001
00000000
,
00000000
00000000
00000001
00000000
00001000
00000000
00000000
00010100
00000000
00000000
00101000
00000000
00000000
00010100
00000000
00000000
,
00021000
00000000
00030100
00000010
00000120
00000000
00000031
00002000
,
00000000
00000000
00000020
00000030
00000002
00000003
00000200
00000300
00000000
00000000
00000200
00000300
00000002
00000003
00000020
00000030
,
00013000
00000000
01000000
00000000
00100000
00000000
10000000
00000000
00010000
01000000
00010000
00000000
00100000
01000000
00000000
01000000
,
00200000
00000000
00000000
00000000
00000000
00300000
00001000
00000000
,
00011000
00000000
00000000
00000000
,
00000000
00000000
00000000
00000000
,
00000000
00000000
00000000
00000000
,
00000000
00000000
00000000
00000000
,
00010000
00000000
00000000
00000000
00000100
00000000
00000000
00000010
00000000
00000000
00001000
00000000
00010000
00001000
00010000
00000000
,
01000000
00100000
01000000
00000000
00010000
00001000
00010000
00000000
,
00000010
00000000
00000010
00000000
00000100
00000000
00000100
00000000
00000001
00001000
00000001
00001000
00000100
00000010
00000100
00000010
,
00000100
00000000
00000000
00000010
,
00001010
00000000
00000010
00000000
00000001
00000000
00000100
00001000
00000000
00010000
00100000
00000000
02000000
03000000
00002000
00003000
,
00010000
00000000
00100000
00000000
10000000
00000000
01000000
00010000
00000000
00001000
00000010
00000000
00000200
00000300
00020000
00030000
,
00001000
00000000
00000100
00000000
00000001
00000000
00000010
00001000
00000000
00010000
01000000
00000000
00200000
00300000
00002000
00003000
,
00010000
00000000
01000000
00000000
10000000
00000000
00100000
00010000
00000000
00001000
00000100
00000000
00000110
00000000
00001000
00000000
,
00000001
00000100
00000001
00000000
00000010
00000000
00000100
00000000
00001000
00000100
00001000
00000000
00000010
00000000
00000100
00000000
,
00010000
00000000
00010000
00000000
01000000
00000000
00001000
00000000
00100000
00010000
00100000
00010000
00100000
01000000
00100000
01000000
,
20000000
00000000
00000000
00000000
,
30010000
00000000
00000000
00000000
00100000
00000000
00000000
00000000
01100000
00000000
00000000
00000000
00010000
00001000
00010000
00000000
,
00000100
00000000
00001000
00000000
00000001
00000000
00001000
00000010
00000000
00000010
00000100
00000000
00000001
00000010
00000001
00000000
,
00000100
00000000
00001000
00000000
00010000
00000000
00100000
01000000
00000000
01000000
00100000
00000000
01000000
00010000
10000000
00000000
,
01000000
00000000
00010000
00000000
01000000
00000000
10000000
00010000
00000000
10000000
00100000
00000000
01000000
00000000
00010000
00000000
,
00100000
00000000
01000000
00000000
00010000
00000000
00001000
00100000
00000000
00010000
00100000
00000000
00001000
00010000
00001000
00000000
,
00100000
00000000
00010000
00000000
10000000
00000000
00010000
01000000
00000000
01000000
00100000
00000000
10000000
01000000
10000000
00000000
,
00100000
00000000
00010000
00000000
00001000
00000000
00000100
00000010
00000000
00000010
00000100
00000000
00000010
00001000
00000001
00000000
,
00000010
00000000
00001000
00000000
00000010
00000000
00000001
00001000
00000000
00000001
00000100
00000000
00000010
00000000
00001000
00000000
,
00000200
00000000
00000000
00000000
00000001
00000000
00000000
00000010
00000000
00001300
00000100
00000000
00010000
00001000
00010000
00000000
,
00000100
00000000
00000010
00000100
00000010
00000000
00000001
00000000
00001000
00000000
00000010
00000100
00000010
00000000
00001000
00000000
,
00000001
00000000
00000010
00000000
00001000
00000000
00010000
00001000
00000000
00001000
00010000
00000000
01000000
10000000
00010000
00000000
,
00100000
00000000
01000000
00100000
01000000
00000000
10000000
00000000
00010000
00000000
01000000
00100000
01000000
00000000
00010000
00000000
,
10000000
00000000
01000000
00000000
00010000
00000000
00001000
00010000
00000000
00010000
00001000
00000000
00000010
00000001
00001000
00000000
,
00000001
00000100
00000010
00000000
00001000
00000000
00000100
00000010
00001000
00000000
00010000
00000000
01000000
00100000
00010000
00000000
,
10000000
00000000
00100000
00000000
01100000
00000000
00100000
10000000
00000000
10000000
00010000
00000000
01000000
00010000
00100000
00000000
,
02000000
00000000
00000000
00000000
00010000
00000000
00000000
00100000
03000000
00100000
01000000
00000000
10000000
00010000
00000000
00010000
,
02000000
00000000
00000000
00000000
10000000
00000000
00000000
00100000
00000000
03010000
01000000
00000000
00001000
00000000
00000000
00000000
,
00201000
00300000
00010000
00100000
00001000
00000000
00010000
00000000
00001000
00000000
00000100
00000010
00001000
00000000
00000001
00000000
,
00000010
00000000
00000100
00000010
00001000
00000000
00010000
00000000
00001000
00000000
00010000
00100000
01000000
00000000
00100000
00000000
,
10000000
00000000
10000000
00000000
01000000
00000000
01000000
00000000
00100000
00010000
00100000
00010000
00100000
00010000
00100000
00010000
,
02000000
00000000
00000000
03001000
,
00011000
00000000
00000000
00000000
;

//---------------dance-single - ----------------
#NOTEDATA:;
#CHARTNAME:;
#STEPSTYPE:dance-single;
#DESCRIPTION:;
#CHARTSTYLE:;
#DIFFICULTY:Easy;
#METER:6;
#RADARVALUES:0.292000,0.358505,0.217276,0.329937,0.000000,254.000000,227.000000,27.000000,41.000000,0.000000,0.000000,0.000000,0.000000,0.000000,0.292000,0.358505,0.217276,0.329937,0.000000,254.000000,227.000000,27.000000,41.000000,0.000000,0.000000,0.000000,0.000000,0.000000;
#CREDIT:led_light;
#NOTES:
// measure 0
0000
0000
0000
0000
,  // measure 1
0000
0000
0000
0000
,  // measure 2
0000
0000
0000
0000
,  // measure 3
0000
0000
0000
0000
,  // measure 4
0000
0000
0000
0000
,  // measure 5
0002
0000
0103
0000
,  // measure 6
2000
0000
3100
0000
,  // measure 7
0002
0000
0013
0000
,  // measure 8
2000
0000
3010
0000
,  // measure 9
0001
1000
0010
0000
,  // measure 10
0200
0300
0200
0300
,  // measure 11
1000
0100
0001
0000
,  // measure 12
0010
0010
0100
0000
,  // measure 13
1000
0001
0100
0000
,  // measure 14
0010
0010
1000
0020
,  // measure 15
0030
0000
0200
0000
,  // measure 16
0302
0000
2000
3003
,  // measure 17
1001
0000
0100
0100
,  // measure 18
0001
1000
0001
0000
,  // measure 19
1000
0100
0001
0010
,  // measure 20
2000
0000
0000
3001
,  // measure 21
1001
0001
1000
1000
,  // measure 22
0001
1000
0100
0010
,  // measure 23
0110
0100
0010
0010
,  // measure 24
0100
0010
0001
0100
,  // measure 25
0110
0010
0100
0100
,  // measure 26
0010
0100
0001
1000
,  // measure 27
1001
0001
0010
0010
,  // measure 28
0200
0000
0020
0330
,  // measure 29
1001
0000
0000
0010
,  // measure 30
1001
0001
1000
1000
,  // measure 31
0100
1000
0020
0230
,  // measure 32
0320
0031
0010
0100
,  // measure 33
0110
0001
0020
0230
,  // measure 34
0320
1030
0120
0030
,  // measure 35
0001
0001
1000
1000
,  // measure 36
0010
0001
0100
1000
,  // measure 37
0110
0000
0001
0000
0202
0000
0300
0003
,  // measure 38
0000
1000
0000
1000
,  // measure 39
2100
3002
0023
0130
,  // measure 40
0000
0010
0010
0000
,  // measure 41
0110
0000
1000
0000
2020
0000
0030
3000
,  // measure 42
0000
0001
0000
0001
,  // measure 43
1000
1000
0200
0020
,  // measure 44
0000
0000
0000
0330
,  // measure 45
1001
0000
0000
0000
,  // measure 46
0000
0000
0000
0000
,  // measure 47
0000
0000
0000
0000
,  // measure 48
0000
0000
0000
0000
,  // measure 49
1000
0001
0020
0030
,  // measure 50
0100
0100
0010
0010
,  // measure 51
1000
0001
0200
0000
,  // measure 52
0310
0000
0000
0000
,  // measure 53
1001
0100
0100
0000
,  // measure 54
1001
0010
0010
0000
,  // measure 55
0110
0001
0001
0000
,  // measure 56
0110
1000
1000
0000
,  // measure 57
0002
0103
2000
3100
,  // measure 58
0001
0001
0020
0230
,  // measure 59
0320
0000
0000
0000
,  // measure 60
0130
0100
0110
0000
,  // measure 61
1001
0010
0100
0010
,  // measure 62
0001
0001
0010
1000
,  // measure 63
0001
0100
1000
0100
,  // measure 64
0001
1000
0010
0110
,  // measure 65
0001
0010
0100
0010
,  // measure 66
1000
1000
0010
0001
,  // measure 67
1000
0100
0001
0100
,  // measure 68
2000
0000
0002
3003
,  // measure 69
0010
0100
0010
0100
,  // measure 70
1000
0000
1000
0101
,  // measure 71
0100
0010
0100
0010
,  // measure 72
1000
0000
1000
0011
,  // measure 73
0010
0001
0100
0001
,  // measure 74
0010
0000
0010
0110
,  // measure 75
2000
0000
0020
3030
,  // measure 76
0100
0100
0010
0000
,  // measure 77
1001
0001
0010
0010
,  // measure 78
0100
0100
1000
1000
,  // measure 79
0010
0001
0100
1000
,  // measure 80
0020
0000
0000
0130
,  // measure 81
1001
0000
0000
0000
;

//---------------dance-single - ----------------
#NOTEDATA:;
#CHARTNAME:;
#STEPSTYPE:dance-single;
#DESCRIPTION:;
#CHARTSTYLE:;
#DIFFICULTY:Beginner;
#METER:3;
#RADARVALUES:0.108063,0.195548,0.088520,0.088520,0.000000,94.000000,83.000000,11.000000,11.000000,0.000000,0.000000,0.000000,0.000000,0.000000,0.108063,0.195548,0.088520,0.088520,0.000000,94.000000,83.000000,11.000000,11.000000,0.000000,0.000000,0.000000,0.000000,0.000000;
#CREDIT:led_light;
#NOTES:
// measure 0
0000
0000
0000
0000
,  // measure 1
0000
0000
0000
0000
,  // measure 2
0000
0000
0000
0000
,  // measure 3
0000
0000
0000
0000
,  // measure 4
0000
0000
0000
0000
,  // measure 5
0000
0000
0000
0000
,  // measure 6
0000
0000
0000
0000
,  // measure 7
0000
0000
0000
0000
,  // measure 8
0000
0000
0000
0000
,  // measure 9
0010
0000
0000
0000
,  // measure 10
0000
0000
0000
0000
,  // measure 11
0010
0000
0000
0000
,  // measure 12
0000
0000
0000
0000
,  // measure 13
0100
0000
0000
0000
,  // measure 14
0010
0000
0000
0000
,  // measure 15
0000
0000
0020
0000
,  // measure 16
0030
0000
0000
0000
,  // measure 17
1001
0000
0000
0000
,  // measure 18
0000
0000
0000
0000
,  // measure 19
0000
0000
0000
0000
,  // measure 20
0000
0000
0000
0000
,  // measure 21
1000
0000
1000
0000
,  // measure 22
1000
0000
0000
0000
,  // measure 23
0001
0000
0001
0000
,  // measure 24
0001
0000
0000
0000
,  // measure 25
0010
0000
0010
0000
,  // measure 26
0010
0000
0000
0000
,  // measure 27
0100
0000
0200
0000
,  // measure 28
0300
0000
0000
0000
,  // measure 29
1001
0000
0000
0000
,  // measure 30
0010
0000
0000
0000
,  // measure 31
0010
0000
0100
0000
,  // measure 32
0010
0000
0000
0000
,  // measure 33
0001
0000
1000
0000
,  // measure 34
0001
0000
2002
0000
,  // measure 35
3003
0000
0001
0000
,  // measure 36
2000
0000
3000
0000
,  // measure 37
1001
0000
0000
0000
,  // measure 38
0000
0000
0000
0000
,  // measure 39
0010
0000
0200
0000
,  // measure 40
0300
0000
0000
0000
,  // measure 41
0110
0000
0000
0000
,  // measure 42
0000
0000
0000
0000
,  // measure 43
1000
0000
0002
0000
,  // measure 44
0003
0000
0000
0000
,  // measure 45
1001
0000
0000
0000
,  // measure 46
0000
0000
0000
0000
,  // measure 47
0000
0000
0000
0000
,  // measure 48
0000
0000
0000
0000
,  // measure 49
0010
0000
0000
0000
,  // measure 50
0010
0000
0000
0000
,  // measure 51
0100
0000
0020
0000
,  // measure 52
0030
0000
0000
0000
,  // measure 53
0110
0000
0000
0000
,  // measure 54
0110
0000
0000
0000
,  // measure 55
1001
0000
0000
0000
,  // measure 56
1001
0000
0000
0000
,  // measure 57
1000
0000
1000
0000
,  // measure 58
0010
0000
0100
0000
,  // measure 59
0020
0000
0000
0000
,  // measure 60
0030
0000
0000
0000
,  // measure 61
1000
0000
0001
0000
,  // measure 62
0010
0000
0010
0000
,  // measure 63
0001
0000
1000
0000
,  // measure 64
0100
0000
0100
0000
,  // measure 65
0001
0000
1000
0000
,  // measure 66
0010
0000
0010
0000
,  // measure 67
1000
0000
0001
0000
,  // measure 68
0100
0000
0000
0000
,  // measure 69
1000
1000
1000
0000
,  // measure 70
0001
0000
0000
0000
,  // measure 71
0001
0001
0001
0000
,  // measure 72
0100
0000
0000
0000
,  // measure 73
0010
0010
0010
0000
,  // measure 74
1000
0000
0000
0000
,  // measure 75
0002
0000
0000
0000
,  // measure 76
0003
0000
0000
0000
,  // measure 77
0010
0000
0010
0000
,  // measure 78
0100
0000
0100
0000
,  // measure 79
1000
0000
0002
0000
,  // measure 80
0003
0000
0000
0000
,  // measure 81
1001
0000
0000
0000
;

//---------------dance-double - ----------------
#NOTEDATA:;
#CHARTNAME:;
#STEPSTYPE:dance-double;
#DESCRIPTION:;
#CHARTSTYLE:;
#DIFFICULTY:Hard;
#METER:13;
#RADARVALUES:0.565607,0.651828,0.346032,0.555260,0.116685,492.000000,449.000000,43.000000,69.000000,0.000000,0.000000,0.000000,0.000000,0.000000,0.565607,0.651828,0.346032,0.555260,0.116685,492.000000,449.000000,43.000000,69.000000,0.000000,0.000000,0.000000,0.000000,0.000000;
#CREDIT:led_light;
#NOTES:
00000000
00000000
00000000
00000000
,
00000000
00000000
00000000
00000000
,
00000000
00000000
00000000
00000000
,
00000000
00000000
00000000
00000000
,
00000000
00000000
00000000
00000000
,
00020000
00001000
00000000
00001000
,
00030020
00001000
00000000
00001000
,
00000230
00001000
00000000
00001000
,
00000302
00000010
00000000
00000013
,
00000100
00001000
00000010
00001000
00000100
00000000
00010000
00000000
,
00001000
00000000
00000000
00001000
00000000
00000000
00001000
00000000
00100000
00000000
00000000
00100000
00000000
00000000
00100000
00000000
,
01000000
10000000
00010000
10000000
01000000
00000000
00100000
00000000
,
00010000
10000000
00100000
00000000
00100000
01000000
00020000
00000000
,
00130000
00010000
01000000
00010000
00100000
00000000
00001000
00000000
,
00010000
00000000
00000100
00000000
00000010
00000000
00000000
00000000
00000002
00000000
00000000
00002000
00000000
00000000
00000000
00000000
,
00003003
00000000
00000000
00000000
00000000
00000000
00000001
00000000
00000100
00000000
00000000
00000100
00000000
00000000
00000010
00000000
,
00001000
00000000
00000000
00000100
00000000
00000000
00020000
00000000
00000000
00000000
00000000
00000000
00031000
00000000
00000000
00000000
,
00011000
00000000
00010000
00001000
00000010
00000100
00000010
00000000
,
00001000
00010000
00001000
00000000
01000000
00100000
01000000
00000000
,
00001000
00010000
01000000
00100000
00001000
00010000
01000000
00100000
,
00001000
00001000
00010000
00010000
00000010
00001000
00000001
00000000
,
00001002
00000003
00000100
00000010
00001000
00000100
00000001
00001000
,
00000010
00000100
00010000
00000000
00001000
00010000
00100000
10000000
,
20010000
30000000
01000000
00100000
00010000
01000000
10000000
00010000
,
00100000
01000000
00001000
00000000
00010000
00001000
00000010
00000001
,
00001002
00000003
00000010
00000100
00001000
00000010
00000001
00001000
,
00000100
00000001
00000010
00000000
00001000
00010000
01000000
10000000
,
20010000
30000000
01000000
00100000
00010000
01000000
10000000
01000000
,
00020000
10000000
00100000
00031000
,
00001100
00000000
00000000
00000110
,
00000001
00001000
00000020
00000030
00000100
00000001
00000010
00001000
,
00021000
00030000
00000100
00010000
00002000
00003100
00002000
00003010
,
00002000
00013000
00002000
00003000
00100000
00010000
01000000
00001000
,
00012000
00003000
00100000
00001000
00020000
00130000
00020000
01030000
,
00020000
00031000
00020000
00030000
00002020
00000000
00003000
00000000
,
00000230
00000300
00000100
00000010
00001000
00001000
00000001
00000001
,
00000010
00001000
00010000
00001000
00010000
00100000
10000000
00000000
,
10020000
00000000
01030000
00001000
00201000
00000000
00301000
00010000
,
00000000
00020000
00032000
00003200
00000300
00000200
00002300
00023000
,
00030020
00000000
00002030
00000000
00003200
00000000
00000310
00000001
,
00000000
00000000
00000001
00000000
00001000
00000000
00000000
00010010
00000000
00000000
00010010
00000000
00000000
00101000
00000000
00000000
,
10020000
00000000
00130000
00001000
02001000
00000000
03001000
00010000
,
00000000
00020000
00032000
00003020
00000030
00000020
00002030
00023000
,
00030100
00000000
00001000
00000000
00000001
00000000
00001000
00000000
00000010
00000000
00000010
00000000
00000100
00001000
00000000
00001000
,
00020000
00000000
00000000
00000000
00000000
00000000
00000000
00000000
00000000
00000000
00000000
00030000
00001000
00000000
00000000
00000000
,
00011000
00000000
00000000
00000000
,
00000000
00000000
00000000
00000000
,
00000000
00000000
00000000
00000000
,
00000000
00000000
00000000
00000000
,
00010000
00000000
00000000
00000000
00001000
00000000
00000000
00000010
00000000
00000000
00000011
00000000
00000001
00000000
00000100
00000000
,
00001000
00000000
00000000
00000000
00010000
00000000
00000000
01000000
00000000
00000000
11000000
00000000
10000000
00000000
00100000
00000000
,
00010000
00010000
00001000
00001000
00000100
00000001
00000010
00001000
,
00010000
00000000
00000000
00001000
,
00011000
00000000
00000000
00000000
01010000
00000000
00000000
10010000
00000000
00000000
00110000
00000000
00000000
00000000
00010000
00000000
,
00001000
00000000
00000000
00000000
00001100
00000000
00000000
00001001
00000000
00000000
00001010
00000000
00000000
00000000
00001000
00000000
,
00010000
00000000
00000000
00000000
11000000
00000000
00000000
00110000
00000000
00000000
00011000
00000000
00000000
00000000
00001000
00000000
,
00000010
00000000
00000000
00000000
00000011
00000000
00000000
00001100
00000000
00000000
00011000
00000000
00001000
00000000
00010000
00000000
,
00000100
00000100
00001000
00000010
00000100
00000100
00000001
00000010
,
00000100
00000100
00001000
00000010
00010000
00001000
00010000
00001000
,
00020000
00000000
00000000
00000000
,
00031000
00010000
00001000
00011000
,
01000000
00010000
00100000
00001000
01000000
00001000
00010000
00000100
,
00010000
00000000
00001000
00000000
00011000
00000000
00000010
00001000
00000000
00001000
00000010
00000000
00000100
00000000
00000001
00000000
,
00001000
00000100
00010000
00000010
00001000
00000001
00000100
00001000
,
00000100
00000000
00000010
00000000
00001001
00000000
00001000
00000010
00000000
00000010
00000100
00000000
00000001
00000000
00000010
00000000
,
00000100
00001000
00000010
00010000
00000100
00010000
00001000
01000000
,
00001000
00000000
00010000
00000000
00011000
00000000
00100000
00010000
00000000
00010000
00100000
00000000
01000000
00000000
10000000
00000000
,
00010000
01000000
00001000
00100000
00010000
10000000
01000000
00010000
,
00000200
00000000
00000000
00000000
00000010
00000000
00000000
00001000
00000300
00000000
00001001
00000000
00000001
00000000
00000100
00000000
,
00002000
00003000
00000000
00000000
00000000
00000000
00000000
00000000
00002000
00003000
00000000
00000000
00000000
00000000
00000000
00000000
00000010
00000000
00000000
00000000
00000000
00000000
00000000
00000000
00002000
00003000
00000000
00000000
00000000
00000000
00000000
00000000
00002000
00003000
00000000
00000000
00000000
00000000
00000000
00000000
00010000
00000000
00000000
00000000
00000000
00000000
00000000
00000000
00002000
00003000
00000000
00000000
00000000
00000000
00000000
00000000
00002000
00003000
00000000
00000000
00000000
00000000
00000000
00000000
,
00000100
00000000
00010000
00000000
00011000
00000000
00001000
00100000
00000000
00100000
00010000
00000000
10000000
00000000
00100000
00000000
,
00020000
00030000
00000000
00000000
00000000
00000000
00000000
00000000
00020000
00030000
00000000
00000000
00000000
00000000
00000000
00000000
01000000
00000000
00000000
00000000
00000000
00000000
00000000
00000000
00020000
00030000
00000000
00000000
00000000
00000000
00000000
00000000
00020000
00030000
00000000
00000000
00000000
00000000
00000000
00000000
00001000
00000000
00000000
00000000
00000000
00000000
00000000
00000000
00020000
00030000
00000000
00000000
00000000
00000000
00000000
00000000
00020000
00030000
00000000
00000000
00000000
00000000
00000000
00000000
,
00100000
00000000
00001000
00000000
00011000
00000000
00010000
00000100
00000000
00000100
00001000
00000000
00000001
00000000
00000100
00000000
,
00002000
00003000
00000000
00000000
00000000
00000000
00000000
00000000
00002000
00003000
00000000
00000000
00000000
00000000
00000000
00000000
00000010
00000000
00000000
00000000
00000000
00000000
00000000
00000000
00020000
00030000
00000000
00000000
00000000
00000000
00000000
00000000
00020000
00030000
00000000
00000000
00000000
00000000
00000000
00000000
00100000
00000000
00000000
00000000
00000000
00000000
00000000
00000000
00002000
00003000
00000000
00000000
00000000
00000000
00000000
00000000
00002000
00003000
00000000
00000000
00000000
00000000
00000000
00000000
,
00000010
00000000
00010000
00000000
00011000
00000000
01000000
00010000
00000000
00010000
10000000
00000000
01000000
00000000
00100000
00000000
,
00020000
00000000
00000000
00000000
00001000
00000000
00000000
00001000
00030000
00000000
00010000
00000000
00100000
00000000
00001000
00000000
,
00010000
00010000
00000010
00001000
00000001
00000100
00000010
00000000
,
00001001
00000001
00000010
00000001
00000100
00001000
00010000
01000000
,
10000000
00100000
10000000
01000000
00010000
00001000
00000100
00000001
,
00000010
00000010
00001000
00001000
00010000
01000000
10000000
00100000
,
00020000
00000000
00000000
00031000
,
00011000
00000000
00000000
00000000
;

//---------------dance-double - ----------------
#NOTEDATA:;
#CHARTNAME:;
#STEPSTYPE:dance-double;
#DESCRIPTION:;
#CHARTSTYLE:;
#DIFFICULTY:Medium;
#METER:9;
#RADARVALUES:0.406961,0.488871,0.217276,0.297748,0.008047,354.000000,327.000000,27.000000,37.000000,0.000000,0.000000,0.000000,0.000000,0.000000,0.406961,0.488871,0.217276,0.297748,0.008047,354.000000,327.000000,27.000000,37.000000,0.000000,0.000000,0.000000,0.000000,0.000000;
#CREDIT:led_light;
#NOTES:
00000000
00000000
00000000
00000000
,
00000000
00000000
00000000
00000000
,
00000000
00000000
00000000
00000000
,
00000000
00000000
00000000
00000000
,
00000000
00000000
00000000
00000000
,
00000000
00000001
00000000
00000001
,
00000000
00001000
00000000
00001000
,
00000000
00010000
00000000
00010000
,
00000000
10000000
00000000
10000000
,
00100000
01000000
00010000
00000000
00200000
00000000
00301000
00000000
,
00002000
00000010
00000000
00013000
,
00000010
00001000
00000001
00000000
00000200
00000000
00000310
00000000
,
00001000
00000100
00001000
00000000
00001000
00000000
00000002
00000000
,
00000013
00000100
00001000
00000000
00000020
00000000
00010030
00000000
,
00100000
01000000
00010000
00000000
00100000
00000000
02000000
00000000
,
03000000
00000000
20000000
30100000
,
00200000
00320000
00002000
00033000
,
00011000
00001000
00000100
00000100
,
00000001
00000001
00000010
00000010
,
00000100
00001000
00000100
00000000
00010000
00001000
00010000
00000000
,
00000020
00000100
00000001
00001030
,
00001002
00000000
00000013
00000000
00000100
00010000
00001000
00010000
,
00000100
00010000
00001000
00000000
01000000
00010000
10000000
00000000
,
20010000
00000000
31000000
00000000
00100000
00001000
00010000
00001000
,
00100000
00001000
00010000
00000000
00000010
00001000
00000001
00000000
,
00000021
00000000
00000130
00000000
00001000
00000010
00010000
00000010
,
00001000
00000010
00010000
00000000
00001000
00100000
00010000
00000000
,
12000000
00000000
03100000
00000000
00001000
01000000
00010000
01000000
,
00002000
00100000
00000000
00013000
,
00010100
00000000
00000000
00000011
,
00000001
00001000
00000010
00000000
00000100
00000001
00001000
00000000
,
00001002
00000000
00000013
00000000
00001000
00001000
00010000
00000000
,
00001000
00001000
00000100
00000000
00001000
00000000
00010000
00000000
,
00021000
00000000
01030000
00000000
00010000
00010000
00001000
00000000
,
00010000
00010000
00100000
00000000
02200000
00000000
03000000
00000000
,
10300000
00000000
10000000
00000000
00010000
01000000
00010000
00000000
,
00100000
01000000
00100000
00000000
00001000
00010000
00001000
00000000
,
00011000
00000000
00010000
00000100
00002000
00000000
00000000
00003010
,
00000000
00000010
00000100
00000000
00000000
00000100
00000001
00000000
,
00000020
00000000
00002030
00000000
00023000
00000000
01030000
00100000
,
00000000
00000000
00100000
00000000
00001000
00000000
00000000
00001000
00000000
00000000
00010000
00000000
00000000
00010000
00000000
00000000
,
00011000
00000000
00001000
00100000
00020000
00000000
00000000
01030000
,
00000000
01000000
00100000
00000000
00000000
00100000
10000000
00000000
,
00010000
01000000
00001000
00000000
00100000
01000000
00010000
00000000
,
00002000
00000000
00000000
00000000
00000000
00003000
00010000
00000000
,
00011000
00000000
00000000
00000000
,
00000000
00000000
00000000
00000000
,
00000000
00000000
00000000
00000000
,
00000000
00000000
00000000
00000000
,
00001000
00000001
00000100
00000000
00000020
00000000
00001030
00000000
,
00000100
00000010
00000100
00000000
00010000
00000000
00001000
00000000
,
00100000
01000000
00100000
00000000
00010000
10000000
00010000
00000000
,
01000000
00000000
00000000
00100000
,
10010000
00000000
10000000
01000000
00020000
00000000
00030000
00000000
,
00011000
00000000
00001000
00000100
00000002
00000000
00000003
00000000
,
00001001
00000000
00000001
00000010
00002000
00000000
00003000
00000000
,
00011000
00000000
00010000
00100000
20000000
00000000
30000000
00000000
,
00010000
00100000
00010000
00000000
10000000
01000000
10000000
00000000
,
00100000
00010000
00001000
00000000
00010000
00001000
00000100
00000000
,
00000020
00000000
00000000
00000000
,
00000130
00000010
00002002
00003003
,
00000001
00000010
00001000
00000000
00010000
00000000
00000010
00000000
,
00010000
00000000
00001100
00000000
00000010
00000001
00001000
00000000
,
00000010
00000000
00000100
00000000
00000010
00010000
00001000
00000000
,
00100000
01000000
10000000
10010000
,
10000000
00100000
00010000
00000000
00001000
00000000
00100000
00000000
,
00001000
00000000
01010000
00000000
00100000
10000000
00010000
00000000
,
00100000
00000000
01000000
00000000
00100000
00001000
00010000
00000000
,
00000020
00000100
00000030
00000110
,
00000001
00001000
00000100
00000000
00000100
00010000
00001000
00000000
,
01000000
00000000
00011000
00000000
00001000
00010000
00100000
00000000
,
10000000
00010000
01000000
00000000
01000000
00001000
00010000
00000000
,
00000100
00000000
00011000
00000000
00010000
00001000
00000010
00000000
,
00000001
00000100
00001000
00000000
00001000
00000100
00000001
00000000
,
00000010
00000000
00000110
00000000
00001000
00010000
00001000
00000000
,
00020000
00100000
00000000
00130000
,
01000000
00001000
00010000
00000000
00001000
00000000
00011000
00000000
,
00010000
00001000
00000010
00000000
00000001
00000000
00001000
00000000
,
00000001
00000100
00001000
00000000
00010000
01000000
10000000
00000000
,
00100000
00100000
01000000
00000000
00010000
10000000
01000000
00000000
,
00200000
00000000
00000000
00301000
,
00011000
00000000
00000000
00000000
;

//---------------dance-double - ----------------
#NOTEDATA:;
#CHARTNAME:;
#STEPSTYPE:dance-double;
#DESCRIPTION:;
#CHARTSTYLE:;
#DIFFICULTY:Easy;
#METER:6;
#RADARVALUES:0.278205,0.358505,0.225323,0.329937,0.000000,242.000000,214.000000,28.000000,41.000000,0.000000,0.000000,0.000000,0.000000,0.000000,0.278205,0.358505,0.225323,0.329937,0.000000,242.000000,214.000000,28.000000,41.000000,0.000000,0.000000,0.000000,0.000000,0.000000;
#CREDIT:led_light;
#NOTES:
00000000
00000000
00000000
00000000
,
00000000
00000000
00000000
00000000
,
00000000
00000000
00000000
00000000
,
00000000
00000000
00000000
00000000
,
00000000
00000000
00000000
00000000
,
00200000
00000000
00300000
00000000
,
00002000
00000000
00003000
00000000
,
00020000
00000000
00030000
00000000
,
00000020
00000000
00000030
00000000
,
00001000
00001000
00000001
00000000
,
00000200
00000300
00000020
00000030
,
00010000
00010000
00001000
00000000
,
00200000
00000000
01300000
00000000
,
10000000
10000000
00010000
00000000
,
01000000
00001000
00200000
00000000
,
00300000
00000000
00002000
00000000
,
00020000
00000000
00033000
00000000
,
00011000
00000000
00010000
00010000
,
00001000
00010000
00001000
00000000
,
00000100
00000100
00000001
00000001
,
00000020
00000000
00000000
00000130
,
00001001
00000001
00001000
00000100
,
00001000
00001000
00000010
00010000
,
00011000
00001000
00100000
00010000
,
01000000
01000000
10000000
01000000
,
01100000
10000000
00010000
00100000
,
00010000
00010000
01000000
00001000
,
00011000
00010000
00000100
00001000
,
00000020
00000000
00000000
00000130
,
00001001
00000000
00000000
00000010
,
00001100
00010000
00000010
00001000
,
00000110
00001000
00020000
02030000
,
03020000
00031000
01000000
00010000
,
01100000
00010000
00002000
00003020
,
00002030
00013000
00022000
00033000
,
00100000
00100000
00010000
00010000
,
02000000
03000000
00200000
00300000
,
10010000
00000000
00001000
00000000
00022000
00000000
00030000
00003000
,
00000000
00010000
00000000
00010000
,
00000200
00000000
00002300
00000000
00000020
00000000
00003000
00000030
,
00000000
00000100
00000100
00000000
,
00001001
00000000
00010000
00000000
00022000
00000000
00003000
00030000
,
00000000
00001000
00000000
00001000
,
00100000
00100000
02000000
00000000
,
03000000
00000000
00000000
00000000
,
10010000
00000000
00000000
00000000
,
00000000
00000000
00000000
00000000
,
00000000
00000000
00000000
00000000
,
00000000
00000000
00000000
00000000
,
00000001
00000010
00001000
00000000
,
00010000
00010000
00001000
00000000
,
00010000
00100000
20000000
00000000
,
30010000
00000000
00000000
00000000
,
00011000
01000000
00010000
00000000
,
00011000
00000100
00001000
00000000
,
00011000
00100000
00010000
00000000
,
00011000
00000010
00001000
00000000
,
00020000
00030000
00002000
00003000
,
00000010
00000010
00000002
00000203
,
00002300
00000000
00000000
00000000
,
00013000
00001000
00011000
00000000
,
00011000
00001000
00100000
00001000
,
00010000
00010000
00100000
10000000
,
00010000
00100000
10000000
00100000
,
00010000
10000000
00100000
01010000
,
00001000
00010000
00000100
00010000
,
00001000
00001000
00000100
00000001
,
00001000
00000100
00000001
00000100
,
00002000
00000010
00003000
00000110
,
00000001
00000010
00000001
00000010
,
00000100
00000000
00000100
00011000
,
00001000
01000000
00001000
01000000
,
00100000
00000000
00100000
01010000
,
10000000
01000000
10000000
01000000
,
00100000
00000000
00100000
00011000
,
00020000
00000000
00002000
00033000
,
00000100
00000100
00000020
00000030
,
00001001
00000001
00000010
00000010
,
00001000
00001000
00010000
00010000
,
01000000
10000000
00100000
00010000
,
00002000
00000000
00000000
00013000
,
00011000
00000000
00000000
00000000
;
