#TITLE:달아달아;
#SUBTITLE:;
#ARTIST:이정현;
#TITLETRANSLIT:Dara Dara;
#SUBTITLETRANSLIT:;
#ARTISTTRANSLIT:Lee Jung Hyun;
#GENRE:K-Pop;
#CREDIT:;
#BANNER:Dara Dara.png;
#BACKGROUND:Dara Dara-bg.png;
#LYRICSPATH:;
#CDTITLE:../cdtitle.png;
#MUSIC:Dara Dara.ogg;
#OFFSET:1.635000;
#SAMPLESTART:47.676998;
#SAMPLELENGTH:15.000000;
#LASTBEATHINT:1.545167;
#SELECTABLE:YES;
#BPMS:0.000000=146.000000
;
#STOPS:
;
#BGCHANGES:3.750=Dara Dara.avi=1.000=0=0=0=StretchNoLoop====,
99999=-nosongbg-=1.000=0=0=0 // don't automatically add -songbackground-
;
#KEYSOUNDS:;
#ATTACKS:;

//---------------dance-single - ----------------
#NOTES:
     dance-single:
     :
     Hard:
     12:
     0.516465,0.567438,0.125748,0.303891,0.089071,345.000000,333.000000,12.000000,29.000000,0.000000,0.000000,0.516465,0.567438,0.125748,0.303891,0.089071,345.000000,333.000000,12.000000,29.000000,0.000000,0.000000:
0000
0000
0000
0000
,
0000
0000
0000
0000
,
0000
0000
0000
0000
,
0000
0000
0000
0000
,
0000
0000
0000
0000
,
0000
0000
0000
0000
,
0110
0000
0000
1000
0100
0000
1000
0000
0001
0000
0000
1000
0100
0000
1000
0000
,
0010
0100
0001
0010
1000
1000
0001
0001
,
0100
0000
0000
1000
0100
0000
1000
0000
0001
0000
0000
0100
0010
0000
1000
0000
,
0100
0010
0001
0001
1000
1000
0010
0100
,
0001
0000
0000
0010
0100
0000
0010
0000
0001
0000
0000
0100
0010
0000
1000
0000
,
0001
0010
0100
0100
0001
0001
0100
0010
,
0001
0000
0000
1000
0100
0000
1000
0000
0010
0000
0000
0100
0001
0000
0010
0000
,
0120
0000
0000
0030
,
0001
0000
0101
0000
0010
1000
0100
1000
,
0002
0000
0013
0000
0100
1000
0001
1000
,
0020
0000
0130
0010
1000
0100
0001
0100
,
2000
0000
3001
0000
0100
0010
1000
0010
,
0002
0000
0013
0000
1000
0001
0010
1000
,
0002
0000
0103
1000
0002
0000
0013
0000
,
0100
0010
0001
0001
0100
0010
1000
1000
,
1200
0000
0300
0000
0000
0010
0010
0001
,
2000
0000
3010
0100
0020
0000
1030
0100
,
2000
0000
3001
0000
0001
0100
0010
1000
,
0002
0000
0013
0100
0020
0000
0031
0100
,
0002
0000
1003
0000
0100
0010
0100
1000
,
0002
0000
1003
0100
1000
0010
0100
0001
,
0010
0100
0010
0001
0100
0010
1000
0100
,
0020
0000
0130
1000
0001
0100
0010
1000
,
0200
0001
0010
0310
,
2100
0000
3010
0100
0020
0000
1030
0000
,
0100
0001
0100
0010
0002
0000
0013
0000
,
1000
0001
1000
0010
0001
0100
0010
1000
,
0200
0000
0310
0000
0100
1000
0001
1000
,
0001
0100
0010
0100
0002
0000
1003
0000
,
0001
0010
0100
0001
2000
0000
3010
0000
,
0100
1000
0001
1000
0010
0100
0001
0010
,
0200
0000
0310
0000
0010
0000
0100
0010
,
1001
0000
0001
0100
0110
0000
1000
0100
,
0010
0010
0001
0001
0010
0100
1000
0001
,
1000
0010
0010
0001
0010
0010
1000
0010
,
0100
0010
0001
0010
1000
0001
0010
0100
,
2000
0000
0000
0100
0000
0000
0002
0000
,
0003
0000
3001
0100
0000
0010
1000
0001
,
0020
0000
0100
1000
,
0001
0000
0030
0001
0002
0000
0000
0000
,
1003
0100
0001
0010
,
2001
0000
0000
0000
3100
0000
0010
0001
0010
0000
0100
0000
1000
0000
0010
0000
,
0110
0000
0000
1000
0100
0000
1000
0000
0001
0000
0000
1000
0100
0000
1000
0000
,
0010
0100
0001
0010
1000
1000
0001
0001
,
0100
0000
0000
1000
0100
0000
1000
0000
0001
0000
0000
0100
0010
0000
1000
0000
,
0100
0010
0001
0001
1000
1000
0010
0100
,
0001
0000
0000
0010
0100
0000
0010
0000
0001
0000
0000
0100
0010
0000
1000
0000
,
0001
0010
0100
0100
0001
0001
0100
0010
,
0001
0000
0000
1000
0100
0000
1000
0000
0010
0000
0000
0100
0001
0000
0010
0000
,
0110
0000
1000
1000
0010
0010
0001
0100
,
1100
1000
0001
0001
0010
0010
1000
0100
,
0101
0000
0000
0000
;

//---------------dance-single - ----------------
#NOTES:
     dance-single:
     :
     Challenge:
     14:
     0.622752,0.836224,0.157185,0.282933,0.235777,416.000000,401.000000,15.000000,27.000000,0.000000,0.000000,0.622752,0.836224,0.157185,0.282933,0.235777,416.000000,401.000000,15.000000,27.000000,0.000000,0.000000:
// measure 0
0000
0000
0000
0000
,  // measure 1
0000
0000
0000
0000
,  // measure 2
0000
0000
0000
0000
,  // measure 3
0000
0000
0000
0000
,  // measure 4
0000
0000
0000
0000
,  // measure 5
2100
0000
0000
0000
3010
0000
0001
0010
0001
0000
0010
0000
1000
0000
0100
0000
,  // measure 6
0110
0000
0000
0010
0001
0000
1000
0000
0010
0000
0000
0010
0001
0000
1000
0000
,  // measure 7
0010
0000
0010
0000
0001
0000
0010
0100
0010
0000
0100
0000
1000
0000
0001
0000
,  // measure 8
0100
0000
0000
0100
1000
0000
0001
0000
0100
0000
0000
0100
1000
0000
0001
0000
,  // measure 9
0100
0000
0100
0000
1000
0000
0001
1000
0001
0000
0100
0000
0010
0000
1000
0000
,  // measure 10
0001
0000
0000
0001
0010
0000
1000
0000
0001
0000
0000
0001
0100
0000
1000
0000
,  // measure 11
0001
0000
0010
0000
0100
1000
0100
1000
0001
0100
0001
0100
0010
0000
0100
0000
,  // measure 12
0001
0000
0000
1000
0100
0000
0010
0000
0001
0000
0000
0001
0010
0000
0100
0000
,  // measure 13
2100
0000
0000
0000
0000
0000
0000
0000
0000
0000
3001
0000
0100
0010
0100
0000
,  // measure 14
0010
1000
0001
0100
0001
0010
0100
1000
,  // measure 15
0002
0013
0001
1000
0010
0100
0010
1000
,  // measure 16
0020
0000
1030
0001
1000
0100
0010
0100
,  // measure 17
2000
0000
3001
1000
0010
0001
0010
1000
,  // measure 18
0002
0000
0013
0100
1000
0010
0100
0010
,  // measure 19
0002
0000
1003
0100
0002
0000
0103
0010
,  // measure 20
1000
0100
0010
0100
0001
0100
1000
0001
,  // measure 21
0021
0000
0000
0000
0030
0000
0200
0000
0000
0000
1300
0000
0001
1000
0001
0000
,  // measure 22
2000
0000
3001
0100
0010
0010
0001
0100
,  // measure 23
0020
0000
1030
0001
0100
0010
1000
0010
,  // measure 24
0200
0000
0301
0010
0100
0100
0001
0010
,  // measure 25
0200
0000
1300
0010
0100
0010
1000
0001
,  // measure 26
0200
0000
0310
1000
0100
1000
0010
0100
,  // measure 27
0001
0010
0100
0010
0001
0100
0010
1000
,  // measure 28
0100
0100
0010
0010
0001
0100
0010
1000
,  // measure 29
2100
0000
0000
0000
0001
0000
0000
0000
0010
0000
3000
0000
0100
0010
0100
0000
,  // measure 30
0001
0001
0010
0100
1000
1000
0100
0010
,  // measure 31
0001
0100
0010
1000
0002
0103
0110
0010
,  // measure 32
1000
0100
0010
1000
0001
0100
0010
0001
,  // measure 33
2000
3100
1000
0001
1000
1000
0001
0001
,  // measure 34
1000
1000
0100
0010
0001
0001
0010
0100
,  // measure 35
1000
0010
0100
0001
2000
3010
0110
0100
,  // measure 36
0001
0010
0100
0001
1000
0010
0100
1000
,  // measure 37
2100
0000
0000
0000
3001
0000
0000
0000
0100
0000
0010
0000
1000
0010
1000
0000
,  // measure 38
0001
0100
0101
0001
1000
0100
1100
1000
,  // measure 39
0001
0100
0010
0001
0010
0010
1000
1000
,  // measure 40
0100
0001
0001
0100
1000
1000
0010
0001
,  // measure 41
0010
0010
1000
1000
0001
0010
1000
0010
,  // measure 42
0200
0000
0000
0001
0000
0000
2300
0000
,  // measure 43
0000
0000
0000
0000
3001
0000
0100
0000
0010
1000
0010
1000
0001
0000
0100
0000
,  // measure 44
0002
0100
2003
0100
,  // measure 45
3020
0000
0000
0100
0200
0000
0300
0000
,  // measure 46
1030
0010
0001
0100
,  // measure 47
2100
0000
0000
0000
3010
0000
0001
0010
0001
0000
0010
0000
1000
0000
0100
0000
,  // measure 48
0110
0000
0000
0010
0001
0000
1000
0000
0010
0000
0000
0010
0001
0000
1000
0000
,  // measure 49
0010
0000
0010
0000
0001
0000
0010
0100
0010
0000
0100
0000
1000
0000
0001
0000
,  // measure 50
0100
0000
0000
0100
1000
0000
0001
0000
0100
0000
0000
0100
1000
0000
0001
0000
,  // measure 51
0100
0000
0100
0000
1000
0000
0001
1000
0001
0000
0100
0000
0010
0000
1000
0000
,  // measure 52
0001
0000
0000
0001
0010
0000
1000
0000
0001
0000
0000
0001
0100
0000
1000
0000
,  // measure 53
0001
0000
0010
0000
0100
1000
0100
1000
0001
0100
0001
0100
0010
0000
0100
0000
,  // measure 54
0001
0000
0000
1000
0100
0000
0010
0000
0001
0000
0000
0001
0010
0000
0100
0000
,  // measure 55
1100
0000
0000
0000
1000
0001
1000
0001
0100
0010
0100
0010
1000
0000
0100
0000
,  // measure 56
0110
0000
1000
0001
0010
0100
0010
0100
1000
0001
1000
0001
0100
0000
0010
0000
,  // measure 57
1001
0000
0000
0000
;

//---------------dance-single - ----------------
#NOTES:
     dance-single:
     :
     Beginner:
     4:
     0.164670,0.238921,0.083832,0.031437,0.000000,110.000000,102.000000,8.000000,3.000000,0.000000,0.000000,0.164670,0.238921,0.083832,0.031437,0.000000,110.000000,102.000000,8.000000,3.000000,0.000000,0.000000:
0000
0000
0000
0000
,
0000
0000
0000
0000
,
0000
0000
0000
0000
,
0000
0000
0000
0000
,
0000
0000
0000
0000
,
0000
0000
0000
0000
,
1000
0000
0001
0000
,
1000
0000
0010
0010
,
0010
0000
0100
0000
,
0010
0000
1000
1000
,
1000
0000
0001
0000
,
1000
0000
0100
0100
,
0100
0000
0010
0000
,
1001
0000
0000
0000
,
0100
0000
0010
0000
,
0100
0000
0010
0000
,
1000
0000
1000
0000
,
0002
0003
0000
0000
,
0010
0000
0100
0000
,
0010
0010
0010
0000
,
0001
0000
1000
0000
,
1001
0000
0000
0000
,
0001
0000
1000
0000
,
0001
0000
0001
0000
,
1000
0000
0010
0000
,
0100
0000
0010
0000
,
1000
0000
0100
0000
,
0001
0000
0010
0000
,
1000
0000
0001
0000
,
0110
0000
0000
0000
,
1000
1000
1000
0000
,
0010
0010
0010
0000
,
0001
0000
0100
0000
,
1000
0000
0001
0000
,
1000
1000
1000
0000
,
0001
0001
0001
0000
,
0100
0000
0010
0000
,
1001
0000
0000
0000
,
0010
0000
0010
0000
,
1000
1000
1000
0000
,
0001
0000
0001
0000
,
1000
1000
1000
0000
,
0200
0000
0000
0000
,
0300
0000
0000
0000
,
0020
0000
0000
0000
,
0000
0000
0000
0000
,
0030
0000
0000
0000
,
1001
0000
0000
0000
,
1000
0000
0001
0000
,
1000
0000
0010
0010
,
0010
0000
0100
0000
,
0010
0000
1000
1000
,
1000
0000
0001
0000
,
1000
0000
0100
0100
,
0100
0000
0010
0000
,
1001
0000
0000
0100
,
0110
0000
0000
0100
,
1001
0000
0000
0000
;

//---------------dance-single - ----------------
#NOTES:
     dance-single:
     :
     Easy:
     6:
     0.303891,0.388247,0.282933,0.261975,0.000000,203.000000,176.000000,27.000000,25.000000,0.000000,0.000000,0.303891,0.388247,0.282933,0.261975,0.000000,203.000000,176.000000,27.000000,25.000000,0.000000,0.000000:
0000
0000
0000
0000
,
0000
0000
0000
0000
,
0000
0000
0000
0000
,
0000
0000
0000
0000
,
0000
0000
0000
0000
,
0000
0000
0000
0000
,
1000
1100
0001
0101
,
1000
1000
0100
0010
,
0001
0011
1000
1010
,
0001
0001
0010
0100
,
0010
0011
0001
0101
,
0010
1000
1000
0100
,
0001
0110
1000
0110
,
1001
0000
0000
0100
,
1001
0010
0100
0010
,
0002
0013
1000
1000
,
0010
0001
1000
0100
,
0002
0003
1000
1000
,
0001
0010
0100
0010
,
0001
0001
2000
3000
,
0010
0001
0010
1000
,
2002
3003
0000
0001
,
0002
0003
1000
0010
,
0002
0003
0010
0010
,
2000
3000
0001
0010
,
2000
3000
0010
0010
,
0001
0100
1000
0010
,
1000
0100
0001
0010
,
0100
0100
0010
0010
,
2002
0000
0000
3003
,
0100
0100
0100
0010
,
0001
0001
0002
0003
,
1000
0010
0001
0001
,
2000
3000
0001
0001
,
0010
0010
0010
0100
,
0001
0001
0002
0003
,
1000
0100
0001
0010
,
0220
0330
0000
0000
,
0010
1100
0010
0101
,
0010
0010
1000
0100
,
0001
0001
1000
1000
,
0010
0001
0100
0010
,
2000
0000
0000
0002
,
0000
3000
0020
0003
,
0230
0010
2300
0100
,
0002
0003
0002
3000
,
1003
0010
0001
0010
,
0220
0000
0000
0330
,
1000
1100
0001
0101
,
1000
1000
0100
0010
,
0001
0011
1000
1010
,
0001
0001
0010
0100
,
0010
0011
0001
0101
,
0010
1000
1000
0100
,
0001
0110
1000
0110
,
1001
0100
0100
0010
,
1001
0010
0010
0100
,
1001
0000
0000
0000
;

//---------------dance-single - ----------------
#NOTES:
     dance-single:
     :
     Medium:
     9:
     0.398202,0.507707,0.220059,0.345807,0.000000,266.000000,245.000000,21.000000,33.000000,0.000000,0.000000,0.398202,0.507707,0.220059,0.345807,0.000000,266.000000,245.000000,21.000000,33.000000,0.000000,0.000000:
0000
0000
0000
0000
,
0000
0000
0000
0000
,
0000
0000
0000
0000
,
0000
0000
0000
0000
,
0000
0000
0000
0000
,
0000
0000
0000
0000
,
1100
0000
0001
0100
0001
0000
1000
0100
,
1000
1000
0010
0100
,
0101
0000
1000
0100
1000
0000
0001
0100
,
0001
0010
0100
0010
,
0011
0000
1000
0010
1000
0000
0001
0010
,
0001
0100
0010
1000
,
1100
0000
0001
0100
0010
0000
1000
0100
,
0110
0000
0000
0000
0000
0000
0100
0010
,
0001
0000
1001
0000
0001
0100
0010
0000
,
2000
3000
1000
0000
1000
0100
0010
0000
,
0001
0000
0001
0000
1000
0100
0010
0100
,
2000
0000
3001
0000
0001
0100
0010
0000
,
0010
0000
1001
0000
0010
0100
1000
0000
,
0001
0000
0010
0100
0020
0000
0031
0000
,
1000
0000
1000
0000
0001
0100
0010
0000
,
1001
0000
0000
0000
0000
0100
0010
0010
,
0002
0000
1003
0100
0020
0000
0130
1000
,
0020
0000
0031
0000
0010
1000
0100
0000
,
2000
0000
3001
0010
0200
0000
0310
0001
,
0200
0000
1300
0000
0100
0001
0010
0000
,
0200
0000
0310
0002
0000
0103
0000
2000
,
0000
3100
0000
0002
0000
0013
0000
2000
,
0020
0030
3010
0001
1000
0100
0010
0001
,
2002
0000
3003
0001
,
0201
0000
0310
1000
0020
0000
0031
0000
,
0010
1000
0100
0000
0002
0000
0103
0000
,
1000
0000
1000
0000
0001
0100
0010
1000
,
0002
0000
0013
0000
0100
0100
0100
0000
,
0020
0000
0130
1000
0200
0000
0301
0000
,
0100
1000
0010
0000
0002
0000
0013
0000
,
1000
0000
1000
0000
0001
0010
0100
0000
,
2100
0000
0000
3001
,
1100
0001
1100
0001
,
0100
0000
0010
0000
1000
0100
1000
0000
,
0001
0001
1000
1000
,
0010
0000
0001
0000
0010
0100
0010
0000
,
2000
0000
0000
0100
0000
0000
0002
0000
,
3000
0000
0103
0001
0000
0001
0010
0100
,
0020
0000
0032
2003
,
3002
0000
0003
0001
0002
0000
0000
0000
,
1003
0100
0001
0100
,
1002
0000
0000
0013
,
1100
0000
0001
0100
0001
0000
1000
0100
,
1000
1000
0010
0100
,
0101
0000
1000
0100
1000
0000
0001
0100
,
0001
0010
0100
0010
,
0011
0000
1000
0010
1000
0000
0001
0010
,
0001
0100
0010
1000
,
1100
0000
0001
0100
0010
0000
1000
0100
,
0110
0000
0100
1000
0100
1000
0010
0000
,
0101
0100
0001
0100
0001
0010
0100
0000
,
1001
0000
0000
0000
;
