#VERSION:0.83;
#TITLE:打打打打打打打打打打;
#SUBTITLE:;
#ARTIST:ヒゲドライバー join. SELEN;
#TITLETRANSLIT:Dadadadadadadadadada;
#SUBTITLETRANSLIT:;
#ARTISTTRANSLIT:Hige Driver join. SELEN;
#GENRE:BEMANI;
#ORIGIN:;
#CREDIT:;
#BANNER:Dadadadadadadadadada.png;
#BACKGROUND:Dadadadadadadadadada-bg.png;
#PREVIEWVID:;
#JACKET:Dadadadadadadadadada-jacket.png;
#CDIMAGE:;
#DISCIMAGE:;
#LYRICSPATH:;
#CDTITLE:../cdtitle.png;
#MUSIC:Dadadadadadadadadada.ogg;
#OFFSET:1.037000;
#SAMPLESTART:58.770000;
#SAMPLELENGTH:15.000000;
#SELECTABLE:YES;
#BPMS:0.000=156.000;
#STOPS:;
#DELAYS:;
#WARPS:;
#TIMESIGNATURES:0.000=4=4;
#TICKCOUNTS:0.000=4;
#COMBOS:0.000=1;
#SPEEDS:0.000=1.000=0.000=0;
#SCROLLS:0.000=1.000;
#FAKES:;
#LABELS:0.000=Song Start;
#BGCHANGES:0.000=Dadadadadadadadadada.avi=1.000=0=0=0=StretchNoLoop====,
99999=-nosongbg-=1.000=0=0=0 // don't automatically add -songbackground-
;
#KEYSOUNDS:;
#ATTACKS:
;

//---------------dance-single - ----------------
#NOTEDATA:;
#CHARTNAME:;
#STEPSTYPE:dance-single;
#DESCRIPTION:;
#CHARTSTYLE:;
#DIFFICULTY:Hard;
#METER:13;
#RADARVALUES:0.676479,0.725543,0.207940,0.037807,0.633270,501.000000,479.000000,22.000000,4.000000,0.000000,0.000000,0.000000,0.000000,0.000000,0.676479,0.725543,0.207940,0.037807,0.633270,501.000000,479.000000,22.000000,4.000000,0.000000,0.000000,0.000000,0.000000,0.000000;
#CREDIT:led_light;
#NOTES:
0000
0000
0000
0000
,
0000
0000
0000
0000
,
0000
0000
0000
0000
,
0000
0000
0000
0000
,
0000
0000
0000
0000
,
0000
0000
0000
0000
,
0000
0000
0000
0000
,
0100
0001
0000
0100
0001
0000
0010
0000
0100
1000
0000
0100
1000
0000
0010
0000
,
0100
0001
0000
0100
0001
0000
0010
0000
0100
0000
1000
0000
1001
0000
0010
0000
,
0100
0001
0000
0010
0100
0000
0010
0000
0100
1000
0000
0010
0100
0000
0001
0000
,
1000
0100
0000
0010
0100
0000
1000
0000
0001
0000
0100
0000
0110
0000
1000
0000
,
0010
1000
0000
0010
1000
0000
0100
0000
0010
0001
0000
0010
0001
0000
0100
0000
,
0010
1000
0000
0010
1000
0000
0100
0000
0010
0000
0001
0000
1001
0000
0100
0000
,
0010
1000
0000
0100
0010
0000
0100
0000
0010
0001
0000
0100
0010
0000
1000
0000
,
0001
0010
0000
0100
0010
0000
0001
0000
1000
0000
0010
0000
0100
0000
0001
0000
,
1000
1000
1000
1000
,
0001
0001
0001
0001
,
1000
0100
0010
0100
1000
0100
0010
0001
,
0100
0010
0100
0001
0100
0010
1000
0001
,
0010
0010
0010
0010
,
0100
0100
0100
0100
,
0010
0001
1000
0001
0010
0100
1000
0001
,
0010
0001
0100
0010
1000
0001
0010
0100
,
1000
0000
0000
0010
0000
0000
1010
0000
0100
0000
0000
0001
0000
0000
0101
0000
,
0001
0000
0000
0010
0000
0000
0011
0000
0100
0000
1000
0000
0010
0000
0100
0000
,
0001
0000
0000
0010
0000
0000
0011
0000
0100
0000
0000
1000
0000
0000
1100
0000
,
1000
0000
0000
0010
0000
0000
1010
0000
0100
0000
0001
0000
0010
0000
0100
0000
,
1000
0000
0001
0010
0000
0001
0010
0000
0100
0000
1000
0001
0000
1000
0001
0000
,
1000
0000
0010
0100
0000
0010
0100
0000
0001
0000
1000
0000
0100
0000
0010
0000
,
0001
0000
1000
0010
0000
1000
0010
0000
0100
0000
0001
1000
0000
0001
1000
0000
,
0001
0000
0010
0100
0000
0010
0100
0000
1000
0000
0001
0000
2000
0000
0000
0000
,
3001
0001
0001
0001
,
1000
1000
1000
1000
,
0001
0010
0100
0010
0001
0010
0100
1000
,
0010
0100
0010
1000
0010
0100
0001
1000
,
0100
0100
0100
0100
,
0010
0010
0010
0010
,
0100
1000
0001
1000
0100
0010
0001
1000
,
0100
0010
0001
0100
0010
1000
0001
0010
,
0100
0000
0000
1000
0000
0000
1010
0000
0100
0000
0000
0001
0000
0000
0011
0000
,
0100
0000
0000
1000
0000
0000
1010
0000
0100
0000
0001
0000
2000
0000
0000
0000
,
3010
0000
0100
0000
0001
0000
0100
0000
0010
0000
1000
0001
0000
1000
0001
0000
,
0010
0100
1000
0001
0100
0010
1000
0100
,
0010
0000
0000
0001
0000
0000
0101
0000
0010
0000
0000
1000
0000
0000
1100
0000
,
0010
0000
0000
0001
0000
0000
0101
0000
0010
0000
1000
0000
0002
0000
0000
0000
,
0013
0100
0000
1000
0100
0000
1000
0000
0010
0100
0000
0001
0100
0000
0010
0000
,
1000
0001
1000
0001
0010
0100
0010
0100
,
1000
0001
0010
0100
1000
0010
0100
0001
,
0010
0100
0010
0100
2000
0000
3001
0000
,
0100
0010
0100
0010
0100
0010
0100
0010
0100
0010
0000
0000
,
1000
0001
1000
0001
1000
0001
1000
0001
1000
0001
0000
0000
,
1000
0100
1000
0100
1000
0100
0010
0001
0010
0001
0010
0001
,
0100
0010
0100
0010
0100
0010
1000
0000
0000
1001
0000
0000
,
0100
0010
0100
0010
0100
0010
0001
1000
0001
1000
0000
0000
,
0010
0100
0010
0100
0010
0100
0001
1000
0001
1000
0000
0000
,
0001
0010
0001
0010
0001
0010
0100
1000
0100
1000
0100
1000
,
0010
0100
0010
0100
0010
0100
0001
0000
0000
1001
0000
0000
,
0001
0010
0100
1000
0000
0000
0001
0100
0010
1000
0000
0000
,
0001
0010
0100
1000
0001
0100
0010
0000
0000
1001
0000
0000
,
0010
0001
0000
0010
0001
0000
0100
0000
0010
1000
0000
0010
1000
0000
0100
0000
,
0010
0001
0000
0010
0001
0000
0100
0000
0010
0000
1000
0000
1001
0000
0100
0000
,
0010
0001
0000
0100
0010
0000
0100
0000
0010
1000
0000
0100
0010
0000
0001
0000
,
1000
0010
0000
0100
0010
0000
1000
0000
0001
0000
0010
0000
0110
0000
1000
0000
,
0100
1000
0000
0100
1000
0000
0010
0000
0100
0001
0000
0100
0001
0000
0010
0000
,
0100
1000
0000
0100
1000
0000
0010
0000
0100
0000
0001
0000
1001
0000
0010
0000
,
0100
1000
0000
0010
0100
0000
0010
0000
0100
0001
0000
0010
0100
0000
1000
0000
,
0001
0100
0000
0010
0100
0000
0001
0000
0010
0000
0100
0000
1001
0000
0000
0000
;

//---------------dance-single - ----------------
#NOTEDATA:;
#CHARTNAME:;
#STEPSTYPE:dance-single;
#DESCRIPTION:;
#CHARTSTYLE:;
#DIFFICULTY:Challenge;
#METER:16;
#RADARVALUES:0.841210,0.914816,0.198488,0.340265,1.134215,623.000000,602.000000,21.000000,36.000000,0.000000,0.000000,0.000000,0.000000,0.000000,0.841210,0.914816,0.198488,0.340265,1.134215,623.000000,602.000000,21.000000,36.000000,0.000000,0.000000,0.000000,0.000000,0.000000;
#CREDIT:led_light;
#NOTES:
// measure 0
0000
0000
0000
0000
,  // measure 1
0000
0000
0000
0000
,  // measure 2
0000
0000
0000
0000
,  // measure 3
0000
0000
0000
0000
,  // measure 4
0000
0000
0000
0000
,  // measure 5
0000
0000
0000
0000
,  // measure 6
0000
0000
0000
0000
,  // measure 7
0010
0100
0000
0100
0010
0000
0001
0000
0100
0010
0000
0010
1000
0000
0100
0000
,  // measure 8
0010
0001
0000
0001
1000
0000
0010
0000
0100
0000
0001
0000
1001
0000
0010
0000
,  // measure 9
0100
0010
0000
0010
0100
0000
1000
0000
0010
0100
0000
0100
0001
0000
0010
0000
,  // measure 10
0100
1000
0000
1000
0001
0000
0100
0000
0010
1000
0100
0010
0001
0100
0010
0000
,  // measure 11
1000
0001
0000
0001
1000
0100
0010
0000
0001
1000
0000
1000
0001
0100
0010
0000
,  // measure 12
1000
0001
0000
0001
0010
0100
1000
0000
0001
0000
1000
0000
0110
0000
0001
0000
,  // measure 13
1000
0001
0000
0001
1000
0100
0010
0000
0001
1000
0000
1000
0001
0100
0010
0000
,  // measure 14
1000
0001
0000
0001
0010
0100
1000
0000
0001
1000
0010
0100
0001
0010
0100
1000
,  // measure 15
0001
0001
0001
0001
,  // measure 16
2000
3020
0230
0302
2003
3200
0320
0032
,  // measure 17
1003
0010
1000
0010
0000
0100
0001
0000
0100
0000
0010
0000
1000
0000
0001
0000
,  // measure 18
1000
0100
1000
0100
0000
0010
0100
0000
1000
0001
0010
0100
1000
0001
1000
0010
,  // measure 19
0100
0100
0100
0100
,  // measure 20
0002
0203
0320
2030
3002
0023
0230
2300
,  // measure 21
3001
0100
0001
0100
0000
0010
1000
0000
0010
0000
0100
0000
0001
0000
1000
0000
,  // measure 22
0001
0010
0001
0010
0000
0100
0010
0000
0001
1000
0100
0010
0001
1000
0001
0100
,  // measure 23
0010
1000
0000
1010
0000
0001
0010
0000
0100
1000
0000
1100
0000
0001
1000
0000
,  // measure 24
0010
0100
0000
0110
0000
0001
1000
0000
0100
0000
0010
0000
1001
0000
0010
0000
,  // measure 25
0100
0001
0000
0101
0000
1000
0100
0000
0010
0001
0000
0011
0000
1000
0001
0000
,  // measure 26
0100
0010
0000
0110
0000
1000
0001
0000
0010
0000
0100
0000
1001
0000
0010
0000
,  // measure 27
0100
0001
0010
0100
0000
0010
0001
0000
0100
0010
1000
0001
0000
0010
0100
0000
,  // measure 28
0010
0001
0100
0010
0000
0100
0001
0000
1000
0000
0001
0000
0110
0000
1000
0000
,  // measure 29
0100
1000
0010
0100
0000
0010
1000
0000
0100
0010
0001
1000
0000
0010
0100
0000
,  // measure 30
0010
1000
0100
0010
0000
0100
1000
0000
0001
1000
0001
1000
0002
0000
0000
0000
,  // measure 31
1003
1000
1000
1000
,  // measure 32
0002
0203
0320
2030
3002
0023
0230
2300
,  // measure 33
3001
0100
0001
0100
0000
0010
1000
0000
0010
0000
0100
0000
0001
0000
1000
0000
,  // measure 34
0001
0010
0001
0010
0000
0100
0010
0000
0001
1000
0100
0010
0001
1000
0001
0100
,  // measure 35
0010
0010
0010
0010
,  // measure 36
2000
3020
0230
0302
2003
3200
0320
0032
,  // measure 37
1003
0010
1000
0010
0000
0100
0001
0000
0100
0000
0010
0000
1000
0000
0001
0000
,  // measure 38
0010
0100
1000
0001
1000
0001
0010
0100
1000
0100
0010
0001
0100
0010
1000
0001
,  // measure 39
0010
0000
0100
1000
0000
0100
1000
0000
0001
0000
0100
0010
0000
0100
0010
0000
,  // measure 40
1000
0000
0001
1000
0000
0001
1000
0000
0100
0000
0010
0000
0002
0000
1003
0000
,  // measure 41
0010
0000
0100
0000
0001
0000
1000
0000
0100
0000
0010
0100
0000
1000
0001
0000
,  // measure 42
1000
0000
0010
0000
0100
0000
0001
0000
0010
0100
1000
0100
0010
0001
1000
0010
,  // measure 43
0100
0000
0010
1000
0000
0010
1000
0000
0001
0000
0010
0100
0000
0010
0100
0000
,  // measure 44
1000
0000
0001
1000
0000
0001
1000
0000
0010
0000
0100
0000
0002
0000
0000
0000
,  // measure 45
0013
0100
0000
0010
0001
0000
1000
0000
0010
0100
0000
0010
1000
0000
0001
0000
,  // measure 46
0010
0100
0010
0100
1000
0001
1000
0001
,  // measure 47
1000
0010
0100
0001
1000
0010
0100
0001
1000
0100
0010
0001
1000
0100
0010
0001
,  // measure 48
0100
0010
0100
0010
0100
0010
0100
0010
2000
0000
0000
0000
3001
0000
0000
0000
,  // measure 49
0010
0010
0010
0010
0010
0010
0010
0010
0010
0010
0000
0000
,  // measure 50
0100
0100
0100
0100
0100
0100
0100
0100
0100
0100
0000
0000
,  // measure 51
1000
1000
1000
1000
1000
1000
0001
0001
0001
0001
0001
0001
,  // measure 52
0100
0100
0100
0100
0100
0100
0010
0000
0000
1001
0000
0000
,  // measure 53
0001
0001
0001
0010
0010
0010
0100
0100
0100
1000
0000
0000
,  // measure 54
0001
0001
0001
0100
0100
0100
0010
0010
0010
1000
0000
0000
,  // measure 55
0001
0001
0001
0010
0010
0010
0100
0100
0100
1000
1000
1000
,  // measure 56
0010
0010
0010
0100
0100
0100
0001
0000
0000
1001
0000
0000
,  // measure 57
0011
0010
0100
1000
0000
0000
1010
0010
0100
0001
0000
0000
,  // measure 58
0011
0010
0100
1000
0001
0100
0010
0000
0000
1001
0000
0000
,  // measure 59
0010
0100
0000
0100
0010
0000
0001
0000
0100
0010
0000
0010
1000
0000
0100
0000
,  // measure 60
0010
0001
0000
0001
1000
0000
0010
0000
0100
0000
0001
0000
1001
0000
0010
0000
,  // measure 61
0100
0010
0000
0010
0100
0000
1000
0000
0010
0100
0000
0100
0001
0000
0010
0000
,  // measure 62
0100
1000
0000
1000
0001
0000
0100
0000
0010
1000
0100
0010
0001
0100
0010
0000
,  // measure 63
1000
0001
0000
0001
1000
0100
0010
0000
0001
1000
0000
1000
0001
0100
0010
0000
,  // measure 64
1000
0001
0000
0001
0010
0100
1000
0000
0001
0000
1000
0000
0110
0000
0001
0000
,  // measure 65
1000
0100
1000
0100
0000
0010
0001
0000
1000
0010
1000
0010
0000
0100
0001
0000
,  // measure 66
1000
0100
0010
0100
1000
0010
0100
0001
0010
0000
0110
0000
1001
0000
0000
0000
;

//---------------dance-single - ----------------
#NOTEDATA:;
#CHARTNAME:;
#STEPSTYPE:dance-single;
#DESCRIPTION:;
#CHARTSTYLE:;
#DIFFICULTY:Beginner;
#METER:4;
#RADARVALUES:0.164731,0.283908,0.056711,0.037807,0.000000,122.000000,116.000000,6.000000,4.000000,0.000000,0.000000,0.000000,0.000000,0.000000,0.164731,0.283908,0.056711,0.037807,0.000000,122.000000,116.000000,6.000000,4.000000,0.000000,0.000000,0.000000,0.000000,0.000000;
#CREDIT:led_light;
#NOTES:
0000
0000
0000
0000
,
0000
0000
0000
0000
,
0000
0000
0000
0000
,
0000
0000
0000
0000
,
0000
0000
0000
0000
,
0000
0000
0000
0000
,
0000
0000
0000
0000
,
0001
0000
1000
0000
,
0001
0000
0001
0000
,
1000
0000
0001
0000
,
1000
0000
1000
0000
,
0001
0000
0010
0000
,
0100
0000
0010
0000
,
0001
0000
1000
0000
,
0010
0000
0100
0000
,
0001
0000
0000
0000
,
0000
0000
0000
0000
,
0001
0000
0001
0000
,
1000
0000
0001
0000
,
1000
0000
0000
0000
,
0000
0000
0000
0000
,
1000
0000
0001
0000
,
1000
0000
1000
0000
,
1001
0000
0110
0000
,
1001
0000
0010
0000
,
0110
0000
1001
0000
,
0110
0000
0001
0000
,
1000
0000
0001
0000
,
1000
0000
0001
0000
,
0100
0000
0010
0000
,
0100
0000
0010
0000
,
1000
0000
0000
0000
,
0000
0000
0000
0000
,
1000
0000
1000
0000
,
0001
0000
1000
0000
,
0001
0000
0000
0000
,
0000
0000
0000
0000
,
0001
0000
1000
0000
,
0001
0000
0001
0000
,
1000
0000
0010
0000
,
0100
0000
0001
0000
,
0001
0000
0010
0000
,
0100
0000
1000
0000
,
1000
0000
0001
0000
,
0100
0000
0010
0000
,
2000
0000
3000
0000
,
0002
0000
0003
0000
,
0200
0000
0300
0000
,
0020
0000
0030
0000
,
0100
0100
0100
0000
,
0010
0010
0010
0000
,
1000
1000
1000
1000
,
0001
0001
0001
0000
,
0010
0010
0010
0000
,
0100
0100
0100
0000
,
1000
1000
1000
1000
,
0001
0001
0001
0000
,
1000
0000
0001
0000
,
0100
0100
0100
0000
,
0001
0000
1000
0000
,
0001
0000
0001
0000
,
1000
0000
0001
0000
,
1000
0000
1000
0000
,
0001
0000
0010
0000
,
0100
0000
0010
0000
,
0001
0000
1000
0000
,
0010
0000
0100
0100
;

//---------------dance-single - ----------------
#NOTEDATA:;
#CHARTNAME:;
#STEPSTYPE:dance-single;
#DESCRIPTION:;
#CHARTSTYLE:;
#DIFFICULTY:Medium;
#METER:11;
#RADARVALUES:0.494194,0.536271,0.056711,0.075614,0.378072,366.000000,360.000000,6.000000,8.000000,0.000000,0.000000,0.000000,0.000000,0.000000,0.494194,0.536271,0.056711,0.075614,0.378072,366.000000,360.000000,6.000000,8.000000,0.000000,0.000000,0.000000,0.000000,0.000000;
#CREDIT:led_light;
#NOTES:
0000
0000
0000
0000
,
0000
0000
0000
0000
,
0000
0000
0000
0000
,
0000
0000
0000
0000
,
0000
0000
0000
0000
,
0000
0000
0000
0000
,
0000
0000
0000
0000
,
1000
0000
0000
0001
0010
0000
0000
0000
0100
0000
0000
0010
0001
0000
0000
0000
,
1000
0000
0000
0010
0100
0000
0000
0000
0001
0000
0010
0000
0100
0000
0000
0000
,
1000
0000
0000
0001
0100
0000
0000
0000
0010
0000
0000
0100
0001
0000
0000
0000
,
1000
0000
0000
0100
0010
0000
0000
0000
0001
0000
0100
0000
0010
0000
1000
0000
,
0001
0000
0000
1000
0100
0000
0000
0000
0010
0000
0000
0100
1000
0000
0000
0000
,
0001
0000
0000
0100
0010
0000
0000
0000
1000
0000
0100
0000
0010
0000
0000
0000
,
0001
0000
0000
1000
0010
0000
0000
0000
0100
0000
0000
0010
1000
0000
0000
0000
,
0001
0000
0000
0010
0100
0000
0000
0000
1000
0000
0010
0000
0100
0000
0001
0000
,
1000
1000
1000
1000
,
0001
0001
0001
0001
,
1000
0000
0000
0001
0000
0000
0100
0000
0010
0000
1000
0000
0010
0000
0100
0000
,
0001
0000
0000
0010
0000
0000
0100
0000
1000
0000
0100
0000
0010
0000
0001
0000
,
0010
0010
0010
0010
,
0100
0100
0100
0100
,
1000
0000
0000
0010
0000
0000
0100
0000
0001
0000
1000
0000
0100
0000
0010
0000
,
0001
0000
0000
1000
0000
0000
0010
0000
0100
0000
0001
0000
0010
0000
0100
0000
,
1000
0000
0000
1000
0000
0000
1000
0000
0001
0000
0000
0001
0000
0000
0001
0000
,
0100
0000
0000
0100
0000
0000
0100
0000
0001
0000
1000
0000
0100
0000
0000
0000
,
0010
0000
0000
0010
0000
0000
0010
0000
0100
0000
0000
0100
0000
0000
0100
0000
,
1000
0000
0000
1000
0000
0000
1000
0000
0001
0000
0100
0000
0010
0000
1000
0000
,
0001
0000
0000
0001
0000
0000
0001
0000
1000
0000
0000
1000
0000
0000
1000
0000
,
0100
0000
0000
0100
0000
0000
0100
0000
1000
0000
0001
0000
0100
0000
0000
0000
,
0010
0000
0000
0010
0000
0000
0010
0000
0100
0000
0000
0100
0000
0000
0100
0000
,
0001
0000
0000
0001
0000
0000
0001
0000
1000
0000
0100
0000
0020
0000
0000
0000
,
0031
0001
0001
0001
,
1000
1000
1000
1000
,
0001
0000
0000
1000
0000
0000
0010
0000
0100
0000
0001
0000
0100
0000
0010
0000
,
1000
0000
0000
0100
0000
0000
0010
0000
0001
0000
0010
0000
0100
0000
1000
0000
,
0100
0100
0100
0100
,
0010
0010
0010
0010
,
0001
0000
0000
0100
0000
0000
0010
0000
1000
0000
0001
0000
0010
0000
0100
0000
,
1000
0001
1000
0001
0100
0010
0100
0010
,
1000
0000
0000
0001
0000
0000
0010
0000
0100
0000
0000
1000
0000
0000
0001
0000
,
0100
0000
0000
0010
0000
0000
1000
0000
0001
0000
0010
0000
0200
0000
0000
0000
,
1300
0000
0001
0000
1000
0000
0010
0000
0100
0000
0000
0001
0000
0000
1000
0000
,
0100
0010
0001
1000
0002
0000
1003
0000
,
0001
0000
0000
1000
0000
0000
0010
0000
0100
0000
0000
0001
0000
0000
1000
0000
,
0100
0000
0000
0010
0000
0000
0001
0000
1000
0000
0010
0000
0200
0000
0000
0000
,
0301
0000
0000
0001
0000
0000
0001
0000
1000
0000
0000
1000
0000
0000
1000
0000
,
0001
0011
1000
1010
,
0200
0000
0000
0010
0020
0000
0330
0000
,
2000
0000
0002
3003
,
0100
0000
0100
0010
0000
0010
1000
0000
1000
0001
0000
0000
,
0010
0000
0010
0100
0000
0100
1000
0000
1000
0001
0000
0000
,
1000
0000
1000
0010
0000
0010
0100
0000
0100
0001
0000
0001
,
0010
0000
0010
0100
0000
0100
1000
0000
0000
1001
0000
0000
,
0010
0000
0100
0001
0000
1000
0010
0000
0100
0001
0000
0000
,
0010
0000
0100
1000
0000
0001
0010
0000
0100
1000
0000
0000
,
0001
0000
0100
0010
0000
1000
0001
0000
0100
0010
0000
1000
,
0100
0000
0010
0001
0000
1000
0100
0000
0000
1001
0000
0000
,
1000
0000
0010
0100
0000
0000
0001
0000
0010
0100
0000
0000
,
1000
0000
0010
0100
0000
0001
0010
0000
0000
1001
0000
0000
,
0001
0000
0000
1000
0010
0000
0000
0000
0100
0000
0000
0010
1000
0000
0000
0000
,
0001
0000
0000
0010
0100
0000
0000
0000
1000
0000
0010
0000
0100
0000
0000
0000
,
0001
0000
0000
1000
0100
0000
0000
0000
0010
0000
0000
0100
1000
0000
0000
0000
,
0001
0000
0000
0100
0010
0000
0000
0000
1000
0000
0100
0000
0010
0000
0001
0000
,
1000
0000
0000
0001
0100
0000
0000
0000
0010
0000
0000
0100
0001
0000
0000
0000
,
1000
0000
0000
0100
0010
0000
0000
0000
0001
0000
0100
0000
0010
0000
0000
0000
,
1000
0000
0000
0001
0010
0000
0100
0000
1000
0000
0000
0010
0100
0000
0001
0000
,
1000
0000
0000
0100
0010
0000
0001
0000
1000
0000
0001
0000
1001
0000
0000
0000
;

//---------------dance-single - ----------------
#NOTEDATA:;
#CHARTNAME:;
#STEPSTYPE:dance-single;
#DESCRIPTION:;
#CHARTSTYLE:;
#DIFFICULTY:Easy;
#METER:7;
#RADARVALUES:0.375371,0.441635,0.623819,0.170132,0.000000,278.000000,212.000000,66.000000,18.000000,0.000000,0.000000,0.000000,0.000000,0.000000,0.375371,0.441635,0.623819,0.170132,0.000000,278.000000,212.000000,66.000000,18.000000,0.000000,0.000000,0.000000,0.000000,0.000000;
#CREDIT:led_light;
#NOTES:
0000
0000
0000
0000
,
0000
0000
0000
0000
,
0000
0000
0000
0000
,
0000
0000
0000
0000
,
0000
0000
0000
0000
,
0000
0000
0000
0000
,
0000
0000
0000
0000
,
0100
1001
0010
1001
,
0100
0000
1001
0000
0010
0100
0010
0000
,
0001
0011
1000
1010
,
0001
0000
0011
0000
1000
0010
0100
0000
,
0010
1001
0100
1001
,
0010
0000
1001
0000
0100
0010
0100
0000
,
1000
1100
0001
0101
,
1000
0000
1100
0000
0001
0100
0010
0000
,
2000
0000
0000
0000
,
0002
0000
0000
3003
,
1000
0100
0010
0110
,
0001
0100
0010
0110
,
0002
0000
0000
0000
,
2000
0000
0000
3003
,
0001
0010
0100
0110
,
1000
0010
0100
0110
,
0101
0000
0011
0000
,
1010
0000
1100
0100
,
0101
0000
1100
0000
,
1010
0000
0011
0001
,
1001
0010
0110
0001
,
1001
0100
0110
1000
,
1001
0100
0110
0001
,
1001
0010
0200
0300
,
0002
0000
0000
0000
,
2000
0000
0000
3003
,
0001
0010
0100
0110
,
1000
0010
0100
0110
,
2000
0000
0000
0000
,
0002
0000
0000
3003
,
1000
0100
0010
0110
,
0001
0100
0010
1000
,
0001
0011
1000
1010
,
0001
0000
0011
0000
1000
0010
0200
0000
,
0301
1001
1000
1001
,
0001
0100
0020
0030
,
1000
1010
0001
0011
,
1000
0000
1010
0000
0001
0010
0200
0000
,
1300
1000
0001
0001
,
1000
0010
0100
0001
,
2000
0000
0002
3003
,
0020
0000
0200
0330
,
1000
1000
1000
1001
,
0001
0001
0001
1001
,
1000
1000
0010
0010
,
0100
0100
0001
1001
,
0001
0001
0001
1001
,
1000
1000
1000
1001
,
0001
0001
0100
0100
,
0010
0010
1000
1001
,
0100
0011
0100
1010
,
0100
0011
2002
3003
,
0010
1001
0100
1001
,
0010
0000
1001
0000
0100
0010
0100
0000
,
0001
0101
1000
1100
,
0001
0000
0101
0000
1000
0100
0010
0000
,
0100
1001
0010
1001
,
0100
0000
1001
0000
0010
0100
0010
0000
,
1000
1010
0001
0011
,
1000
1010
0110
1001
;

//---------------dance-double - ----------------
#NOTEDATA:;
#CHARTNAME:;
#STEPSTYPE:dance-double;
#DESCRIPTION:;
#CHARTSTYLE:;
#DIFFICULTY:Easy;
#METER:7;
#RADARVALUES:0.313260,0.441635,0.217391,0.170132,0.000000,232.000000,209.000000,23.000000,18.000000,0.000000,0.000000,0.000000,0.000000,0.000000,0.313260,0.441635,0.217391,0.170132,0.000000,232.000000,209.000000,23.000000,18.000000,0.000000,0.000000,0.000000,0.000000,0.000000;
#CREDIT:led_light;
#NOTES:
00000000
00000000
00000000
00000000
,
00000000
00000000
00000000
00000000
,
00000000
00000000
00000000
00000000
,
00000000
00000000
00000000
00000000
,
00000000
00000000
00000000
00000000
,
00000000
00000000
00000000
00000000
,
00000000
00000000
00000000
00000000
,
00100000
00100000
00001000
00001000
,
00010000
00010000
00000010
00001000
,
00000100
00000100
00010000
00010000
,
00001000
00000000
00001000
00000000
01000000
00010000
01000000
00010000
,
00100000
00100000
00001000
00001000
,
00010000
00010000
00000010
00001000
,
00000100
00000100
00010000
00010000
,
00001000
00001000
01000000
00010000
,
20000000
00000000
00000000
00000000
,
00020000
00000000
00000000
30030000
,
10000000
01000000
00100000
00010000
,
00001000
00000010
00000100
00000001
,
00002000
00000000
00000000
00000000
,
00000002
00000000
00000000
00003003
,
00000001
00000010
00000100
00001000
,
00010000
01000000
00100000
10000000
,
10010000
00000000
11000000
00000000
,
01100000
00000000
01000000
00010000
,
00011000
00000000
00001100
00000000
,
00000110
00000000
00000001
00001000
,
00000001
00000001
00000010
00000010
,
00001000
00001000
00010000
00001000
,
00010000
00010000
00100000
00100000
,
10000000
10000000
00020000
00030000
,
20000000
00000000
00000000
00000000
,
00020000
00000000
00000000
30030000
,
10000000
00100000
01000000
00010000
,
00001000
00000100
00000010
00000001
,
00002000
00000000
00000000
00000000
,
00000002
00000000
00000000
00003003
,
00000001
00000100
00000010
00001000
,
00010000
00100000
01000000
10000000
,
00010000
01100000
10000000
01100000
,
00010000
00000000
10010000
00000000
01000000
00001000
02000000
00000000
,
03001000
00001000
00010000
00010000
,
00000100
00000010
00000002
00000003
,
00001000
00000110
00000001
00000110
,
00001000
00000000
00001001
00000000
00000100
00010000
00000200
00000000
,
00010300
00010000
00001000
00001000
,
01000000
00100000
10000000
00010000
,
00200000
00000000
02000000
03300000
,
20000000
00000000
00020000
30030000
,
10000000
10000000
10000000
10100000
,
01000000
01000000
01000000
01010000
,
00001000
00001000
00010000
00010000
,
00000100
00000100
00000010
00001001
,
00000001
00000001
00000001
00000101
,
00000010
00000010
00000010
00001010
,
00010000
00010000
00001000
00001000
,
00100000
00100000
01000000
10010000
,
10000000
10100000
00010000
00110000
,
10000000
11000000
20020000
30030000
,
01000000
01000000
00001000
00001000
,
00010000
00010000
00000100
00001000
,
00000010
00000010
00010000
00010000
,
00001000
00000000
00001000
00000000
00100000
00010000
00100000
00010000
,
01000000
01000000
00001000
00001000
,
00010000
00010000
00000010
00001000
,
00000100
00000100
00010000
00010000
,
00001000
01000000
00100000
10010000
;

//---------------dance-double - ----------------
#NOTEDATA:;
#CHARTNAME:;
#STEPSTYPE:dance-double;
#DESCRIPTION:;
#CHARTSTYLE:;
#DIFFICULTY:Medium;
#METER:11;
#RADARVALUES:0.492844,0.567817,0.094518,0.075614,0.378072,365.000000,355.000000,10.000000,8.000000,0.000000,0.000000,0.000000,0.000000,0.000000,0.492844,0.567817,0.094518,0.075614,0.378072,365.000000,355.000000,10.000000,8.000000,0.000000,0.000000,0.000000,0.000000,0.000000;
#CREDIT:led_light;
#NOTES:
00000000
00000000
00000000
00000000
,
00000000
00000000
00000000
00000000
,
00000000
00000000
00000000
00000000
,
00000000
00000000
00000000
00000000
,
00000000
00000000
00000000
00000000
,
00000000
00000000
00000000
00000000
,
00000000
00000000
00000000
00000000
,
00100000
00000000
00000000
00001000
00010000
00000000
00000000
00000000
00000010
00000000
00000000
00010000
00001000
00000000
00000000
00000000
,
00100000
00000000
00000000
00001000
00010000
00000000
00000000
00000000
00000010
00000000
00000000
00000000
00011000
00000000
00000000
00000000
,
00000100
00000000
00000000
00010000
00001000
00000000
00000000
00000000
01000000
00000000
00000000
00001000
00010000
00000000
00000000
00000000
,
00000100
00000000
00000000
00010000
00001000
00000000
00000000
00000000
01000000
00000000
00100000
00000000
10000000
00000000
00010000
00000000
,
00100000
00000000
00000000
00001000
00010000
00000000
00000000
00000000
00000010
00000000
00000000
00010000
00001000
00000000
00000000
00000000
,
00100000
00000000
00000000
00001000
00010000
00000000
00000000
00000000
00000010
00000000
00000000
00000000
00011000
00000000
00000000
00000000
,
00000100
00000000
00000000
00010000
00001000
00000000
00000000
00000000
01000000
00000000
00000000
00001000
00010000
00000000
00000000
00000000
,
00000100
00000000
00000000
00010000
00001000
00000000
00000000
00000000
01000000
00000000
00100000
00000000
10000000
00000000
00010000
00000000
,
00100000
00100000
00100000
00100000
,
01000000
01000000
01000000
01000000
,
10000000
00000000
00000000
00010000
00000000
00000000
10000000
00000000
00100000
00000000
01000000
00000000
00001000
00000000
00010000
00000000
,
00001000
00000000
00000000
00010000
00000000
00000000
00000100
00000000
00000010
00000000
00000001
00000000
00001000
00000000
00000010
00000000
,
00000100
00000100
00000100
00000100
,
00000010
00000010
00000010
00000010
,
00001000
00000000
00000000
00000001
00000000
00000000
00000010
00000000
00000100
00000000
00010000
00000000
00001000
00000000
00100000
00000000
,
00010000
00000000
00000000
10000000
00000000
00000000
00100000
00000000
01000000
00000000
00010000
00000000
00100000
00000000
01000000
00000000
,
10000000
00000000
00000000
10000000
00000000
00000000
10000000
00000000
00100000
00000000
00000000
00100000
00000000
00000000
00100000
00000000
,
01000000
00000000
00000000
01000000
00000000
00000000
01000000
00000000
00001000
00000000
00010000
00000000
00001000
00000000
00000000
00000000
,
00010000
00000000
00000000
00010000
00000000
00000000
00010000
00000000
00000100
00000000
00000000
00000100
00000000
00000000
00000100
00000000
,
00000010
00000000
00000000
00000010
00000000
00000000
00000010
00000000
00000001
00000000
00001000
00000000
00000001
00000000
00000000
00000000
,
00001000
00000000
00000000
00001000
00000000
00000000
00001000
00000000
00000001
00000000
00000000
00000001
00000000
00000000
00000001
00000000
,
00000100
00000000
00000000
00000100
00000000
00000000
00000100
00000000
00000010
00000000
00010000
00000000
00001000
00000000
00000000
00000000
,
00010000
00000000
00000000
00010000
00000000
00000000
00010000
00000000
00001000
00000000
00000000
00001000
00000000
00000000
00001000
00000000
,
00100000
00000000
00000000
00100000
00000000
00000000
00100000
00000000
00010000
00000000
10000000
00000000
00020000
00000000
00000000
00000000
,
01030000
01000000
01000000
01000000
,
00100000
00100000
00100000
00100000
,
10000000
00000000
00000000
00010000
00000000
00000000
10000000
00000000
01000000
00000000
00100000
00000000
00001000
00000000
00010000
00000000
,
00001000
00000000
00000000
00010000
00000000
00000000
00000010
00000000
00000100
00000000
00000001
00000000
00001000
00000000
00000100
00000000
,
00000010
00000010
00000010
00000010
,
00000100
00000100
00000100
00000100
,
00001000
00000000
00000000
00000001
00000000
00000000
00000100
00000000
00000010
00000000
00010000
00000000
00001000
00000000
01000000
00000000
,
00010000
00100000
01000000
00100000
00010000
01000000
00100000
10000000
,
00010000
00000000
00000000
00100000
00000000
00000000
01000000
00000000
10000000
00000000
00000000
00100000
00000000
00000000
01000000
00000000
,
00001000
00000000
00000000
00010000
00000000
00000000
00000100
00000000
00001000
00000000
00000010
00000000
00000200
00000000
00000000
00000000
,
00000301
00000000
00001000
00000000
00000100
00000000
00000010
00000000
00000001
00000000
00000000
00000100
00000000
00000000
00000010
00000000
,
00001000
00000010
00000100
00000001
00002000
00000000
00003001
00000000
,
00001000
00000000
00000000
00000010
00000000
00000000
00000100
00000000
00000001
00000000
00000000
00000010
00000000
00000000
00000100
00000000
,
00010000
00000000
00000000
00001000
00000000
00000000
01000000
00000000
00010000
00000000
00100000
00000000
02000000
00000000
00000000
00000000
,
13000000
00000000
00000000
10000000
00000000
00000000
10000000
00000000
00010000
00000000
00000000
00010000
00000000
00000000
00010000
00000000
,
10000000
10100000
01000000
01010000
,
00002000
00000000
00000000
00010000
00020000
00000000
00033000
00000000
,
00000200
00000000
00000020
00000330
,
00000001
00000000
00000001
00000100
00000000
00000100
00000010
00000000
00000010
00001000
00000000
00000000
,
00010000
00000000
00010000
00100000
00000000
00100000
01000000
00000000
01000000
10000000
00000000
00000000
,
00100000
00000000
00100000
01000000
00000000
01000000
00010000
00000000
00010000
00001000
00000000
00001000
,
00000100
00000000
00000100
00000010
00000000
00000010
00000001
00000000
00000000
00001001
00000000
00000000
,
00000001
00000000
00000100
00000010
00000000
00001000
00000100
00000000
00010000
00001000
00000000
00000000
,
00100000
00000000
00010000
01000000
00000000
00100000
10000000
00000000
01000000
00100000
00000000
00000000
,
01000000
00000000
01000000
00100000
00000000
00100000
00010000
00000000
00010000
00001000
00000000
00001000
,
00000010
00000000
00000010
00000100
00000000
00000100
00000001
00000000
00000000
00001001
00000000
00000000
,
00000010
00000000
00001000
00010000
00000000
00000000
01000000
00000000
00010000
00001000
00000000
00000000
,
00000100
00000000
00001000
00010000
00000000
01000000
10000000
00000000
00000000
10010000
00000000
00000000
,
01000000
00000000
00000000
00001000
00010000
00000000
00000000
00000000
00000100
00000000
00000000
00010000
00001000
00000000
00000000
00000000
,
01000000
00000000
00000000
00001000
00010000
00000000
00000000
00000000
00000100
00000000
00000000
00000000
00011000
00000000
00000000
00000000
,
00000010
00000000
00000000
00010000
00001000
00000000
00000000
00000000
00100000
00000000
00000000
00001000
00010000
00000000
00000000
00000000
,
00000010
00000000
00000000
00010000
00001000
00000000
00000000
00000000
00100000
00000000
01000000
00000000
10000000
00000000
00010000
00000000
,
01000000
00000000
00000000
00001000
00010000
00000000
00000000
00000000
00000100
00000000
00000000
00010000
00001000
00000000
00000000
00000000
,
01000000
00000000
00000000
00001000
00010000
00000000
00000000
00000000
00000100
00000000
00000000
00000000
00011000
00000000
00000000
00000000
,
00000010
00000000
00000000
00001000
00000100
00000000
00010000
00000000
00001000
00000000
00000000
00100000
00010000
00000000
01000000
00000000
,
00001000
00000000
00000000
00010000
00000010
00000000
00001000
00000000
00000100
00000000
00000010
00000000
00001001
00000000
00000000
00000000
;

//---------------dance-double - ----------------
#NOTEDATA:;
#CHARTNAME:;
#STEPSTYPE:dance-double;
#DESCRIPTION:;
#CHARTSTYLE:;
#DIFFICULTY:Hard;
#METER:13;
#RADARVALUES:0.676479,0.725543,0.207940,0.037807,0.633270,501.000000,479.000000,22.000000,4.000000,0.000000,0.000000,0.000000,0.000000,0.000000,0.676479,0.725543,0.207940,0.037807,0.633270,501.000000,479.000000,22.000000,4.000000,0.000000,0.000000,0.000000,0.000000,0.000000;
#CREDIT:led_light;
#NOTES:
00000000
00000000
00000000
00000000
,
00000000
00000000
00000000
00000000
,
00000000
00000000
00000000
00000000
,
00000000
00000000
00000000
00000000
,
00000000
00000000
00000000
00000000
,
00000000
00000000
00000000
00000000
,
00000000
00000000
00000000
00000000
,
10000000
00100000
00000000
10000000
00100000
00000000
01000000
00000000
00010000
00100000
00000000
00010000
00100000
00000000
01000000
00000000
,
00010000
00001000
00000000
00010000
00001000
00000000
00000100
00000000
00000001
00000000
00000010
00000000
00000110
00000000
00001000
00000000
,
00000001
00000100
00000000
00000001
00000100
00000000
00000010
00000000
00001000
00000100
00000000
00001000
00000100
00000000
00000010
00000000
,
00001000
00010000
00000000
00001000
00010000
00000000
00100000
00000000
10000000
00000000
01000000
00000000
01100000
00000000
00010000
00000000
,
10000000
01000000
00000000
10000000
01000000
00000000
00100000
00000000
00010000
01000000
00000000
00010000
01000000
00000000
00100000
00000000
,
00010000
00001000
00000000
00010000
00001000
00000000
00000010
00000000
00000001
00000000
00000100
00000000
00000110
00000000
00001000
00000000
,
00000001
00000010
00000000
00000001
00000010
00000000
00000100
00000000
00001000
00000010
00000000
00001000
00000010
00000000
00000100
00000000
,
00001000
00010000
00000000
00001000
00010000
00000000
01000000
00000000
10000000
00000000
00100000
00000000
01000000
00000000
00010000
00000000
,
10000000
10000000
10000000
10000000
,
00010000
00010000
00010000
00010000
,
10000000
00100000
00010000
00100000
10000000
00010000
00100000
10000000
,
00100000
00001000
00010000
00000010
00001000
00000001
00000010
00000100
,
00001000
00001000
00001000
00001000
,
00000001
00000001
00000001
00000001
,
00001000
00000010
00000001
00000010
00001000
00000001
00000010
00001000
,
00000010
00000001
00000100
00001000
00010000
01000000
10000000
00100000
,
01000000
00000000
00000000
00010000
00000000
00000000
00110000
00000000
01000000
00000000
00000000
10000000
00000000
00000000
10100000
00000000
,
01000000
00000000
00000000
00001000
00000000
00000000
00011000
00000000
00000100
00000000
00001000
00000000
00000010
00000000
00000100
00000000
,
00000010
00000000
00000000
00001000
00000000
00000000
00001100
00000000
00000010
00000000
00000000
00000001
00000000
00000000
00000101
00000000
,
00000010
00000000
00000000
00010000
00000000
00000000
00011000
00000000
00100000
00000000
00010000
00000000
01000000
00000000
00100000
00000000
,
10000000
00000000
00010000
00100000
00000000
00010000
00100000
00000000
01000000
00000000
10000000
00100000
00000000
10000000
00100000
00000000
,
01000000
00000000
00001000
00010000
00000000
00001000
00010000
00000000
00000010
00000000
00001000
00000000
00000100
00000000
00000010
00000000
,
00000001
00000000
00001000
00000100
00000000
00001000
00000100
00000000
00000010
00000000
00000001
00000100
00000000
00000001
00000100
00000000
,
00000010
00000000
00010000
00001000
00000000
00010000
00001000
00000000
00000010
00000000
00000001
00000000
00002000
00000000
00000000
00000000
,
00003001
00000001
00000001
00000001
,
00001000
00001000
00001000
00001000
,
00000001
00000100
00001000
00000100
00000001
00001000
00000100
00000001
,
00000100
00010000
00001000
01000000
00010000
10000000
01000000
00100000
,
00010000
00010000
00010000
00010000
,
10000000
10000000
10000000
10000000
,
00010000
01000000
10000000
01000000
00010000
10000000
01000000
00010000
,
01000000
10000000
00100000
00010000
00001000
00000010
00000001
00000100
,
00000010
00000000
00000000
00001000
00000000
00000000
00011000
00000000
00100000
00000000
00000000
00010000
00000000
00000000
00011000
00000000
,
00000100
00000000
00000000
00001000
00000000
00000000
00011000
00000000
01000000
00000000
00010000
00000000
00200000
00000000
00000000
00000000
,
01300000
00000000
00100000
00000000
00001000
00000000
00000100
00000000
00000010
00000000
00001000
00000001
00000000
00001000
00000001
00000000
,
00000010
00000100
00001000
00000001
00000100
00001000
00010000
01000000
,
00100000
00000000
00000000
00010000
00000000
00000000
00011000
00000000
00000010
00000000
00000000
00001000
00000000
00000000
00011000
00000000
,
01000000
00000000
00000000
00010000
00000000
00000000
00011000
00000000
00000100
00000000
00001000
00000000
00000020
00000000
00000000
00000000
,
00000130
00000001
00000000
00000100
00000001
00000000
00000010
00000000
00001000
00010000
00000000
00001000
00010000
00000000
00001000
00000000
,
01000000
00100000
01000000
00100000
10000000
00010000
10000000
00010000
,
00100000
01000000
10000000
00100000
00010000
00001000
00000100
00000001
,
00000010
00000100
00000010
00000100
00002000
00000000
00003001
00000000
,
00000100
00000010
00000100
00000010
00000100
00000010
00000100
00000010
00000100
00000010
00000000
00000000
,
00010000
00001000
00010000
00001000
00010000
00001000
00010000
00001000
00010000
00001000
00000000
00000000
,
00100000
01000000
00100000
01000000
00100000
01000000
10000000
00010000
10000000
00010000
10000000
00010000
,
01000000
00100000
01000000
00100000
01000000
00100000
10000000
00000000
00000000
10010000
00000000
00000000
,
01000000
00100000
01000000
00100000
01000000
00100000
01000000
00100000
01000000
00100000
00000000
00000000
,
00001000
00010000
00001000
00010000
00001000
00010000
00001000
00010000
00001000
00010000
00000000
00000000
,
00000010
00000100
00000010
00000100
00000010
00000100
00000001
00001000
00000001
00001000
00000001
00001000
,
00000100
00000010
00000100
00000010
00000100
00000010
00000001
00000000
00000000
00001001
00000000
00000000
,
00000001
00000100
00000010
00001000
00000000
00000000
00010000
00100000
01000000
10000000
00000000
00000000
,
00100000
01000000
00010000
00001000
00000100
00000010
00000001
00000000
00000000
00001001
00000000
00000000
,
00000001
00000010
00000000
00000001
00000010
00000000
00000100
00000000
00001000
00000010
00000000
00001000
00000010
00000000
00000100
00000000
,
00001000
00010000
00000000
00001000
00010000
00000000
01000000
00000000
10000000
00000000
00100000
00000000
01100000
00000000
00010000
00000000
,
10000000
01000000
00000000
10000000
01000000
00000000
00100000
00000000
00010000
01000000
00000000
00010000
01000000
00000000
00100000
00000000
,
00010000
00001000
00000000
00010000
00001000
00000000
00000010
00000000
00000001
00000000
00000100
00000000
00000110
00000000
00001000
00000000
,
00000001
00000100
00000000
00000001
00000100
00000000
00000010
00000000
00001000
00000100
00000000
00001000
00000100
00000000
00000010
00000000
,
00001000
00010000
00000000
00001000
00010000
00000000
00100000
00000000
10000000
00000000
01000000
00000000
01100000
00000000
00010000
00000000
,
10000000
00100000
00000000
10000000
00100000
00000000
01000000
00000000
00010000
00100000
00000000
00010000
00100000
00000000
01000000
00000000
,
00010000
00001000
00000000
00010000
00001000
00000000
00000100
00000000
00000010
00000000
00000100
00000000
00001001
00000000
00000000
00000000
;

//---------------dance-double - ----------------
#NOTEDATA:;
#CHARTNAME:;
#STEPSTYPE:dance-double;
#DESCRIPTION:;
#CHARTSTYLE:;
#DIFFICULTY:Challenge;
#METER:16;
#RADARVALUES:0.808804,0.914816,0.198488,0.340265,1.091682,599.000000,578.000000,21.000000,36.000000,0.000000,0.000000,0.000000,0.000000,0.000000,0.808804,0.914816,0.198488,0.340265,1.091682,599.000000,578.000000,21.000000,36.000000,0.000000,0.000000,0.000000,0.000000,0.000000;
#CREDIT:led_light;
#NOTES:
00000000
00000000
00000000
00000000
,
00000000
00000000
00000000
00000000
,
00000000
00000000
00000000
00000000
,
00000000
00000000
00000000
00000000
,
00000000
00000000
00000000
00000000
,
00000000
00000000
00000000
00000000
,
00000000
00000000
00000000
00000000
,
00010000
00000010
00000000
00000010
00000100
00000000
00001000
00000000
00010000
01000000
00000000
01000000
00100000
00000000
00010000
00000000
,
10000000
00100000
00000000
00100000
01000000
00000000
00001000
00000000
00010000
00000000
00001000
00000000
00011000
00000000
00100000
00000000
,
00001000
01000000
00000000
01000000
00100000
00000000
00010000
00000000
00001000
00000010
00000000
00000010
00000100
00000000
00001000
00000000
,
00000001
00000100
00000000
00000100
00000010
00000000
00010000
00000000
00001000
00100000
00010000
00100000
00001000
00010000
00000010
00000000
,
00010000
00000100
00000000
00000100
00000010
00000000
00001000
00000000
00010000
00100000
00000000
00100000
01000000
00000000
00010000
00000000
,
10000000
01000000
00000000
01000000
00100000
00000000
00001000
00000000
00010000
00000000
00001000
00000000
00011000
00000000
01000000
00000000
,
00001000
00100000
00000000
00100000
01000000
00000000
00010000
00000000
00001000
00000100
00000000
00000100
00000010
00000000
00001000
00000000
,
00000001
00000010
00000000
00000010
00000100
00000000
00010000
00000000
00001000
00100000
00010000
01000000
00100000
10000000
01000000
00100000
,
00010000
00010000
00010000
00010000
,
20000000
30200000
02300000
03020000
00032000
00003200
00000320
00000032
,
00001003
00000010
00000000
00000100
00000000
00000100
00000001
00000000
00000010
00000000
00000100
00000000
00001000
00000000
00000001
00000000
,
00000010
00000100
00000000
00010000
00000000
00010000
00001000
00000000
00100000
00001000
00100000
00010000
01000000
00001000
00010000
00000100
,
00001000
00001000
00001000
00001000
,
00000002
00000203
00000320
00002030
00023000
00230000
02300000
23000000
,
30010000
01000000
00000000
00100000
00000000
00100000
10000000
00000000
01000000
00000000
00100000
00000000
00010000
00000000
10000000
00000000
,
01000000
00100000
00000000
00001000
00000000
00001000
00010000
00000000
00000100
00010000
00000100
00001000
00000010
00010000
00001000
00100000
,
00010000
10000000
00000000
10100000
00000000
01000000
00001000
00000000
00010000
00000100
00000000
00011000
00000000
00010000
00000010
00000000
,
00001000
00000001
00000000
00000011
00000000
00000100
00001000
00000000
00000001
00000000
00001000
00000000
00000110
00000000
00000001
00000000
,
00001000
00000001
00000000
00000011
00000000
00000100
00010000
00000000
00001000
01000000
00000000
00011000
00000000
00001000
00100000
00000000
,
00010000
10000000
00000000
10100000
00000000
01000000
00010000
00000000
10000000
00000000
00010000
00000000
01100000
00000000
10000000
00000000
,
00010000
00100000
00000000
00100000
00000000
00100000
00001000
00000000
00010000
00000010
00000000
00000010
00000000
00000010
00001000
00000000
,
00000001
00000010
00000000
00000010
00000000
00000010
00001000
00000000
00010000
00000000
00001000
00000000
00011000
00000000
00000010
00000000
,
00001000
00000100
00000000
00000100
00000000
00000100
00010000
00000000
00001000
01000000
00000000
01000000
00000000
01000000
00010000
00000000
,
10000000
01000000
00000000
01000000
00000000
01000000
00010000
00000000
00001000
00010000
00001000
00010000
00000200
00000000
00000000
00000000
,
00001300
00001000
00001000
00001000
,
00000002
00000203
00000320
00002030
00023000
00230000
02300000
23000000
,
30010000
01000000
00000000
00100000
00000000
00100000
10000000
00000000
01000000
00000000
00100000
00000000
00010000
00000000
10000000
00000000
,
01000000
00100000
00000000
00001000
00000000
00001000
00010000
00000000
00000100
00010000
00000100
00001000
00000010
00010000
00001000
00100000
,
00010000
00010000
00010000
00010000
,
20000000
30200000
02300000
03020000
00032000
00003200
00000320
00000032
,
00001003
00000010
00000000
00000100
00000000
00000100
00000001
00000000
00000010
00000000
00000100
00000000
00001000
00000000
00000001
00000000
,
00000010
00000100
00000010
00000100
00010000
00001000
00010000
00001000
00100000
00001000
00100000
00010000
01000000
00001000
00010000
00000100
,
00000010
00000000
00000001
00001000
00000000
00000001
00001000
00000000
00000010
00000000
00000100
00000001
00000000
00000100
00000001
00000000
,
00001000
00000000
00000100
00010000
00000000
00000100
00010000
00000000
00001000
00000000
01000000
00000000
00200000
00000000
10000000
00000000
,
10300000
00000000
00010000
00000000
00100000
00000000
01000000
00000000
10000000
00000000
00100000
01000000
00000000
00010000
01000000
00000000
,
00001000
00000000
00010000
00000000
00000100
00000000
00001000
00000000
00000010
00010000
00001000
00010000
00001000
00100000
00010000
01000000
,
00100000
00000000
10000000
00010000
00000000
10000000
00010000
00000000
00100000
00000000
01000000
10000000
00000000
01000000
10000000
00000000
,
00010000
00000000
01000000
00001000
00000000
01000000
00001000
00000000
00010000
00000000
00000100
00000000
00000020
00000000
00000000
00000000
,
00000031
00001000
00000000
00001000
00000100
00000000
00010000
00000000
00001000
01000000
00000000
01000000
00100000
00000000
10000000
00000000
,
00010000
10000000
00010000
10000000
01000000
00100000
01000000
00100000
,
00010000
00100000
00010000
00100000
00001000
00010000
00001000
00010000
00000010
00001000
00000010
00001000
00000001
00000010
00000001
00000010
,
00001000
00010000
00001000
00010000
00001000
00010000
00001000
00010000
00002000
00000000
00000000
00000000
00103000
00000000
00000000
00000000
,
01000000
01000000
01000000
01000000
01000000
01000000
01000000
01000000
01000000
01000000
00000000
00000000
,
10000000
10000000
10000000
10000000
10000000
10000000
10000000
10000000
10000000
10000000
00000000
00000000
,
00100000
00100000
00100000
00100000
00100000
00100000
00010000
00010000
00010000
00010000
00010000
00010000
,
00001000
00001000
00001000
00001000
00001000
00001000
00000010
00000000
00000000
00001001
00000000
00000000
,
00000010
00000010
00000010
00001000
00001000
00001000
00000010
00000010
00000010
00000001
00000000
00000000
,
00000100
00000100
00000100
00001000
00001000
00001000
00000100
00000100
00000100
00000001
00000000
00000000
,
00000010
00000010
00000010
00001000
00001000
00001000
00010000
00010000
00010000
00100000
00100000
00100000
,
10000000
10000000
10000000
01000000
01000000
01000000
00100000
00000000
00000000
10010000
00000000
00000000
,
01010000
00100000
00010000
00001000
00000000
00000000
00001100
00000010
00001000
00010000
00000000
00000000
,
01010000
00100000
00010000
00001000
00000010
00000100
00001000
00000000
00000000
00011000
00000000
00000000
,
00010000
00000010
00000000
00000010
00000100
00000000
00001000
00000000
00010000
01000000
00000000
01000000
00100000
00000000
00010000
00000000
,
10000000
00100000
00000000
00100000
01000000
00000000
00001000
00000000
00010000
00000000
00001000
00000000
00011000
00000000
00100000
00000000
,
00001000
01000000
00000000
01000000
00100000
00000000
00010000
00000000
00001000
00000010
00000000
00000010
00000100
00000000
00001000
00000000
,
00000001
00000100
00000000
00000100
00000010
00000000
00010000
00000000
00001000
00100000
00010000
00100000
00001000
00010000
00000010
00000000
,
00010000
00000100
00000000
00000100
00000010
00000000
00001000
00000000
00010000
00100000
00000000
00100000
01000000
00000000
00010000
00000000
,
10000000
01000000
00000000
01000000
00100000
00000000
00001000
00000000
00010000
00000000
00001000
00000000
00011000
00000000
01000000
00000000
,
00001000
00100000
00000000
00100000
00000000
01000000
00010000
00000000
00001000
00000100
00000000
00000100
00000000
00000010
00001000
00000000
,
00000001
00000010
00000100
00001000
00000010
00000100
00001000
00010000
00001000
00000000
00011000
00000000
00011000
00000000
00000000
00000000
;
