#TITLE:Dad Battle;
#SUBTITLE:;
#ARTIST:Kawai Sprite;
#TITLETRANSLIT:;
#SUBTITLETRANSLIT:;
#ARTISTTRANSLIT:;
#GENRE:Friday Night Funkin';
#CREDIT:;
#BANNER:Dad Battle.png;
#BACKGROUND:../bg.png;
#LYRICSPATH:;
#CDTITLE:../cdtitle.png;
#MUSIC:Dad Battle.ogg;
#OFFSET:1.165000;
#SAMPLESTART:10.835000;
#SAMPLELENGTH:15.000000;
#LASTBEATHINT:0.495000;
#SELECTABLE:YES;
#BPMS:0.000000=180.000000
;
#STOPS:
;
#BGCHANGES: -1.000=Dad Battle.avi=1.000=0=0=0=StretchNoLoop====,
99999=-nosongbg-=1.000=0=0=0 // don't automatically add -songbackground-
;
#KEYSOUNDS:;
#ATTACKS:;

//---------------dance-single - ----------------
#NOTES:
     dance-single:
     :
     Hard:
     12:
     0.533043,0.636279,0.080615,0.241844,0.011516,324.000000,317.000000,7.000000,21.000000,0.000000,0.000000,0.533043,0.636279,0.080615,0.241844,0.011516,324.000000,317.000000,7.000000,21.000000,0.000000,0.000000:
0000
0000
0000
0000
,
0000
0000
0000
0000
,
0000
0000
0000
0000
,
0000
0000
0000
0000
,
0000
0000
0000
0000
,
0000
0000
0000
0000
,
0000
0000
0000
0000
,
0000
0000
0000
0000
,
0000
0000
0000
0000
,
0010
0000
1000
0100
0010
0000
1000
0100
,
0010
0001
0100
0010
1000
0000
0001
0100
,
0010
0000
0001
0100
0010
0000
0001
0100
,
0010
1000
0100
0010
0001
0000
0100
0010
,
2000
0000
3010
0100
0002
0000
1003
0000
,
0100
0000
0100
0010
0100
0010
0100
0010
,
0002
0000
0013
0100
2000
0000
3001
0000
,
0100
0000
0100
0010
0100
0010
0100
0010
,
1000
0000
0100
0001
0200
0000
0010
0000
,
0300
0010
0100
0000
2000
0000
0010
0000
,
3000
0000
0010
0000
0100
0000
0001
0010
,
0100
1000
0100
1000
0002
0000
1003
0000
,
1010
0000
0010
0001
0020
0000
0100
0000
,
0030
0100
0010
0000
2000
0000
0100
0000
,
3000
0000
0100
0000
0010
0000
0001
0100
,
0010
1000
0010
1000
0002
0000
0103
0001
,
1000
0001
0010
0100
1000
0000
0100
0000
,
0000
0001
0010
0100
1000
0000
0010
0000
,
0001
0100
1000
0001
,
0010
0100
2000
0000
,
3000
0001
0100
0010
1000
0010
1000
0000
,
0001
0010
0001
0000
0010
0000
0100
0000
1000
0000
0100
0000
1000
0000
0000
0000
,
0001
0100
0001
0100
0010
1000
0100
0010
,
0100
0100
1000
1000
0010
0100
0010
1000
,
0001
1000
0100
0010
0001
0000
0010
0000
,
0000
1000
0100
0010
0001
0000
0100
0000
,
1000
0010
0001
1000
,
0100
0010
0002
0000
,
1003
0010
1000
0010
0100
0001
1000
0000
,
0001
0010
0001
0000
0010
0000
0100
0000
1000
0000
0100
0000
0010
0000
0000
0000
,
0001
0100
0001
0100
0010
0100
0010
0100
,
0001
0010
1000
0010
0002
0000
0013
0000
,
1100
0000
1000
0100
0010
0000
0001
0100
,
0010
0100
0010
0100
0001
0000
0010
0100
,
1000
0000
0001
0010
0100
0000
1000
0010
,
0100
0010
0100
0010
1000
0000
0100
0010
,
0002
0000
0013
0100
0010
0000
0010
0000
,
0001
0000
0001
1000
0001
0100
0001
0100
,
0020
0000
1030
0100
1000
0000
1000
0000
,
0010
0100
0010
0100
0001
1000
0100
0010
,
0001
0000
0010
1000
0020
0000
0100
0000
,
0030
0100
0010
0000
0002
0000
0100
0000
,
0003
0000
0100
0000
0010
0000
1000
0100
,
0010
0001
1000
0001
0100
0010
1000
0010
,
0110
0000
0100
1000
0200
0000
0010
0000
,
0300
0010
0100
0000
0002
0000
0010
0000
,
0003
0000
0010
0000
0100
0000
1000
0010
,
0100
0001
0100
0001
2000
0000
3010
0000
,
0110
0000
0001
0100
0001
0000
1000
0010
,
0100
0001
0100
0001
1000
0000
1000
0000
,
0110
0000
1000
0100
1000
0000
0001
0010
,
0100
1000
0100
1000
0001
0000
0001
0000
,
1010
0000
0100
0010
1000
0000
0100
0000
,
0001
0001
0001
0000
,
1100
0000
0010
0100
1000
0000
0010
0000
,
0001
0000
0001
0000
0001
0010
2000
0000
,
3000
0000
0000
0000
;

//---------------dance-single - ----------------
#NOTES:
     dance-single:
     :
     Medium:
     10:
     0.440912,0.523994,0.103647,0.161229,0.000000,268.000000,259.000000,9.000000,14.000000,0.000000,0.000000,0.440912,0.523994,0.103647,0.161229,0.000000,268.000000,259.000000,9.000000,14.000000,0.000000,0.000000:
0000
0000
0000
0000
,
0000
0000
0000
0000
,
0000
0000
0000
0000
,
0000
0000
0000
0000
,
0000
0000
0000
0000
,
0000
0000
0000
0000
,
0000
0000
0000
0000
,
0000
0000
0000
0000
,
0000
0000
0000
0000
,
0010
0000
0001
0100
0001
0000
1000
0100
,
1000
0001
0100
0010
,
1000
0000
0001
0010
0001
0000
0010
0100
,
0010
0001
0100
0010
,
0110
0000
0001
0100
0001
0000
1000
0000
,
0010
0000
0010
1000
0100
1000
0100
0000
,
0110
0000
1000
0100
1000
0000
0001
0000
,
0010
0000
0010
0001
0100
0001
0100
0000
,
0010
0000
0100
0001
2000
0000
0000
0000
,
3000
0001
0100
0000
0020
0000
0000
0000
,
0030
1000
0001
0010
,
0100
1000
0100
0000
0020
0000
0000
0000
,
0130
0000
0010
0001
2000
0000
0000
0000
,
3000
0001
0010
0000
0200
0000
0000
0000
,
0300
1000
0001
0100
,
0010
1000
0010
0000
0200
0000
0000
0000
,
0301
1000
0001
0000
1000
0000
0100
0000
,
0000
1000
0001
0000
1000
0000
0100
0000
,
0001
0100
1000
0010
,
0001
0010
2000
0000
,
3100
0000
0100
0000
0010
0100
0010
0000
,
0001
0100
0001
0000
1000
0000
0010
0000
,
0000
0100
0001
1000
,
0001
0010
0001
0010
0100
1000
0100
0000
,
1000
0001
1000
0000
0001
0000
0100
0000
,
0000
0001
1000
0000
0001
0000
0100
0000
,
1000
0100
0001
0010
,
1000
0010
0002
0000
,
0103
0010
0100
0000
0010
0100
0010
0000
,
1000
0100
0010
0000
0100
0010
0001
0000
,
1000
0100
1000
0000
0001
0100
0001
0000
,
1000
0010
1000
0010
0100
0000
0001
0000
,
1001
0000
0001
0100
0001
0000
1000
0100
,
1000
0001
0100
0010
,
1000
0000
0001
0010
0001
0000
0010
0100
,
0010
0001
0100
0010
,
0110
0000
0001
0100
0001
0000
1000
0000
,
0010
0000
0010
1000
0100
1000
0100
0000
,
0110
0000
1000
0100
1000
0000
0001
0000
,
0010
0001
0010
0001
0100
0001
0100
0000
,
0010
0000
0100
0001
2000
0000
0000
0000
,
3000
0001
0100
0000
0020
0000
0000
0000
,
0030
1000
0001
0010
,
0100
1000
0100
1000
0001
0010
0100
1000
,
0100
0000
0010
0001
2000
0000
0000
0000
,
3000
0001
0010
0000
0200
0000
0000
0000
,
0300
1000
0001
0100
,
0010
1000
0010
0000
0200
0000
0300
0000
,
0110
0000
0001
0100
0001
0000
0010
0001
,
0010
0100
1000
1000
,
0110
0000
0001
0010
0001
0000
0100
0001
,
0100
0010
1000
1000
,
1001
0000
0001
0010
0100
0000
1000
0000
,
0010
0010
0010
0000
,
1001
0000
1000
0010
0100
0000
0001
0000
,
0010
0000
0010
0000
0010
0100
0020
0000
,
0030
0000
0000
0000
;

//---------------dance-single - ----------------
#NOTES:
     dance-single:
     :
     Easy:
     7:
     0.309297,0.336854,0.000000,0.172745,0.000000,188.000000,188.000000,0.000000,15.000000,0.000000,0.000000,0.309297,0.336854,0.000000,0.172745,0.000000,188.000000,188.000000,0.000000,15.000000,0.000000,0.000000:
0000
0000
0000
0000
,
0000
0000
0000
0000
,
0000
0000
0000
0000
,
0000
0000
0000
0000
,
0000
0000
0000
0000
,
0000
0000
0000
0000
,
0000
0000
0000
0000
,
0000
0000
0000
0000
,
0000
0000
0000
0000
,
1000
0100
0001
0100
,
1000
1000
1000
0000
,
0001
0010
1000
0010
,
0001
0001
0001
0000
,
1000
0100
0010
0001
,
1000
1000
1000
0000
,
0001
0100
0010
1000
,
0010
0010
1000
0100
,
0010
0001
2000
0000
,
3000
0001
0200
0000
,
0300
0010
1000
0100
,
0001
0100
2000
0000
,
3010
1000
0002
0000
,
0003
1000
0200
0000
,
0300
0010
0001
0100
,
1000
0100
0002
0000
,
1003
0100
1000
0001
,
0000
1000
0100
1000
,
0001
0001
0100
0100
,
1000
1000
0020
0000
,
0031
0001
0010
0000
,
0001
0001
0100
0000
,
0010
1000
0100
0000
,
0010
0100
0010
0100
,
1000
0010
1000
0001
,
0000
1000
0010
1000
,
0001
0001
0010
0010
,
1000
1000
0200
0000
,
0301
0001
0100
0100
,
0001
0001
0010
0010
,
0100
1000
0010
0010
,
1000
0100
0010
0100
,
1000
0010
0001
0010
,
1000
1000
1000
0000
,
0001
0100
1000
0100
,
0001
0001
0001
0000
,
1000
0010
0100
0001
,
1000
1000
1000
0000
,
0001
0010
0100
1000
,
0100
0100
1000
0010
,
0100
0001
2000
0000
,
3000
0001
0020
0000
,
0030
0100
1000
0010
,
0001
0010
2000
0000
,
3100
1000
0002
0000
,
0003
1000
0020
0000
,
0030
0100
0001
0010
,
1000
0010
0002
0000
,
1003
0100
0001
0100
,
1000
1000
1000
0000
,
0001
0010
1000
0010
,
0001
0001
0001
0000
,
1000
0100
0010
0001
,
1000
1000
1000
0000
,
0001
0100
0010
1000
,
0100
0100
0100
0020
,
0030
0000
0000
0000
;

//---------------dance-single - ----------------
#NOTES:
     dance-single:
     :
     Beginner:
     3:
     0.136551,0.261997,0.000000,0.011516,0.000000,83.000000,83.000000,0.000000,1.000000,0.000000,0.000000,0.136551,0.261997,0.000000,0.011516,0.000000,83.000000,83.000000,0.000000,1.000000,0.000000,0.000000:
0000
0000
0000
0000
,
0000
0000
0000
0000
,
0000
0000
0000
0000
,
0000
0000
0000
0000
,
0000
0000
0000
0000
,
0000
0000
0000
0000
,
0000
0000
0000
0000
,
0000
0000
0000
0000
,
0000
0000
0000
0000
,
0010
0000
0000
0000
,
0010
0000
0000
0000
,
0100
0000
0000
0000
,
0100
0000
0000
0000
,
0010
0000
0001
0000
,
0010
0000
0000
0000
,
0100
0000
1000
0000
,
0100
0000
0000
0000
,
1000
0000
0000
0000
,
0000
1000
1000
0000
,
0001
0000
0000
0000
,
0001
0000
0001
0000
,
0100
0000
0000
0000
,
0000
0100
0100
0000
,
0010
0000
0000
0000
,
0010
0000
0010
0000
,
0100
0000
0000
0000
,
0100
0000
0000
0000
,
0001
0000
0000
0000
,
0001
0000
0000
0000
,
0010
0000
0000
0000
,
0010
0000
0000
0000
,
1000
0000
0000
0000
,
0001
0000
0001
0000
,
0100
0000
0000
0000
,
0100
0000
0000
0000
,
1000
0000
0000
0000
,
1000
0000
0000
0000
,
0010
0010
0010
0000
,
0010
0010
0010
0000
,
0001
0001
0001
0000
,
1000
1000
1000
0000
,
0100
0000
0100
0000
,
0100
0000
0000
0000
,
0010
0000
0010
0000
,
0010
0000
0000
0000
,
0001
0000
1000
0000
,
0001
0000
0000
0000
,
1000
0000
0001
0000
,
1000
0000
0000
0000
,
0100
0000
0000
0000
,
0000
0100
0100
0000
,
0010
0000
0000
0000
,
0010
0000
0010
0000
,
0001
0000
0000
0000
,
0000
0001
0001
0000
,
1000
0000
0000
0000
,
1000
0000
1000
0000
,
0010
0000
0000
0000
,
0010
0000
0000
0000
,
0100
0000
0000
0000
,
0100
0000
0000
0000
,
0010
0000
0001
0000
,
0010
0000
0010
0000
,
0100
0000
1000
0000
,
0100
0000
0200
0000
,
0300
0000
0000
0000
;

//---------------dance-single - FNF Hard----------------
#NOTES:
     dance-single:
     :
     Edit:
     12:
     0.491913,0.594244,0.034549,0.011516,0.011516,299.000000,296.000000,3.000000,1.000000,0.000000,0.000000,0.491913,0.594244,0.034549,0.011516,0.011516,299.000000,296.000000,3.000000,1.000000,0.000000,0.000000:
// measure 0
0000
0000
0000
0000
,  // measure 1
0000
0000
0000
0000
,  // measure 2
0000
0000
0000
0000
,  // measure 3
0000
0000
0000
0000
,  // measure 4
0000
0000
0000
0000
,  // measure 5
0000
0000
0000
0000
,  // measure 6
0000
0000
0000
0000
,  // measure 7
0000
0000
0000
0000
,  // measure 8
0000
0000
0000
0000
,  // measure 9
0010
0000
1000
0100
0010
0000
1000
0001
,  // measure 10
0010
0001
1000
0100
0010
0000
1000
0001
,  // measure 11
0010
0000
1000
0100
0010
0000
1000
0001
,  // measure 12
0010
0001
1000
0100
0010
0000
1000
0001
,  // measure 13
0100
0000
1000
0001
0100
0000
0010
0000
,  // measure 14
0100
0000
1000
1000
0001
0001
0001
0001
,  // measure 15
0100
0000
1000
0001
0100
0000
0010
0000
,  // measure 16
0100
0000
1000
1000
0001
0001
0001
0001
,  // measure 17
0000
0000
0010
0100
0001
0000
0000
0000
,  // measure 18
0000
0100
0001
0000
1000
0000
0000
0000
,  // measure 19
0000
0000
0010
0000
0100
0000
1000
0100
,  // measure 20
0010
0001
1000
0001
0010
0000
0000
0000
,  // measure 21
0000
0000
0010
0100
0001
0000
0000
0000
,  // measure 22
0000
0100
0001
0000
1000
0000
0000
0000
,  // measure 23
0000
0000
0010
0000
0100
0000
1000
0100
,  // measure 24
0010
0001
1000
0001
0010
0100
1000
0100
,  // measure 25
0000
1000
0001
0010
0100
0000
1000
0000
,  // measure 26
0000
0010
0001
0100
0010
0000
1000
0000
,  // measure 27
1000
0100
0001
0100
,  // measure 28
0010
0001
1100
0000
,  // measure 29
0000
0100
0001
0010
1000
0010
0100
0000
,  // measure 30
1000
0001
1000
0000
0100
0000
1000
0000
0010
0000
0001
0000
0100
0000
0000
0000
,  // measure 31
0000
1000
0001
0100
0010
0001
0100
0001
,  // measure 32
1000
0100
0010
0001
0010
0100
1000
0100
,  // measure 33
0000
1000
0001
0010
0100
0000
1000
0000
,  // measure 34
0000
0010
0001
0100
0010
0000
1000
0000
,  // measure 35
1000
0100
0001
0100
,  // measure 36
0010
0001
1100
0000
,  // measure 37
0000
0100
0001
0010
1000
0010
0100
0000
,  // measure 38
1000
0001
1000
0000
0100
0000
1000
0000
0010
0000
0001
0000
0100
0000
0000
0000
,  // measure 39
0000
1000
0001
0100
0010
0001
0100
0001
,  // measure 40
1000
1000
0010
0010
0001
0000
0101
0000
,  // measure 41
0010
0000
1000
0100
0010
0000
1000
0001
,  // measure 42
0010
0001
1000
0100
0010
0000
1000
0001
,  // measure 43
0010
0000
1000
0100
0010
0000
1000
0001
,  // measure 44
0010
0001
1000
0100
0010
0000
1000
0001
,  // measure 45
0100
0000
1000
0001
0100
0000
0010
0000
,  // measure 46
0100
0000
1000
1000
0001
0001
0001
0001
,  // measure 47
0100
0000
1000
0001
0100
0000
0010
0000
,  // measure 48
0100
0000
1000
1000
0001
0001
0001
0001
,  // measure 49
0000
0000
0010
0100
0001
0000
0000
0000
,  // measure 50
0000
0100
0001
0000
1000
0000
0000
0000
,  // measure 51
0000
0000
0010
0000
0100
0000
1000
0100
,  // measure 52
0010
0001
1000
0001
0010
0100
1000
0200
,  // measure 53
0000
0300
0010
0100
0001
0000
0000
0000
,  // measure 54
0000
0100
0001
0000
1000
0000
0000
0000
,  // measure 55
0000
0000
0010
0000
0100
0000
1000
0100
,  // measure 56
0010
0001
1000
0001
0010
0000
0000
0000
,  // measure 57
0010
0000
1000
0100
0010
0000
1000
0001
,  // measure 58
0010
0001
1000
0100
0010
0000
0010
0000
,  // measure 59
0010
0000
1000
0100
0010
0000
1000
0001
,  // measure 60
0010
0001
1000
0100
0010
0000
0010
0000
,  // measure 61
0100
0000
1000
0001
0100
0000
0010
0000
,  // measure 62
0100
0100
0100
0000
,  // measure 63
0100
0000
1000
0001
0100
0000
0010
0000
,  // measure 64
0100
0100
0100
0000
;
