#TITLE:Dad Battle;
#SUBTITLE:[B-Side Remix];
#ARTIST:Rozebud;
#TITLETRANSLIT:;
#SUBTITLETRANSLIT:;
#ARTISTTRANSLIT:;
#GENRE:Friday Night Funkin';
#CREDIT:;
#BANNER:Dad Battle [B-Side Remix].png;
#BACKGROUND:../bg.png;
#LYRICSPATH:;
#CDTITLE:../cdtitle.png;
#MUSIC:Dad Battle [B-Side Remix].ogg;
#OFFSET:1.254000;
#SAMPLESTART:10.296000;
#SAMPLELENGTH:15.000000;
#LASTBEATHINT:0.791633;
#SELECTABLE:YES;
#BPMS:0.000000=187.000000
;
#STOPS:
;
#BGCHANGES:-99.000=Dad Battle [B-Side Remix].avi=1.000=0=0=1====#000000=,
-1.000=Dad Battle [B-Side Remix].avi=1.000=0=0=0=StretchNoLoop====,
99999=-nosongbg-=1.000=0=0=0 // don't automatically add -songbackground-
;
#KEYSOUNDS:;
#ATTACKS:;

//---------------dance-single - FNF Hard----------------
#NOTES:
     dance-single:
     :
     Edit:
     13:
     0.563213,0.647147,0.000000,0.424939,0.106235,334.000000,334.000000,0.000000,36.000000,0.000000,0.000000,0.563213,0.647147,0.000000,0.424939,0.106235,334.000000,334.000000,0.000000,36.000000,0.000000,0.000000:
0000
0000
0000
0000
,
0000
0000
0000
0000
,
0000
0000
0000
0000
,
0000
0000
0000
0000
,
0000
0000
0000
0000
,
0000
0000
0000
0000
,
0000
0000
0000
0000
,
0000
0000
0000
0000
,
0000
0000
0000
0000
,
0001
0000
1000
0010
0001
0000
1000
0010
,
1000
0001
0100
0000
0001
0000
1000
0000
0100
0000
0000
0000
1000
0000
1000
0000
,
1000
0000
0001
0100
1000
0000
0001
0100
,
0001
1000
0010
0000
1000
0000
0001
0000
0010
0000
0000
0000
0001
0000
0001
0000
,
0001
0000
0100
1000
0010
0000
0100
0000
,
1000
0000
0000
0000
1000
0000
1000
0000
1000
0001
1000
0000
0100
0000
0100
1000
,
1000
0000
0010
0001
0100
0000
0010
0000
,
0001
0000
0000
0000
0001
0000
0001
0000
0001
1000
0001
0000
0010
0000
0010
0001
,
0000
0100
0010
0001
2000
0000
0000
0000
,
3000
0010
0001
0000
0200
0000
2300
3000
,
0000
0000
0001
0000
0100
1000
0100
0010
,
0100
0001
0100
1000
0002
0000
0000
0000
,
0003
0000
0000
0000
0010
0000
0000
0000
0100
0000
0000
0000
1000
0000
0000
0000
0002
0000
0000
0000
0000
0000
0000
0000
0000
0000
0000
0000
0000
0000
0000
0003
,
0000
0100
1000
0000
0020
0000
0032
0003
,
0000
0000
1000
0100
0001
0000
0001
0100
,
0010
0000
0000
0000
1000
0000
0000
0000
0010
0000
0000
0000
0001
0000
0000
0000
2000
0000
0000
0000
0000
0000
0000
0000
0000
0000
0000
0000
0000
0000
0000
3000
,
1000
0000
0000
0000
0001
0000
0000
0000
0010
0000
0000
0000
1000
0000
0000
0000
0100
0000
0000
0000
1000
0000
0000
0000
2000
0000
0000
0000
0000
0000
0000
3000
,
0100
0000
0001
0000
0100
0000
0000
0000
0010
0000
0000
0000
1000
0000
0000
0000
0001
0000
0000
0000
0000
0000
0000
0000
0020
0000
0000
0000
0000
0000
0000
0030
,
0002
0000
0000
0000
0000
0000
0000
0000
0000
0000
0000
0000
0000
0000
0000
0000
0000
0000
0000
0000
0000
0000
0000
0000
0000
0000
0000
0000
0000
0000
0000
0000
0000
0000
0000
0000
0000
0000
0000
0000
0000
0000
0003
0000
0000
0000
0000
0000
0020
0000
0000
0000
0000
0000
0000
0000
0000
0000
0000
0000
0000
0000
0000
0000
0000
0000
0000
0000
0000
0000
0000
0000
0000
0000
0000
0000
0000
0000
0000
0000
0000
0000
0000
0000
0000
0000
0000
0000
0000
0000
0030
0000
0000
0000
0000
0000
0200
0000
0000
0000
0000
0000
0000
0000
0000
0000
0000
0000
0000
0000
0000
0000
0000
0000
0000
0000
0000
0000
0000
0000
0000
0000
0000
0000
0000
0000
0000
0000
0000
0000
0000
0000
0000
0000
0000
0000
0000
0000
0300
0000
0000
0000
0000
0000
2000
0000
0000
0000
0000
0000
0000
0000
0000
0000
0000
0000
0000
0000
0000
0000
0000
0000
0000
0000
0000
0000
0000
0000
0000
0000
0000
0000
0000
0000
0000
0000
3000
0000
0000
0000
0000
0000
0000
0000
0000
0000
0000
0000
0000
0000
0000
0000
,
0010
0000
0000
0001
0000
0000
0200
0000
0000
0000
0300
0000
2000
0000
0000
0000
0000
0000
0000
0000
0000
0000
0000
0000
,
3000
0000
0000
0000
0001
0000
0000
0000
0100
0000
0000
0000
1000
0000
0000
0000
0010
0000
0000
0000
0001
0000
0000
0000
0200
0300
0000
0000
1000
0000
0000
0000
,
0100
0001
0100
0000
0010
0000
1000
0000
0010
0000
0001
0000
0100
0000
1000
0000
,
0000
0001
0100
1000
0010
0001
0100
1000
,
0100
0001
0010
0100
1000
0100
0010
0001
,
0001
0000
0000
0000
1000
0000
0000
0000
0100
0000
0000
0000
0001
0000
0000
0000
0010
0000
0000
0000
0001
0000
0000
0000
0002
0000
0000
0000
0000
0000
0000
0003
,
0010
0000
1000
0000
0010
0000
0000
0000
0100
0000
0000
0000
0001
0000
0000
0000
1000
0000
0000
0000
0000
0000
0000
0000
0200
0000
0000
0000
0000
0000
0000
0300
,
2000
0000
0000
0000
0000
0000
0000
0000
0000
0000
0000
0000
0000
0000
0000
0000
0000
0000
0000
0000
0000
0000
0000
0000
0000
0000
0000
0000
0000
0000
0000
0000
0000
0000
0000
0000
0000
0000
0000
0000
0000
0000
3000
0000
0000
0000
0000
0000
0200
0000
0000
0000
0000
0000
0000
0000
0000
0000
0000
0000
0000
0000
0000
0000
0000
0000
0000
0000
0000
0000
0000
0000
0000
0000
0000
0000
0000
0000
0000
0000
0000
0000
0000
0000
0000
0000
0000
0000
0000
0000
0300
0000
0000
0000
0000
0000
0020
0000
0000
0000
0000
0000
0000
0000
0000
0000
0000
0000
0000
0000
0000
0000
0000
0000
0000
0000
0000
0000
0000
0000
0000
0000
0000
0000
0000
0000
0000
0000
0000
0000
0000
0000
0000
0000
0000
0000
0000
0000
0030
0000
0000
0000
0000
0000
0002
0000
0000
0000
0000
0000
0000
0000
0000
0000
0000
0000
0000
0000
0000
0000
0000
0000
0000
0000
0000
0000
0000
0000
0000
0000
0000
0000
0000
0000
0000
0000
0003
0000
0000
0000
0000
0000
0000
0000
0000
0000
0000
0000
0000
0000
0000
0000
,
0100
0000
0000
1000
0000
0000
0020
0000
0000
0000
0030
0000
0002
0000
0000
0000
0000
0000
0000
0000
0000
0000
0000
0000
,
0003
0000
0000
0000
1000
0000
0000
0000
0010
0000
0000
0000
0001
0000
0000
0000
0100
0000
0000
0000
1000
0000
0000
0000
0020
0030
0000
0000
0001
0000
0000
0000
,
0010
1000
0010
0000
0100
0000
0001
0000
0100
0000
1000
0000
0010
0000
0001
0000
,
0000
1000
0010
0001
0100
1000
0010
0001
,
0010
0000
0000
0000
1000
0000
0000
0000
0010
0000
0000
0000
0001
0000
0000
0000
0002
0000
0000
0000
0000
0000
0000
0003
0200
0000
0000
0000
0000
0000
0000
0300
,
0001
0000
1000
0010
0001
0000
1000
0010
,
1000
0001
0100
0000
0001
0000
1000
0000
0100
0000
0000
0000
1000
0000
1000
0000
,
1000
0000
0001
0100
1000
0000
0001
0100
,
0001
1000
0010
0000
1000
0000
0001
0000
0010
0000
0000
0000
0001
0000
0001
0000
,
0001
0000
0100
1000
0010
0000
0100
0000
,
1000
0000
0000
0000
1000
0000
1000
0000
1000
0001
1000
0000
0100
0000
0100
1000
,
1000
0000
0010
0001
0100
0000
0010
0000
,
0001
0000
0000
0000
0001
0000
0001
0000
0001
1000
0001
0000
0010
0000
0010
0001
,
0000
0100
0010
0001
2000
0000
0000
0000
,
3000
0010
0001
0000
0200
0000
2300
3000
,
0000
0000
0001
0000
0100
1000
0100
0010
,
0100
0001
0100
1000
0002
0000
0000
0000
,
0003
0000
0000
0000
0010
0000
0000
0000
0100
0000
0000
0000
1000
0000
0000
0000
0002
0000
0000
0000
0000
0000
0000
0000
0000
0000
0000
0000
0000
0000
0000
0003
,
0000
0100
1000
0000
0020
0000
0032
0003
,
0000
0000
1000
0100
0001
0000
0001
0100
,
0010
0000
0000
0000
1000
0000
0000
0000
0010
0000
0000
0000
0001
0000
0000
0000
2000
0000
0000
0000
0000
0000
0000
0000
0000
0000
0000
0000
0000
0000
0000
3000
,
0001
0000
1000
0010
0001
0000
1000
0010
,
1000
0001
0100
0000
0001
0000
1000
0000
0100
0000
1000
0000
0100
0000
0000
0000
,
1000
0000
0001
0100
1000
0000
0001
0100
,
0001
1000
0010
0000
1000
0000
0001
0000
0010
0000
0001
0000
0010
0000
0000
0000
,
0001
0000
0100
1000
0010
0000
0100
0000
,
0010
0000
0010
0100
0010
0000
0000
0000
,
1000
0000
0010
0001
0100
0000
0010
0000
,
0100
0000
0100
0010
0100
0000
0000
0000
;

//---------------dance-single - ----------------
#NOTES:
     dance-single:
     :
     Hard:
     13:
     0.580076,0.650909,0.047215,0.165254,0.088529,344.000000,340.000000,4.000000,14.000000,0.000000,0.000000,0.580076,0.650909,0.047215,0.165254,0.088529,344.000000,340.000000,4.000000,14.000000,0.000000,0.000000:
// measure 0
0000
0000
0000
0000
,  // measure 1
0000
0000
0000
0000
,  // measure 2
0000
0000
0000
0000
,  // measure 3
0000
0000
0000
0000
,  // measure 4
0000
0000
0000
0000
,  // measure 5
0000
0000
0000
0000
,  // measure 6
0000
0000
0000
0000
,  // measure 7
0000
0000
0000
0000
,  // measure 8
0000
0000
0000
0000
,  // measure 9
0010
0000
1000
0100
0010
0000
1000
0100
,  // measure 10
0010
0001
0010
0000
0100
0000
1000
0000
0001
0000
0000
0000
0001
0000
0100
0000
,  // measure 11
0010
0000
0001
0100
0010
0000
0001
0100
,  // measure 12
0010
1000
0010
0000
0100
0000
0001
0000
1000
0000
0000
0000
1000
0000
0100
0000
,  // measure 13
0010
0000
0100
0010
0001
0000
0001
0000
,  // measure 14
0100
0000
0000
0000
0100
0000
0001
0000
0100
0010
0100
0000
0001
0000
0010
0100
,  // measure 15
0010
0000
0100
0010
0001
0000
0001
0000
,  // measure 16
0110
0000
0000
0000
0010
0000
0001
0000
1000
0100
1000
0000
0100
0000
1000
0001
,  // measure 17
0000
0010
0100
1000
0002
0000
0100
0000
,  // measure 18
0003
0100
0010
0000
2000
0000
0100
0000
,  // measure 19
3000
0000
1000
0000
0001
1000
0100
0010
,  // measure 20
0001
0100
1000
0100
0020
0000
0000
0030
,  // measure 21
0100
0010
0100
0001
2000
0000
0100
0000
,  // measure 22
3000
0100
0010
0000
0002
0000
0100
0000
,  // measure 23
0003
0000
0001
1000
0100
0000
1000
0001
,  // measure 24
1000
0100
0001
0100
0020
0000
0000
0030
,  // measure 25
0001
1000
0100
0010
0100
1000
0001
0000
,  // measure 26
1000
0100
1000
0000
0001
0000
0100
0000
0001
0000
0000
0000
1000
0000
0000
0000
,  // measure 27
0010
0001
1000
0100
,  // measure 28
0001
0010
0001
0000
0120
0000
0000
0000
,  // measure 29
0130
1000
0100
1000
0100
0001
0100
0000
,  // measure 30
1000
0001
0100
0010
0100
0010
1000
0000
,  // measure 31
0001
0100
0001
0100
0010
1000
0100
0010
,  // measure 32
0100
1000
0100
1000
0010
0100
0001
1000
,  // measure 33
0000
0001
0100
0010
0100
0001
1000
0000
,  // measure 34
0001
0100
0001
0000
1000
0000
0100
0000
1000
0000
0000
0000
0001
0000
0000
0000
,  // measure 35
0010
1000
0001
0100
,  // measure 36
1000
0010
1000
0000
0120
0000
0000
0000
,  // measure 37
1030
0001
1000
0001
0100
0010
1000
0001
,  // measure 38
0010
0100
0010
0000
0100
0000
0010
0000
0100
0000
1000
0000
0001
0000
1000
0000
,  // measure 39
0000
1000
0100
1000
0100
0010
0001
0100
,  // measure 40
0010
0100
0010
0100
0001
0000
1000
0000
,  // measure 41
0010
0000
0001
0100
0010
0000
0001
0100
,  // measure 42
0010
1000
0010
0000
0100
0000
0001
0000
1000
0000
0000
0000
1000
0000
0100
0000
,  // measure 43
0010
0000
1000
0100
0010
0000
1000
0100
,  // measure 44
0010
0001
0010
0000
0100
0000
1000
0000
0001
0000
0000
0000
0001
0000
0100
0000
,  // measure 45
0010
0000
0100
0010
1000
0000
1000
0000
,  // measure 46
0100
0000
0000
0000
0100
0000
1000
0000
0100
0010
0100
0000
1000
0000
0010
0100
,  // measure 47
0010
0000
0100
0010
1000
0000
1000
0000
,  // measure 48
0110
0000
0000
0000
0010
0000
1000
0000
0001
0100
0001
0000
0100
0000
0001
1000
,  // measure 49
0000
0010
0100
0001
2000
0000
0100
0000
,  // measure 50
3000
0100
0010
0000
0002
0000
0100
0000
,  // measure 51
0003
0000
0001
0000
1000
0001
0100
0010
,  // measure 52
1000
0100
0001
0100
0020
0000
0000
0030
,  // measure 53
0100
0010
0100
1000
0002
0000
0100
0000
,  // measure 54
0003
0100
0010
0000
2000
0000
0100
0000
,  // measure 55
3000
0000
1000
0001
0100
0000
0001
1000
,  // measure 56
0001
0100
1000
0100
0020
0000
0000
0030
,  // measure 57
0010
0000
0001
0100
0010
0000
0001
0100
,  // measure 58
0010
1000
0010
1000
0001
0010
0100
0000
,  // measure 59
0010
0000
1000
0100
0010
0000
1000
0100
,  // measure 60
0010
0001
0010
0001
1000
0010
0100
0000
,  // measure 61
0001
0000
1000
0010
1000
0000
0100
0000
,  // measure 62
0010
0000
0010
0100
0010
0000
0000
0000
,  // measure 63
0001
0000
1000
0100
1000
0000
0010
0000
,  // measure 64
0100
0000
0100
0001
0010
0100
1000
0001
;

//---------------dance-single - ----------------
#NOTES:
     dance-single:
     :
     Medium:
     10:
     0.441802,0.497754,0.035412,0.212470,0.000000,262.000000,259.000000,3.000000,18.000000,0.000000,0.000000,0.441802,0.497754,0.035412,0.212470,0.000000,262.000000,259.000000,3.000000,18.000000,0.000000,0.000000:
// measure 0
0000
0000
0000
0000
,  // measure 1
0000
0000
0000
0000
,  // measure 2
0000
0000
0000
0000
,  // measure 3
0000
0000
0000
0000
,  // measure 4
0000
0000
0000
0000
,  // measure 5
0000
0000
0000
0000
,  // measure 6
0000
0000
0000
0000
,  // measure 7
0000
0000
0000
0000
,  // measure 8
0000
0000
0000
0000
,  // measure 9
0010
0000
0001
0100
0001
0000
1000
0100
,  // measure 10
1000
0001
0100
0100
,  // measure 11
0010
0000
1000
0100
1000
0000
0001
0100
,  // measure 12
0001
1000
0100
0100
,  // measure 13
0010
0000
0100
0010
0100
0000
1000
0000
,  // measure 14
0001
0000
0001
0100
0001
0000
1000
0000
,  // measure 15
0100
0000
0010
0100
0010
0000
0001
0000
,  // measure 16
1000
0000
1000
0010
1000
0000
0001
0000
,  // measure 17
0000
0100
0001
0000
2000
0000
0000
0000
,  // measure 18
3000
0100
0010
0000
0200
0000
2300
0000
,  // measure 19
3000
0000
0001
0000
0100
0010
0100
0000
,  // measure 20
0010
1000
0100
0000
0020
0000
0000
0000
,  // measure 21
0030
0100
1000
0000
0002
0000
0000
0000
,  // measure 22
0003
0100
0010
0000
0200
0000
0302
0000
,  // measure 23
0003
0000
1000
0100
0010
0000
0100
0010
,  // measure 24
0001
0100
0001
0000
0002
0000
0003
0000
,  // measure 25
1000
0100
1000
0000
0100
0000
0100
0000
,  // measure 26
0001
0100
0001
0000
0001
0000
0100
0000
,  // measure 27
1000
1000
0010
0010
,  // measure 28
0001
0010
0001
0000
0120
0000
0000
0000
,  // measure 29
1030
0000
1000
0000
0100
0010
0001
0000
,  // measure 30
0010
0100
0010
0000
0001
0000
1000
0000
,  // measure 31
0000
0100
0010
0000
0100
0000
0100
0000
,  // measure 32
1000
0100
1000
0000
0010
0100
0010
0100
,  // measure 33
0001
0010
0001
0000
0010
0000
0010
0000
,  // measure 34
1000
0010
1000
0000
1000
0000
0010
0000
,  // measure 35
0001
0001
0100
0100
,  // measure 36
1000
0100
1000
0000
0210
0000
0000
0000
,  // measure 37
0301
0000
0001
0000
0010
0100
1000
0000
,  // measure 38
0100
0010
0100
0000
1000
0000
0001
0000
,  // measure 39
0000
0010
0100
0000
0010
0000
0010
0000
,  // measure 40
0001
0010
0001
0000
0100
0000
0010
0000
,  // measure 41
0110
0000
1000
0100
1000
0000
0001
0100
,  // measure 42
0001
1000
0100
0100
,  // measure 43
0010
0000
0001
0100
0001
0000
1000
0100
,  // measure 44
1000
0001
0100
0100
,  // measure 45
0010
0000
0100
0010
0100
0000
0001
0000
,  // measure 46
1000
0000
1000
0100
1000
0000
0001
0000
,  // measure 47
0100
0000
0010
0100
0010
0000
1000
0000
,  // measure 48
0001
0000
0001
0010
0001
0000
1000
0000
,  // measure 49
0000
0100
1000
0000
0002
0000
0000
0000
,  // measure 50
0003
0100
0010
0000
0200
0000
0302
0000
,  // measure 51
0003
0000
1000
0000
0100
0010
0100
0000
,  // measure 52
0010
0001
0100
0000
0020
0000
0000
0000
,  // measure 53
0030
0100
0001
0000
2000
0000
0000
0000
,  // measure 54
3000
0100
0010
0000
0200
0000
2300
0000
,  // measure 55
3000
0000
0001
0100
0010
0000
0100
0010
,  // measure 56
1000
0100
1000
0000
0020
0000
0030
0000
,  // measure 57
0100
0000
0001
0010
0001
0000
0010
0100
,  // measure 58
0010
0001
1000
1000
,  // measure 59
0100
0000
1000
0010
1000
0000
0010
0100
,  // measure 60
0010
1000
0001
0001
,  // measure 61
0010
0000
0100
0010
0100
0000
1000
0000
,  // measure 62
0001
0000
0001
0100
0001
0000
0000
0000
,  // measure 63
0100
0000
0010
0100
0010
0000
1000
0000
,  // measure 64
0001
0000
0001
0010
0100
0010
0100
1000
;

//---------------dance-single - ----------------
#NOTES:
     dance-single:
     :
     Easy:
     7:
     0.298469,0.382150,0.011804,0.165254,0.000000,177.000000,176.000000,1.000000,14.000000,0.000000,0.000000,0.298469,0.382150,0.011804,0.165254,0.000000,177.000000,176.000000,1.000000,14.000000,0.000000,0.000000:
// measure 0
0000
0000
0000
0000
,  // measure 1
0000
0000
0000
0000
,  // measure 2
0000
0000
0000
0000
,  // measure 3
0000
0000
0000
0000
,  // measure 4
0000
0000
0000
0000
,  // measure 5
0000
0000
0000
0000
,  // measure 6
0000
0000
0000
0000
,  // measure 7
0000
0000
0000
0000
,  // measure 8
0000
0000
0000
0000
,  // measure 9
1000
0000
0010
0000
,  // measure 10
1000
1000
1000
0100
,  // measure 11
0001
0000
0010
0000
,  // measure 12
0001
0001
0001
0100
,  // measure 13
1000
0000
0001
0000
,  // measure 14
0010
0010
1000
0010
,  // measure 15
0001
0000
1000
0000
,  // measure 16
0010
0010
0001
0010
,  // measure 17
0000
1000
0002
0000
,  // measure 18
0003
0010
0020
0130
,  // measure 19
0000
0100
1000
1000
,  // measure 20
0010
0100
0020
0000
,  // measure 21
0130
0001
2000
0000
,  // measure 22
3000
0100
0200
0310
,  // measure 23
0000
0010
0001
0001
,  // measure 24
0100
0010
0200
0000
,  // measure 25
0310
0001
0001
0000
,  // measure 26
0010
1000
1000
0000
,  // measure 27
0100
0010
0100
0010
,  // measure 28
0100
0100
0200
0000
,  // measure 29
1300
1000
0001
0000
,  // measure 30
0100
0100
0001
0000
,  // measure 31
0000
0010
0100
0010
,  // measure 32
0001
0001
1000
0010
,  // measure 33
0100
1000
1000
0000
,  // measure 34
0100
0001
0001
0000
,  // measure 35
0010
0100
0010
0100
,  // measure 36
0010
0010
0020
0000
,  // measure 37
0031
0001
1000
1000
,  // measure 38
0010
0010
1000
0100
,  // measure 39
0010
0100
0010
0100
,  // measure 40
1000
1000
0001
0101
,  // measure 41
1000
0000
0100
0000
,  // measure 42
1000
1000
1000
0010
,  // measure 43
0001
0000
0100
0000
,  // measure 44
0001
0001
0001
0010
,  // measure 45
1000
0000
0001
0000
,  // measure 46
0100
0100
1000
0100
,  // measure 47
0001
0000
1000
0000
,  // measure 48
0100
0100
0001
0100
,  // measure 49
0000
1000
0002
0000
,  // measure 50
0003
0100
0200
0310
,  // measure 51
0000
0010
1000
1000
,  // measure 52
0100
0010
0200
0000
,  // measure 53
0310
0001
2000
0000
,  // measure 54
3000
0010
0020
0130
,  // measure 55
0000
0100
0001
0001
,  // measure 56
0010
0100
0020
0000
,  // measure 57
0031
0000
0100
0000
,  // measure 58
0001
0001
0001
0010
,  // measure 59
1000
0000
0100
0000
,  // measure 60
1000
1000
1000
0010
,  // measure 61
0001
0100
0010
1000
,  // measure 62
0100
0100
0100
0000
,  // measure 63
1000
0010
0100
0001
,  // measure 64
0010
0010
0100
0010
;

//---------------dance-single - ----------------
#NOTES:
     dance-single:
     :
     Beginner:
     3:
     0.153450,0.228405,0.000000,0.059019,0.000000,91.000000,91.000000,0.000000,5.000000,0.000000,0.000000,0.153450,0.228405,0.000000,0.059019,0.000000,91.000000,91.000000,0.000000,5.000000,0.000000,0.000000:
0000
0000
0000
0000
,
0000
0000
0000
0000
,
0000
0000
0000
0000
,
0000
0000
0000
0000
,
0000
0000
0000
0000
,
0000
0000
0000
0000
,
0000
0000
0000
0000
,
0000
0000
0000
0000
,
0000
0000
0000
0000
,
0100
0000
0100
0000
,
0100
0000
0000
0000
,
0010
0000
0010
0000
,
0010
0000
0000
0000
,
0001
0000
0000
0000
,
0001
0000
0000
0000
,
1000
0000
0000
0000
,
1000
0000
1000
0000
,
0000
0001
0001
0000
,
0000
0100
0100
0000
,
0000
0000
0001
0000
,
0010
0000
0020
0000
,
0030
1000
1000
0000
,
0000
0100
0100
0000
,
0000
0000
1000
0000
,
0010
0000
0020
0000
,
0030
0000
0010
0000
,
0000
0000
0010
0000
,
0100
0000
0100
0000
,
0001
0000
0002
0000
,
0003
0000
0001
0000
,
0000
0000
0001
0000
,
0000
0000
1000
0000
,
0100
0000
0010
0000
,
0000
0000
0100
0000
,
0000
0000
0100
0000
,
0010
0000
0010
0000
,
0001
0000
0002
0000
,
0003
0000
0001
0000
,
1000
0000
0001
0000
,
0000
1000
1000
0000
,
0010
0010
0010
0000
,
0100
0000
0100
0000
,
0100
0000
0000
0000
,
0010
0000
0010
0000
,
0010
0000
0000
0000
,
1000
0000
0000
0000
,
1000
0000
0000
0000
,
0001
0000
0000
0000
,
0001
0000
0001
0000
,
0000
1000
1000
0000
,
0000
0100
0100
0000
,
0000
0000
1000
0000
,
0010
0000
0020
0000
,
0030
0001
0001
0000
,
0000
0100
0100
0000
,
0000
0000
0001
0000
,
0010
0000
0010
0000
,
1000
0000
1000
0000
,
1000
0000
0000
0000
,
0001
0000
0001
0000
,
0001
0000
0000
0000
,
0001
0000
1000
0000
,
0010
0010
0010
0000
,
1000
0000
0001
0000
,
0100
0100
0100
0000
;
