#TITLE:DRUM GO DUM;
#SUBTITLE:ft. Aluna, Wolftyla, Bekuh BOOM;
#ARTIST:K/DA;
#TITLETRANSLIT:;
#SUBTITLETRANSLIT:;
#ARTISTTRANSLIT:;
#GENRE:K/DA;
#CREDIT:;
#BANNER:DRUM GO DUM.png;
#BACKGROUND:DRUM GO DUM-bg.png;
#LYRICSPATH:;
#CDTITLE:../cdtitle.png;
#MUSIC:DRUM GO DUM.ogg;
#OFFSET:2.400000;
#SAMPLESTART:32.910999;
#SAMPLELENGTH:15.000000;
#LASTBEATHINT:2.041667;
#SELECTABLE:YES;
#BPMS:0.000000=87.500000
,17.750000=175.000000
;
#STOPS:17.750000=0.771000
;
#BGCHANGES:-99.000=DRUM GO DUM.avi=1.000=0=0=1====#000000=,
3.750=DRUM GO DUM.avi=1.000=0=0=0=StretchNoLoop====,
99999=-nosongbg-=1.000=0=0=0 // don't automatically add -songbackground-
;
#KEYSOUNDS:;
#ATTACKS:;

//---------------dance-single - ----------------
#NOTES:
     dance-single:
     :
     Hard:
     15:
     0.660829,0.927947,0.483016,0.390128,0.250797,498.000000,446.000000,52.000000,42.000000,0.000000,0.000000,0.660829,0.927947,0.483016,0.390128,0.250797,498.000000,446.000000,52.000000,42.000000,0.000000,0.000000:
// measure 0
0000
0000
0000
0000
,  // measure 1
0000
0000
0000
0000
,  // measure 2
0000
0000
0000
0000
,  // measure 3
0000
0000
0000
0000
,  // measure 4
0000
0000
0000
0000
0100
0100
0100
0100
,  // measure 5
0020
0000
0130
0001
0100
0000
1100
1000
,  // measure 6
0000
0001
0010
0100
0010
0001
2000
0000
,  // measure 7
3010
0000
0110
0100
1000
0000
0110
0001
,  // measure 8
0000
1000
0010
0100
0010
1000
0002
0000
,  // measure 9
0013
0100
0010
0010
0001
0000
1000
0000
,  // measure 10
0021
0100
0100
0030
1001
0000
0001
0100
,  // measure 11
0010
0100
1000
0100
0001
0000
1000
0000
,  // measure 12
1200
0010
0010
0300
0011
0001
0100
0010
,  // measure 13
1000
0100
2000
0000
3001
0000
0001
0000
,  // measure 14
0010
0000
0020
0000
1030
0010
0010
0000
,  // measure 15
0001
0000
1000
0100
2000
0000
3001
0010
,  // measure 16
0001
0000
0000
0000
0120
0000
0000
0000
0031
0000
1000
0000
0001
0000
1000
0100
,  // measure 17
1000
0000
0100
0000
1000
0000
0001
0000
1000
0000
0100
0000
1000
0000
0001
0100
,  // measure 18
0001
0000
1000
0000
0001
0000
0100
0000
0010
0000
0100
0000
0001
1000
0001
1000
,  // measure 19
0001
0010
0001
0010
0100
1000
0100
0010
0001
0100
0010
1000
0010
0100
0001
1000
,  // measure 20
0002
0000
0003
0000
0002
0000
0013
0000
1000
0000
0010
0100
0010
0000
0001
0000
,  // measure 21
1001
0000
0001
0100
0110
0010
1000
0001
,  // measure 22
0011
0010
1000
0010
0011
0000
0010
0001
,  // measure 23
0201
0000
0310
1000
1200
0000
0310
1000
,  // measure 24
0001
1000
0010
0001
0010
0000
0201
0000
,  // measure 25
0320
0000
1030
0100
1100
1000
0001
1000
,  // measure 26
1010
0010
0001
0010
1010
0000
1000
0100
,  // measure 27
0120
0000
0000
0000
0031
0000
1000
0000
1020
0000
0000
0000
0130
0000
0001
0010
,  // measure 28
0001
0010
0100
1000
0001
1000
0001
0100
,  // measure 29
0110
0000
0010
1000
1100
0000
0101
0000
,  // measure 30
0011
0000
1000
0010
0011
0000
0101
0000
,  // measure 31
1100
0000
0001
1000
1010
0000
0011
0000
,  // measure 32
0101
0000
0010
1000
0010
0000
1000
0000
0100
0000
0001
0000
0100
0000
1000
0000
,  // measure 33
1001
0000
0001
0100
0110
0000
1100
0000
,  // measure 34
0101
0000
0100
0001
0011
0000
1010
0000
,  // measure 35
0110
0000
1000
0001
0101
0000
1100
0000
,  // measure 36
1010
0000
0100
0001
0100
0000
0001
0000
0010
0000
1000
0000
0010
0000
0001
0000
,  // measure 37
2000
0000
0000
0000
,  // measure 38
0000
0000
0000
0000
,  // measure 39
3000
0000
0000
0000
,  // measure 40
0000
0000
0000
0000
,  // measure 41
0220
0000
0000
0000
,  // measure 42
0330
2000
0000
0000
,  // measure 43
0002
0000
0000
0000
,  // measure 44
0000
0000
0000
3003
,  // measure 45
2001
3100
0010
0200
,  // measure 46
1300
0010
0100
0020
,  // measure 47
1030
0002
0023
2030
,  // measure 48
3200
0000
0000
0000
0302
0000
0000
0000
0023
0000
0000
0000
0130
0000
1000
0001
,  // measure 49
1000
0000
0010
0000
0001
0000
0010
0000
1000
0000
0010
0000
0001
0000
0010
1000
,  // measure 50
0010
0000
1000
0000
0100
0000
0001
0000
0100
0000
1000
0000
0100
0000
0001
0100
,  // measure 51
0010
0001
0010
0001
1000
0100
1000
0100
0010
0001
0100
0010
1000
0001
1000
0010
,  // measure 52
0200
0302
0023
0230
,  // measure 53
0320
0000
0000
0000
0230
0000
0000
0000
1300
0100
0010
0001
0100
0000
0010
0000
,  // measure 54
0210
0000
0000
0000
0000
1000
0000
1000
,  // measure 55
0000
0001
0000
0001
0000
0310
0110
0000
,  // measure 56
1001
0000
0001
0000
0010
0000
0001
0100
0001
0100
0001
0000
1000
0000
0010
0000
,  // measure 57
0001
0000
0010
0000
1000
0000
0001
0010
0001
0000
0010
0000
0110
0000
0001
0000
,  // measure 58
0100
0000
0100
0000
0010
0000
1000
0010
1000
0000
0100
0000
0010
0000
0100
0000
,  // measure 59
1000
0000
1000
0000
0001
0000
0010
0100
0010
0000
0001
0000
1001
0000
1000
0000
,  // measure 60
0010
0000
0100
0000
1000
0000
0100
0010
0100
0000
0001
0000
1000
0000
0010
0000
,  // measure 61
1000
0100
1000
0100
0010
0000
0001
0000
0010
0000
0100
0000
1000
0000
1000
0000
,  // measure 62
1001
0000
1000
0000
0010
0000
1000
0100
1000
0100
1000
0000
0001
0000
0010
0000
,  // measure 63
1000
0000
0010
0000
0001
0000
1000
0010
1000
0000
0010
0000
0110
0000
1000
0000
,  // measure 64
0100
0000
0100
0000
0010
0000
0001
0010
0001
0000
0100
0000
0010
0000
0100
0000
,  // measure 65
0001
0000
0001
0000
1000
0000
0010
0100
0010
0000
1000
0000
1001
0000
1000
0100
,  // measure 66
0010
0000
0010
0000
0001
0000
0001
0000
1000
0000
1000
0000
0010
0000
0100
0010
,  // measure 67
0100
0000
0100
0000
0001
0000
0001
0000
1000
0000
1000
0000
0010
0000
0100
0001
,  // measure 68
1000
0010
1000
0010
0100
0000
0001
0000
0010
0100
0010
0100
1000
0000
0001
0000
,  // measure 69
0100
0001
1000
0010
0100
0010
1000
0100
0010
0000
0010
0000
0100
0000
0010
0000
,  // measure 70
0002
0000
0000
0000
,  // measure 71
0003
0000
2100
0000
0000
0010
3010
0000
,  // measure 72
0102
0000
0000
0000
,  // measure 73
0003
0000
0100
0001
1000
0000
0100
0000
0010
0000
0100
0000
2000
0000
0000
0000
,  // measure 74
3001
0000
0000
0000
;

//---------------dance-single - ----------------
#NOTES:
     dance-single:
     :
     Challenge:
     12:
     0.508228,0.618631,0.260085,0.371550,0.000000,383.000000,355.000000,28.000000,40.000000,48.000000,0.000000,0.508228,0.618631,0.260085,0.371550,0.000000,383.000000,355.000000,28.000000,40.000000,48.000000,0.000000:
0000
0000
0000
0000
,
0000
0000
0000
0000
,
0000
0000
0000
0000
,
0000
0000
0000
0000
,
0000
0000
0000
0000
0010
0100
0010
0100
,
0020
0000
0130
1000
0100
0000
0101
0001
,
0000
1000
0010
0100
0001
0010
0200
0000
,
0310
0000
0100
0001
0100
0000
1100
1000
,
0000
0001
0100
0010
1000
0100
0020
0000
,
0031
0100
0001
0100
0010
0000
1000
0000
,
2100
0000
0001
3000
0110
0000
0001
1000
,
0010
0100
0010
0100
0001
0000
1000
0000
,
1200
0000
0010
0300
1001
0001
0100
0010
,
1000
0100
2000
0000
3010
0000
0010
0000
,
0001
0000
0002
0000
0013
1000
1000
0000
,
0100
0000
0001
0100
0002
0000
0103
1000
,
0100
0000
0210
0000
1300
0001
0001
0000
,
1000
0010
0100
0010
1000
0010
0100
0001
,
0010
0100
0010
0001
0010
0100
0010
0001
,
1000
0010
0100
0001
1000
0010
0100
0001
,
0020
0030
0200
0300
2000
3000
0001
0100
,
0110
0000
1000
0010
0100
0001
0100
0001
,
1000
0010
0100
0001
0011
0000
0001
1000
,
0200
0000
0301
0100
0020
0000
0031
1000
,
0100
0001
0100
1000
0001
0000
0201
0000
,
0310
0000
1000
0001
0010
0100
0010
0100
,
1000
0100
0010
0001
1001
0000
0001
0100
,
0020
0000
0031
0010
0200
0000
0301
0010
,
0100
1000
0100
1000
0010
0000
1000
0001
,
0011
0000
MMMM
1000
0010
0000
0010
0000
,
1100
0000
MMMM
0001
0010
0000
0010
0000
,
0101
0000
MMMM
1000
0010
0000
0010
0000
,
0110
0000
1000
0001
0010
0100
0010
0000
,
1100
0000
MMMM
0001
0100
0000
0100
0000
,
0011
0000
MMMM
1000
0100
0000
0100
0000
,
1010
0000
MMMM
0001
0100
0000
0100
0000
,
0110
0000
0001
1000
0100
0010
0100
1000
,
0002
0000
0000
0000
,
0000
0000
0000
0000
,
0003
0000
0000
0000
,
0000
0000
0000
0000
,
0220
0000
0000
0000
,
0330
2000
0000
0000
,
0002
0000
0000
0000
,
0000
0000
0000
3003
,
2001
3100
0010
0100
,
MMMM
0010
0100
0010
,
MMMM
0002
0023
2030
,
3200
0000
0302
0000
0023
0000
0130
1000
,
0001
0000
1000
0100
0001
0100
1000
0000
,
MMMM
0000
1000
0010
0001
0010
1000
0000
,
MMMM
0000
1000
0100
0010
0001
0100
0010
,
2000
3002
0023
0230
,
0320
0000
0230
0000
1300
1000
0010
0010
,
0220
0000
0000
0000
,
0000
0000
0000
0000
0000
0000
0330
MMMM
,
1001
0001
0010
0100
0010
0001
0010
1000
,
0010
0001
1000
0001
0100
0010
0110
0000
,
1000
1000
0100
0010
0001
0010
0100
1000
,
0001
1000
0010
0100
0001
0001
1001
0000
,
0001
0100
0001
0100
1000
0001
0010
1000
,
0001
0010
0001
0010
0100
1000
0001
0000
,
1001
0001
0100
0010
1000
0001
1000
0010
,
0100
0001
0100
0010
1000
0001
1001
0000
,
1000
0100
0001
1000
0010
0100
0010
0001
,
1000
0100
1000
0100
0010
0001
1001
1000
,
0010
0100
0010
1000
0010
0100
0010
1000
,
0001
0010
0100
0010
0001
0010
0100
1000
,
0001
0001
1000
1000
0010
0010
0100
0100
,
0001
0010
0001
0010
0100
1000
0001
1000
,
0020
0000
0000
0000
,
0030
0000
0200
0000
0000
1000
1300
0000
,
0002
0000
0000
0000
,
0003
0000
0010
1000
0001
0000
0010
0000
,
MMMM
0000
0000
0000
;

//---------------dance-single - ----------------
#NOTES:
     dance-single:
     :
     Medium:
     10:
     0.411359,0.515526,0.176486,0.306529,0.000000,310.000000,291.000000,19.000000,33.000000,0.000000,0.000000,0.411359,0.515526,0.176486,0.306529,0.000000,310.000000,291.000000,19.000000,33.000000,0.000000,0.000000:
0000
0000
0000
0000
,
0000
0000
0000
0000
,
0000
0000
0000
0000
,
0000
0000
0000
0000
,
0000
0000
0000
0000
,
0020
0000
0130
0010
0100
0000
0100
1000
,
0000
1000
0001
0100
0010
0000
2000
0000
,
3001
0000
0010
0100
0010
0000
0010
0001
,
0000
0001
1000
0010
0100
0000
0002
0000
,
1003
0001
1000
0001
0010
0000
0100
0000
,
2000
0000
0000
0000
3010
0000
0000
0100
,
0001
1000
0001
1000
0010
0000
0100
0000
,
0002
0000
0000
0000
0013
0100
0010
0000
,
0001
0001
0100
0100
,
0010
0000
0010
0000
0001
1000
0001
0000
,
0010
0000
1000
0100
2000
0000
3010
1000
,
0010
0000
0210
0000
0301
1000
0001
0000
,
0100
0010
1000
0000
1000
0100
0010
0000
,
0100
0010
0001
0000
0001
0100
0010
0000
,
0001
0010
0100
1000
0001
0010
0100
1000
,
0200
0302
0203
0310
,
1001
0000
0001
0010
0100
0000
0100
0000
,
1000
0001
1000
0000
0110
0000
0001
0010
,
0002
0000
1003
0100
2000
0000
3010
0100
,
0010
0010
1000
0002
,
0013
0000
0100
0010
0001
0000
0001
0000
,
0100
0010
1000
0000
1001
0000
0001
0010
,
0002
0000
1003
0100
2000
0000
3010
0100
,
0010
0100
0010
0000
1000
0000
0001
0000
,
0011
0000
0000
0100
0001
0000
0001
0000
,
1100
0000
0000
0010
1000
0000
1000
0000
,
0011
0000
0000
0001
0100
0000
0100
0000
,
1010
0000
1000
0100
1000
0000
0001
0000
,
0101
0000
0000
0010
0001
0000
0001
0000
,
1010
0000
0000
0100
1000
0000
1000
0000
,
0101
0000
0000
0001
0010
0000
0010
0000
,
1100
0000
1000
0100
0010
0000
0001
0000
,
2000
0000
0000
0000
,
0000
0000
0000
0000
,
3000
0000
0000
0000
,
0000
0000
0000
0000
,
0002
0000
0000
0000
,
0003
0020
0000
0000
,
0200
0000
0000
0000
,
0000
0000
0000
0330
,
2000
3010
0100
0020
,
1030
0001
0010
0200
,
0310
1000
0001
0100
,
1000
0000
0010
0000
0002
0000
0013
1000
,
0010
0000
1000
0100
0001
0000
0200
0000
,
0310
0000
0001
1000
0010
0000
0002
0000
,
0013
0000
1000
0100
0010
0000
0001
0000
,
0200
0320
0100
0100
,
0100
0000
0100
0000
0130
0001
1000
0000
,
0220
0000
0000
0000
,
0000
0000
0000
0330
,
0001
0010
0100
1000
0000
0010
0000
0101
,
0000
0010
0000
1100
0000
0001
0010
0100
,
0000
1000
0000
0010
0000
0001
0000
0010
,
0000
0100
0000
1000
0000
0100
0001
1000
,
0000
0010
0000
0100
0000
0001
0000
0010
,
0000
0010
0100
1000
0001
0000
0110
0000
,
1000
0100
0010
0001
0000
0100
0000
1010
,
0000
0100
0000
0011
0000
1000
0100
0010
,
0000
0001
0000
0100
0000
1000
0000
0100
,
0000
0010
0000
0001
0000
0010
0010
0000
,
1000
0100
0010
0000
0001
0100
0010
0000
,
0100
0001
1000
0000
0001
0010
0100
0000
,
0010
0001
0100
0000
0001
1000
0010
0000
,
0001
0010
1000
0100
0010
0001
0010
0001
,
2000
0000
0000
0000
,
3000
0020
0000
0130
,
2002
0000
0000
0000
,
3003
0000
1000
0100
0001
0000
0010
0000
,
1000
0000
0000
0000
;

//---------------dance-single - ----------------
#NOTES:
     dance-single:
     :
     Easy:
     6:
     0.301221,0.378053,0.278663,0.260085,0.000000,227.000000,197.000000,30.000000,28.000000,0.000000,0.000000,0.301221,0.378053,0.278663,0.260085,0.000000,227.000000,197.000000,30.000000,28.000000,0.000000,0.000000:
0000
0000
0000
0000
,
0000
0000
0000
0000
,
0000
0000
0000
0000
,
0000
0000
0000
0000
,
0000
0000
0000
0000
,
0100
0100
1001
0010
,
0000
0100
0010
0020
,
1030
1000
0001
0110
,
0000
0001
0010
0200
,
1300
1000
0010
0100
,
0002
0000
1003
0000
,
0001
0001
0010
0100
,
2000
0000
3001
0000
,
1000
1000
0010
0010
,
0100
0100
0010
1001
,
0010
0010
0100
0100
,
1000
0001
2000
3000
,
1000
0010
0100
0001
,
1000
0100
0010
0001
,
0100
0100
0100
0100
,
0200
0000
0000
0300
,
0110
0000
0011
0000
,
1010
0000
1001
0000
,
2200
3300
0202
0303
,
1000
0100
0010
0020
,
0130
0000
1010
0000
,
0011
0000
1001
0000
,
0202
0303
2200
3300
,
0001
0100
0010
1000
,
1001
0000
1000
0100
,
0101
0000
1000
0010
,
0011
0000
1000
0100
,
0101
0100
1000
0010
,
0110
0000
0001
0010
,
1010
0000
0001
0100
,
1100
0000
0001
0010
,
1010
0010
0001
0100
,
0220
0000
0000
0000
,
0000
0000
0000
0000
,
0330
0000
0000
0000
,
0000
0000
0000
0000
,
0020
0000
0000
0000
,
0030
2000
0000
0000
,
3002
0000
0000
0000
,
0000
0000
0000
0003
,
2000
3100
0010
0100
,
0000
1000
0010
0100
,
0000
0001
0010
0100
,
0010
0001
2000
0000
,
3001
0100
0010
0100
,
0000
0001
0010
0100
,
0000
1000
0010
0100
,
0010
1000
0002
0000
,
0000
0000
1003
0001
,
0220
0000
0000
0000
,
0000
0000
0000
0330
,
1001
0010
0100
1000
,
0001
0010
0100
1010
,
1000
0010
0100
0001
,
1000
0010
0100
1001
,
0001
0010
1000
0010
,
0001
0010
0100
0100
,
1001
0010
0100
0001
,
1000
0010
0100
0011
,
0001
0010
0100
1000
,
0001
0010
0100
1001
,
0001
0001
0010
0010
,
1000
1000
0100
0100
,
0001
0010
1000
0010
,
0001
0100
0010
1000
,
0002
0000
0000
0000
,
0003
2000
0000
3010
,
0200
0000
0000
0000
,
0300
0001
0010
0100
,
1000
0000
0000
0000
;

//---------------dance-single - ----------------
#NOTES:
     dance-single:
     :
     Beginner:
     4:
     0.157909,0.274947,0.046444,0.083599,0.000000,119.000000,114.000000,5.000000,9.000000,0.000000,0.000000,0.157909,0.274947,0.046444,0.083599,0.000000,119.000000,114.000000,5.000000,9.000000,0.000000,0.000000:
0000
0000
0000
0000
,
0000
0000
0000
0000
,
0000
0000
0000
0000
,
0000
0000
0000
0000
,
0000
0000
0000
0000
,
1000
0000
0000
0000
,
0010
0000
0000
0000
,
1000
0000
0000
0000
,
0100
0000
0000
0000
,
0010
0000
0010
0000
,
0020
0000
0030
0000
,
0100
0000
0100
0000
,
0200
0000
0300
0000
,
1000
0000
1000
0000
,
1000
0000
1000
0000
,
0001
0000
0001
0000
,
0001
0000
0001
0000
,
0010
0000
1000
0000
,
0010
0000
1000
0000
,
0100
0000
0001
0000
,
0020
0000
0030
0000
,
0110
0000
0100
0000
,
0010
0000
0100
0000
,
0001
0000
0010
0000
,
0001
0000
1000
0000
,
0010
0000
0100
0000
,
0010
0000
1000
0000
,
0100
0000
1000
0000
,
0020
0000
0030
0000
,
1001
0000
0010
0010
,
0010
0000
1000
1000
,
1000
0000
0001
0001
,
0001
0000
0100
0000
,
0110
0000
1000
1000
,
1000
0000
0001
0001
,
0001
0000
0100
0100
,
0100
0000
0010
0000
,
1001
0000
0000
0000
,
0000
0000
0000
0000
,
0000
0000
0000
0000
,
0000
0000
0000
0000
,
0020
0000
0000
0000
,
0030
0000
0000
0000
,
0200
0000
0000
0000
,
0300
0000
0000
0000
,
0001
0000
0000
0000
,
0001
0000
0000
0000
,
1000
0000
0000
0000
,
1000
0000
0000
0000
,
0100
0000
0001
0000
,
0100
0000
0001
0000
,
0100
0000
1000
0000
,
0010
0000
0002
0000
,
0000
0000
0003
0000
,
1001
0000
0000
0000
,
0000
0000
0000
0000
,
0010
0000
0010
0000
,
1000
0000
0010
0000
,
0001
0000
0001
0000
,
0010
0000
0001
0000
,
0100
0000
0010
0000
,
0100
0000
0010
0100
,
0010
0000
0010
0000
,
0001
0000
0010
0000
,
1000
0000
1000
0000
,
0010
0000
1000
0000
,
0001
1000
0001
0000
,
1000
0001
1000
0000
,
0100
0000
0010
0000
,
0100
0000
0010
0100
,
0020
0000
0000
0000
,
0030
0000
0000
0000
,
0002
0000
0000
0000
,
0003
0000
1000
0000
,
0001
0000
0000
0000
;

//---------------dance-double - ----------------
#NOTES:
     dance-double:
     :
     Challenge:
     13:
     0.505574,0.618631,0.204353,0.371550,0.000000,381.000000,359.000000,22.000000,40.000000,96.000000,0.000000,0.505574,0.618631,0.204353,0.371550,0.000000,381.000000,359.000000,22.000000,40.000000,96.000000,0.000000:
00000000
00000000
00000000
00000000
,
00000000
00000000
00000000
00000000
,
00000000
00000000
00000000
00000000
,
00000000
00000000
00000000
00000000
,
00000000
00000000
00000000
00000000
00001000
00010000
00001000
00010000
,
00002000
00000000
01003000
00100000
10000000
00000000
10000000
01000000
,
00000000
00100000
01000000
00100000
00001000
00010000
00002000
00000000
,
00013000
00000000
00100000
00010000
00100000
00000000
01000000
00001000
,
00000000
00001000
00010000
00000100
00001000
00000100
00000020
00000000
,
00000031
00001000
00000001
00001000
00000010
00000000
00000100
00000000
,
00000102
00000000
00001000
00000003
00000110
00000000
00000001
00000010
,
00000100
00010000
00000100
00010000
00001000
00000000
00001000
00000000
,
02010000
00000000
00100000
03000000
10010000
00010000
10000000
01000000
,
00010000
00001000
00020000
00000000
00031000
00000000
00001000
00000000
,
00000100
00000000
00000200
00000000
00001300
00010000
00001000
00000000
,
01000000
00000000
00010000
10000000
00200000
00000000
10300000
01000000
,
00100000
00000000
01200000
00000000
00310000
00100000
00001000
00000000
,
01000000
00100000
00010000
00100000
10000000
00100000
01000000
00001000
,
00010000
00000100
00000010
00000100
00001000
00000100
00000001
00000100
,
00001000
00000010
00000100
00000001
00001000
00000010
00000100
00000001
,
00000020
00000030
00002000
00003000
00020000
00030000
00100000
10000000
,
10010000
00000000
10000000
01000000
00100000
00010000
00100000
00010000
,
10000000
01000000
00010000
00001000
00011000
00000000
00010000
00001000
,
00000200
00000000
00000310
00001000
00000200
00000000
00000310
00001000
,
00010000
00001000
00010000
00100000
10000000
00000000
20010000
00000000
,
31000000
00000000
00100000
00010000
01000000
00100000
01000000
00100000
,
10000000
00010000
01000000
00001000
00011000
00000000
00001000
00010000
,
00200000
00000000
01300000
00001000
00020000
00000000
01030000
00010000
,
00001000
00000010
00001000
00000010
00000001
00000100
00000010
00001000
,
00001010
00000000
MMMMMMMM
00000001
00000010
00000000
00001000
00000000
,
00000110
00000000
MMMMMMMM
00010000
00001000
00000000
00100000
00000000
,
11000000
00000000
MMMMMMMM
00010000
10000000
00000000
00100000
00000000
,
01010000
00000000
00001000
00010000
01000000
00100000
00010000
00000000
,
00110000
00000000
MMMMMMMM
10000000
00100000
00000000
00010000
00000000
,
01100000
00000000
MMMMMMMM
00001000
00010000
00000000
00000010
00000000
,
00000101
00000000
MMMMMMMM
00001000
00000001
00000000
00000010
00000000
,
00001100
00000000
00010000
00001000
00000100
00000010
00001000
00000001
,
00002000
00000000
00000000
00000000
,
00000000
00000000
00000000
00000000
,
00003000
00000000
00000000
00000000
,
00000000
00000000
00000000
00000000
,
02200000
00000000
00000000
00000000
,
03300000
00002000
00000000
00000000
,
00020000
00000000
00000000
00000000
,
00000000
00000000
00000000
00033000
,
20010000
31000000
00010000
01000000
,
MMMMMMMM
00100000
00010000
00100000
,
MMMMMMMM
00002000
00023000
02030000
,
23000000
00000000
30200000
00000000
00320000
00000000
00031000
00000010
,
00000001
00000000
00000010
00001000
00010000
00001000
00000010
00000000
,
MMMMMMMM
00000000
00000100
00001000
00010000
00001000
00000100
00000000
,
MMMMMMMM
00000000
00010000
00001000
00000010
00000001
00000010
00001000
,
00020000
00230000
00320000
00032000
,
00023000
00000000
00032000
00000000
00013000
01000000
10000000
00010000
,
20020000
00000000
00000000
00000000
,
00000000
00000000
00000000
00000000
00000000
00000000
30030000
MMMMMMMM
,
01100000
00010000
10000000
00100000
10000000
01000000
00010000
00001000
,
00000100
00001000
00000100
00000001
00001000
00000010
00000100
00000100
,
00000001
00000010
00001000
00000010
00000001
00000001
00000010
00000100
,
00010000
00001000
00100000
00001000
00010000
00100000
00010000
00010000
,
00001000
01000000
00010000
01000000
10000000
01000000
00100000
10000000
,
00010000
00100000
00010000
00100000
10000000
00100000
00010000
00000000
,
10010000
00010000
01000000
00100000
10000000
00010000
10000000
00100000
,
01000000
00001000
00010000
00000010
00001000
00000001
00000010
00000100
,
00000010
00000001
00001000
00000001
00000010
00000100
00010000
00001000
,
00100000
00010000
01000000
00100000
10000000
00010000
00100000
00100000
,
01000000
00100000
00010000
00100000
01000000
00100000
00001000
00010000
,
00000010
00000100
00001000
00000100
00000010
00000100
00001000
00000100
,
00000001
00000001
00001000
00001000
00000010
00000010
00000100
00000100
,
00001000
00010000
00100000
10000000
01000000
00010000
01000000
00010000
,
00002000
00000000
00000000
00000000
,
00003000
00000000
00000200
00000000
00000000
00000001
00000301
00000000
,
00000020
00000000
00000000
00000000
,
00000030
00000000
00001000
00010000
00100000
00000000
10000000
00000000
,
MMMMMMMM
00000000
00000000
00000000
;

//---------------dance-double - ----------------
#NOTES:
     dance-double:
     :
     Hard:
     15:
     0.650213,0.927947,0.427283,0.390128,0.241508,490.000000,444.000000,46.000000,42.000000,0.000000,0.000000,0.650213,0.927947,0.427283,0.390128,0.241508,490.000000,444.000000,46.000000,42.000000,0.000000,0.000000:
00000000
00000000
00000000
00000000
,
00000000
00000000
00000000
00000000
,
00000000
00000000
00000000
00000000
,
00000000
00000000
00000000
00000000
,
00000000
00000000
00000000
00000000
01000000
01000000
01000000
01000000
,
00200000
00000000
00310000
00001000
00010000
00000000
00101000
00010000
,
00000000
00010000
10000000
00100000
00010000
00100000
20000000
00000000
,
30100000
00000000
01100000
01000000
00010000
00000000
00011000
00001000
,
00000000
00000010
00001000
00000100
00000001
00000100
00002000
00000000
,
00003001
00000010
00000001
00000010
00001000
00000000
00010000
00000000
,
00200000
01000000
01000000
00300000
10010000
00000000
00010000
01000000
,
00100000
10000000
00100000
10000000
01000000
00000000
00010000
00000000
,
00000020
00000100
00000100
00000030
00001001
00000001
00000010
00001000
,
00000010
00000100
00000020
00000000
00000031
00000000
00000001
00000000
,
00000100
00000000
00000200
00000000
00001300
00010000
00010000
00000000
,
01000000
00000000
10000000
00010000
20000000
00000000
30100000
01000000
,
00100000
00000000
00000000
00000000
01002000
00000000
00000000
00000000
00013000
00000000
01000000
00000000
00100000
00000000
00001000
00010000
,
00001000
00000000
00100000
00000000
00001000
00000000
00010000
00000000
00001000
00000000
01000000
00000000
00001000
00000000
00010000
00001000
,
00010000
00000000
00000100
00000000
00010000
00000000
00001000
00000000
00010000
00000000
00000010
00000000
00001000
00000001
00001000
00000001
,
00000010
00000100
00000010
00000100
00001000
00000100
00001000
00000100
00010000
00001000
00100000
00010000
01000000
00100000
10000000
01000000
,
00200000
00000000
00300000
00000000
02000000
00000000
13000000
00000000
00100000
00000000
00010000
00001000
00010000
00000000
00001000
00000000
,
00011000
00000000
00100000
00010000
10000000
01000000
10000000
01000000
,
10000000
00010000
00100000
00001000
00011000
00000000
00100000
00010000
,
20010000
00000000
30010000
01000000
01200000
00000000
00310000
00001000
,
00000100
00000010
00000100
00000010
00000001
00000000
00000120
00000000
,
00002030
00000000
00003001
00000010
00000100
00001000
00000100
00001000
,
00010000
00100000
01000000
00100000
00110000
00000000
01000000
10000000
,
10200000
00000000
00000000
00000000
10300000
00000000
00010000
00000000
00210000
00000000
00000000
00000000
01300000
00000000
00010000
00001000
,
00010000
00001000
00000010
00000001
00000100
00000001
00000100
00000010
,
00000110
00000000
00010000
00001000
00011000
00000000
00110000
00000000
,
01100000
00000000
00010000
10000000
10100000
00000000
00110000
00000000
,
00011000
00000000
00001000
00000100
00000101
00000000
00000011
00000000
,
00001100
00000000
00000010
00000100
00000010
00000000
00000001
00000000
00000100
00000000
00001000
00000000
00010000
00000000
00100000
00000000
,
01100000
00000000
00001000
00010000
00011000
00000000
00001100
00000000
,
00000110
00000000
00001000
00000001
00000101
00000000
00001100
00000000
,
00011000
00000000
00010000
00100000
10100000
00000000
11000000
00000000
,
00110000
00000000
01000000
00100000
01000000
00000000
10000000
00000000
00100000
00000000
00010000
00000000
00001000
00000000
00000010
00000000
,
00000002
00000000
00000000
00000000
,
00000000
00000000
00000000
00000000
,
00000003
00000000
00000000
00000000
,
00000000
00000000
00000000
00000000
,
02200000
00000000
00000000
00000000
,
03300000
00002000
00000000
00000000
,
00020000
00000000
00000000
00000000
,
00000000
00000000
00000000
00033000
,
20010000
31000000
00010000
02000000
,
13000000
00100000
00010000
00200000
,
01300000
00002000
00023000
02030000
,
23000000
00000000
00000000
00000000
30200000
00000000
00000000
00000000
00320000
00000000
00000000
00000000
00031000
00000000
00000010
00000100
,
00000010
00000000
00000001
00000000
00000010
00000000
00001000
00000000
00000010
00000000
00000100
00000000
00000010
00000000
00000001
00001000
,
00000001
00000000
00000100
00000000
00000010
00000000
00000100
00000000
00001000
00000000
00000100
00000000
00000010
00000000
00001000
00000100
,
00010000
00001000
00010000
00001000
00100000
00010000
00100000
00010000
10000000
01000000
00100000
01000000
10000000
00010000
00100000
00001000
,
00020000
02030000
23000000
30200000
,
00320000
00000000
00000000
00000000
00032000
00000000
00000000
00000000
00003010
00000001
00000010
00000001
00000100
00000000
00000010
00000000
,
00000210
00000000
00000000
00000000
00000000
00001000
00000000
00001000
,
00000000
00000001
00000000
00000001
00000000
00000310
00000110
00000000
,
00001001
00000000
00000001
00000000
00000010
00000000
00001000
00010000
00001000
00000000
00010000
00000000
01000000
00000000
00010000
00000000
,
00000100
00000000
00001000
00000000
00000001
00000000
00000010
00000100
00000010
00000000
00000001
00000000
00000101
00000000
00000100
00000000
,
00000010
00000000
00000010
00000000
00010000
00000000
00001000
00010000
00001000
00000000
00010000
00000000
01000000
00000000
10000000
00000000
,
00010000
00000000
00100000
00000000
10000000
00000000
00100000
00010000
00100000
00000000
00001000
00000000
00011000
00000000
00010000
00000000
,
00100000
00000000
00010000
00000000
00001000
00000000
01000000
00010000
01000000
00000000
00001000
00000000
00010000
00000000
00000100
00000000
,
00001000
00000001
00001000
00000001
00000100
00000000
00000010
00000000
00001000
00000000
00001000
00000000
00010000
00000000
00010000
00000000
,
10010000
00000000
10000000
00000000
00100000
00000000
00010000
00001000
00010000
00000000
00001000
00000000
00000100
00000000
00001000
00000000
,
01000000
00000000
00010000
00000000
10000000
00000000
00100000
01000000
00100000
00000000
10000000
00000000
11000000
00000000
01000000
00000000
,
00100000
00000000
00100000
00000000
00001000
00000000
00010000
00001000
00010000
00000000
00001000
00000000
00000100
00000000
00000001
00000000
,
00001000
00000000
00000010
00000000
00000001
00000000
00000010
00001000
00000010
00000000
00010000
00000000
00011000
00000000
00001000
00100000
,
00010000
00000000
00010000
00000000
10000000
00000000
10000000
00000000
01000000
00000000
01000000
00000000
00100000
00000000
00001000
00010000
,
00001000
00000000
00001000
00000000
00010000
00000000
00010000
00000000
00000010
00000000
00000010
00000000
00001000
00000000
00001000
00000100
,
00000010
00000001
00000010
00000001
00000100
00000000
00000010
00000000
00010000
00001000
00010000
00001000
00100000
00000000
00001000
00000000
,
00010000
00001000
00010000
00001000
01000000
00010000
10000000
01000000
00100000
00000000
00100000
00000000
01000000
00000000
00100000
00000000
,
00020000
00000000
00000000
00000000
,
00030000
00000000
00002100
00000000
00000000
00010000
00013000
00000000
,
00201000
00000000
00000000
00000000
,
00300000
00000000
01000000
00010000
01000000
00000000
00010000
00000000
00001000
00000000
00000100
00000000
00000002
00000000
00000000
00000000
,
00000013
00000000
00000000
00000000
;

//---------------dance-double - ----------------
#NOTES:
     dance-double:
     :
     Medium:
     10:
     0.432591,0.515526,0.278663,0.334395,0.000000,326.000000,296.000000,30.000000,36.000000,0.000000,0.000000,0.432591,0.515526,0.278663,0.334395,0.000000,326.000000,296.000000,30.000000,36.000000,0.000000,0.000000:
00000000
00000000
00000000
00000000
,
00000000
00000000
00000000
00000000
,
00000000
00000000
00000000
00000000
,
00000000
00000000
00000000
00000000
,
00000000
00000000
00000000
00000000
,
00200000
00000000
00301000
00010000
00001000
00000000
01000000
00010000
,
00000000
00010000
01000000
00100000
10000000
00000000
00020000
00000000
,
00130000
00000000
01000000
00100000
01000000
00000000
10000000
00010000
,
00000000
00010000
00100000
00001000
00010000
00000000
00002000
00000000
,
00003100
00000010
00000100
00000010
00001000
00000000
00000001
00000000
,
00000020
00000000
00000000
00000000
00000130
00000000
00000000
00001000
,
00010000
00100000
00010000
00100000
00001000
00000000
00010000
00000000
,
00200000
00000000
00000000
00000000
10300000
01000000
00100000
00000000
,
01000000
00010000
02000000
00000000
03010000
00000000
00010000
00000000
,
00001000
00000000
00001000
00000000
00000100
00001000
00000100
00000000
,
00000001
00000000
00001000
00000100
00000020
00000000
00000031
00000100
,
00000010
00000000
00000120
00000000
00010030
00001000
00010000
00000000
,
01000000
00100000
00010000
00000000
10000000
00000000
10000000
00000000
,
00100000
00000000
00100000
00000000
00010000
00001000
00000010
00000000
,
00001000
00010000
01000000
00100000
00001000
00010000
00100000
01000000
,
00002000
00023000
02030000
13000000
,
10010000
00000000
00010000
01000000
00100000
00000000
00100000
00000000
,
10000000
01000000
00010000
00000000
00011000
00000000
00000100
00001000
,
00000200
00000000
00010300
00001000
00020000
00000000
00030010
00001000
,
00000010
00000001
00000010
00000000
00001000
00000000
00000002
00000000
,
00000013
00000000
00001000
00010000
00001000
00000000
00001000
00000000
,
00100000
00010000
01000000
00000000
01100000
00000000
10000000
00100000
,
20000000
00000000
30010000
01000000
00020000
00000000
00130000
01000000
,
00100000
01000000
00100000
00000000
00001000
00000000
00010000
00000000
,
00011000
00000000
00000000
00100000
00010000
00000000
00010000
00000000
,
10100000
00000000
00000000
01000000
00010000
00000000
00010000
00000000
,
00011000
00000000
00000000
00000010
00000100
00000000
00000100
00000000
,
00001001
00000000
00000001
00000010
00001000
00000000
00000010
00000000
,
00011000
00000000
00000000
00000010
00001000
00000000
00001000
00000000
,
00000011
00000000
00000000
00000100
00001000
00000000
00001000
00000000
,
00011000
00000000
00000000
00100000
01000000
00000000
01000000
00000000
,
10010000
00000000
10000000
00100000
00010000
00000000
00100000
00000000
,
20020000
00000000
00000000
00000000
,
00000000
00000000
00000000
00000000
,
30030000
00000000
00000000
00000000
,
00000000
00000000
00000000
00000000
,
00000220
00000000
00000000
00000000
,
00000330
00020000
00000000
00000000
,
00002000
00000000
00000000
00000000
,
00000000
00000000
00000000
00033000
,
00021000
00030010
00000100
00000020
,
00010030
01000000
00100000
02000000
,
03010000
00001000
00000100
00000001
,
00000010
00000000
00001000
00000000
00020000
00000000
00130000
10000000
,
01000000
00000000
00010000
00010000
00001000
00000000
00000200
00000000
,
00001300
00000000
00010000
00010000
01000000
00000000
00020000
00000000
,
00031000
00000000
00100000
00010000
01000000
00000000
00100000
00000000
,
00020000
00032000
00010000
00010000
,
00010000
00000000
00010000
00000000
00013000
01000000
10000000
00000000
,
20020000
00000000
00000000
00000000
,
00000000
00000000
00000000
30030000
,
10000000
01000000
00010000
01000000
00000000
10000000
00000000
10100000
,
00000000
01000000
00000000
00011000
00000000
00010000
00001000
00000010
,
00000001
00000010
00000000
00000110
00000000
00000001
00000000
00000101
,
00000000
00000010
00000000
00011000
00000000
00010000
00001000
00100000
,
00010000
01000000
00000000
01100000
00000000
10000000
00000000
11000000
,
00000000
10000000
01000000
00010000
00001000
00000000
00000100
00000000
,
00001001
00000010
00001000
00000010
00000000
00000001
00000000
00000101
,
00000000
00000010
00000000
00011000
00000000
00001000
00010000
01000000
,
10000000
01000000
00000000
01100000
00000000
10000000
00000000
10100000
,
00000000
01000000
00000000
00011000
00000000
00001000
00010000
00000100
,
00000010
00000001
00000010
00000000
00001000
00010000
00001000
00000000
,
00010000
00100000
00010000
00000000
00100000
10000000
00100000
00000000
,
10000000
10000000
01000000
00000000
00010000
00010000
00001000
00000000
,
01000000
00100000
00010000
00001000
00000010
00000001
00000010
00000001
,
00000200
00000000
00000000
00000000
,
00000300
00000000
00002000
00000000
00000000
00010000
00013000
00000000
,
02200000
00000000
00000000
00000000
,
03300000
00000000
10000000
01000000
00010000
00000000
00001000
00000000
,
00000100
00000000
00000000
00000000
;

//---------------dance-double - ----------------
#NOTES:
     dance-double:
     :
     Easy:
     6:
     0.302548,0.378053,0.287952,0.269374,0.000000,228.000000,197.000000,31.000000,29.000000,0.000000,0.000000,0.302548,0.378053,0.287952,0.269374,0.000000,228.000000,197.000000,31.000000,29.000000,0.000000,0.000000:
00000000
00000000
00000000
00000000
,
00000000
00000000
00000000
00000000
,
00000000
00000000
00000000
00000000
,
00000000
00000000
00000000
00000000
,
00000000
00000000
00000000
00000000
,
00210000
00301000
00010000
00001010
,
00000000
00000001
00000010
00000020
,
00001030
00010000
00100000
10010000
,
00000000
10000000
01000000
00020000
,
00031000
00001000
00010000
00001000
,
00000200
00000000
00000310
00000000
,
00010000
00010000
00001000
00010000
,
02000000
00000000
03100000
00000000
,
10000000
10000000
00010000
00010000
,
01000000
01000000
10000000
01100000
,
10000000
10000000
00100000
00100000
,
00010000
00001000
00000020
00000030
,
00000001
00000100
00000010
00001000
,
00000100
00000010
00001000
00010000
,
00100000
01000000
00100000
01000000
,
00200000
00000000
00000000
00300000
,
10010000
00000000
11000000
00000000
,
01001000
00000000
00011000
00000000
,
00220000
00330000
00020020
00030030
,
00000100
00000001
00000010
00002000
,
00003010
00000000
00000101
00000000
,
00010100
00000000
00011000
00000000
,
00002020
00003030
00202000
00303000
,
00001000
00010000
00100000
00100000
,
10010000
00000000
01000000
01000000
,
10010000
00000000
00100000
00100000
,
00011000
00000000
00000010
00000010
,
00000110
00001000
00000001
00000010
,
00000110
00000000
00000100
00000100
,
00001001
00000000
00000010
00000010
,
00011000
00000000
00100000
00100000
,
01100000
00010000
10000000
00100000
,
02200000
00000000
00000000
00000000
,
00000000
00000000
00000000
00000000
,
03300000
00000000
00000000
00000000
,
00000000
00000000
00000000
00000000
,
00000020
00000000
00000000
00000000
,
00000030
00020000
00000000
00000000
,
00002000
00000000
00000000
00000000
,
00000000
00000000
00000000
00033000
,
00200000
01300000
10000000
00010000
,
00000000
10000000
00100000
01000000
,
00000000
00010000
00100000
01000000
,
00010000
00001000
00000200
00000000
,
00000310
00000100
00000001
00001000
,
00000000
00000001
00000010
00000100
,
00000000
00001000
00000010
00000100
,
00001000
00010000
02000000
00000000
,
00000000
00000000
03100000
01000000
,
20020000
00000000
00000000
00000000
,
00000000
00000000
00000000
30030000
,
01100000
00010000
10000000
00100000
,
01000000
00001000
00010000
00000110
,
00000001
00001000
00000100
00000010
,
00001000
00010000
00100000
01100000
,
00010000
10000000
01000000
00010000
,
01000000
10000000
00100000
00100000
,
01100000
00010000
10000000
01000000
,
00100000
00001000
00010000
00000110
,
00000001
00001000
00000010
00000100
,
00001000
00010000
01000000
01100000
,
00010000
00010000
10000000
10000000
,
00100000
00100000
00010000
00010000
,
00001000
00000100
00000001
00000010
,
00001000
00000010
00000001
00001000
,
00000002
00000000
00000000
00000000
,
00000003
00000200
00000000
00001300
,
00020000
00000000
00000000
00000000
,
00030000
01000000
10000000
00100000
,
00010000
00000000
00000000
00000000
;
