#TITLE:コスモス;
#SUBTITLE:;
#ARTIST:TSU-NA;
#TITLETRANSLIT:Cosmos;
#SUBTITLETRANSLIT:;
#ARTISTTRANSLIT:;
#GENRE:BEMANI;
#CREDIT:;
#BANNER:Cosmos.png;
#BACKGROUND:Cosmos-bg.png;
#LYRICSPATH:;
#CDTITLE:../cdtitle.png;
#MUSIC:Cosmos.ogg;
#OFFSET:0.867000;
#SAMPLESTART:52.634998;
#SAMPLELENGTH:15.000000;
#SELECTABLE:YES;
#BPMS:0.000000=148.000000
;
#STOPS:
;
#BGCHANGES:-0.125=Cosmos.avi=1.000=0=0=0=StretchNoLoop====,
99999=-nosongbg-=1.000=0=0=0 // don't automatically add -songbackground-
;
#KEYSOUNDS:;
#ATTACKS:;

//---------------dance-single - ----------------
#NOTES:
     dance-single:
     :
     Hard:
     12:
     0.541927,0.570237,0.296077,0.407106,0.004626,410.000000,378.000000,32.000000,44.000000,0.000000,0.000000,0.541927,0.570237,0.296077,0.407106,0.004626,410.000000,378.000000,32.000000,44.000000,0.000000,0.000000:
// measure 0
0000
0000
0000
0000
,  // measure 1
0000
0000
0000
0000
,  // measure 2
0000
0000
0000
0000
,  // measure 3
0000
0000
0000
0000
,  // measure 4
0000
0000
0000
0000
,  // measure 5
1000
0100
0001
0010
2000
0000
3001
0000
,  // measure 6
1000
0010
0001
0100
2000
0000
3001
0000
,  // measure 7
0120
0000
0000
1000
2000
0000
3030
0000
,  // measure 8
0001
0010
0100
0010
0001
0100
0010
1000
,  // measure 9
0001
0010
0100
2000
0010
3000
0001
0010
,  // measure 10
0100
2000
3010
1000
0100
0010
1001
0000
,  // measure 11
1000
0010
0100
0002
0010
0003
1000
0010
,  // measure 12
0100
0002
0013
0001
0100
0010
0110
0000
,  // measure 13
1000
0100
0010
0002
0100
0003
1000
0100
,  // measure 14
0010
0002
0103
0001
0010
0100
1001
0000
,  // measure 15
0001
0100
0010
2000
3100
1000
0010
0100
,  // measure 16
0001
0010
2001
0000
3020
0000
0230
0000
,  // measure 17
0301
0010
0100
1000
0001
0000
0001
0100
,  // measure 18
0010
1000
0001
0000
0001
0010
0100
1000
,  // measure 19
0002
0000
0100
0000
1003
0100
0010
0001
,  // measure 20
1000
1010
0110
0101
,  // measure 21
1000
0100
0010
0001
1000
0000
1000
0010
,  // measure 22
0100
0001
1000
0000
1000
0100
0010
0001
,  // measure 23
2000
0000
0010
0000
3001
0010
0100
1000
,  // measure 24
0001
1000
0010
0100
0002
0000
1003
0000
,  // measure 25
2010
0000
3001
0010
0100
1000
0100
0020
,  // measure 26
0001
0000
1000
0000
0001
0000
0130
1000
,  // measure 27
2100
0000
3001
0100
0010
1000
0010
0200
,  // measure 28
0001
1000
0001
0310
,  // measure 29
2001
0000
3010
0100
0001
1000
0100
0010
,  // measure 30
0001
0101
1100
1010
,  // measure 31
0011
0000
1000
0010
0100
0001
0010
0200
,  // measure 32
1000
0010
0001
0310
,  // measure 33
2001
0000
0100
0000
3001
0100
0010
1000
,  // measure 34
2010
3100
0012
0103
,  // measure 35
0210
0001
1000
0301
,  // measure 36
2000
0000
3100
1000
0001
0100
0010
1000
,  // measure 37
0001
0010
1000
0010
0001
0000
1000
0010
,  // measure 38
0001
0010
1000
0000
0001
0010
0100
0000
,  // measure 39
2000
0000
3001
1000
0010
0100
0001
1000
,  // measure 40
0100
0010
0100
1000
0001
0100
0010
1000
,  // measure 41
1002
0000
0010
0000
1003
0010
0100
0001
,  // measure 42
0102
0013
2100
3010
,  // measure 43
0120
1000
0001
1030
,  // measure 44
0002
0000
0013
0001
1000
0010
0100
0001
,  // measure 45
1000
0100
0001
0100
1000
0000
0001
0100
,  // measure 46
1000
0100
0001
0000
1000
0100
0010
0100
,  // measure 47
2000
0000
3001
1000
0100
0010
0001
1000
,  // measure 48
0010
0100
0010
1000
0001
0010
0200
0000
,  // measure 49
1300
0010
0100
0001
0001
0010
0100
1000
,  // measure 50
0001
0100
0010
1000
1000
0100
0010
0001
,  // measure 51
1000
1000
0010
0010
0001
0001
0100
0100
,  // measure 52
1000
0001
0100
0010
1000
0001
0010
0100
,  // measure 53
1000
0010
0001
0010
1000
0000
0001
0010
,  // measure 54
1000
0010
0001
0000
1000
0010
0100
0001
,  // measure 55
2000
0000
3100
1000
0020
0000
0130
0000
,  // measure 56
0102
0013
2100
3010
,  // measure 57
0110
0000
1001
0000
0110
0001
1000
0010
,  // measure 58
0100
1000
0100
0010
1000
0100
0010
0001
,  // measure 59
2000
0000
3010
0100
0002
0000
0100
0000
,  // measure 60
2003
0100
3001
2000
,  // measure 61
3001
0010
1000
0010
0001
0000
1000
0010
,  // measure 62
0001
0010
1000
0001
0010
0100
1000
0001
,  // measure 63
0011
0000
1000
1010
0000
0100
1001
1001
,  // measure 64
0000
0000
0100
0000
0010
0000
0100
0000
0001
0010
0100
0000
1000
0000
0001
0000
;

//---------------dance-single - ----------------
#NOTES:
     dance-single:
     :
     Medium:
     9:
     0.389923,0.420175,0.055514,0.434863,0.000000,295.000000,289.000000,6.000000,47.000000,0.000000,0.000000,0.389923,0.420175,0.055514,0.434863,0.000000,295.000000,289.000000,6.000000,47.000000,0.000000,0.000000:
0000
0000
0000
0000
,
0000
0000
0000
0000
,
0000
0000
0000
0000
,
0000
0000
0000
0000
,
0000
0000
0000
0000
,
0001
0010
0100
0000
2000
0000
3010
0000
,
1000
0010
0100
0000
0002
0000
0013
0000
,
0200
0000
0020
0330
,
0001
0010
0001
0000
1000
0100
1000
0000
,
0001
0100
0010
0000
2000
0000
3001
0000
,
1000
0100
0010
0000
0001
1000
0001
0000
,
1000
0010
0100
0000
0002
0000
1003
0000
,
0001
0010
0100
0000
0010
0010
0010
0000
,
0001
0010
0100
0000
2000
0000
3001
0000
,
1000
0010
0100
0000
0001
1000
0001
0000
,
1000
0100
0010
0000
0002
0000
1003
0000
,
0001
1000
0020
0000
0230
0000
0000
0000
,
0301
0010
1000
0010
,
0001
0000
0100
0000
1000
0100
0001
0000
,
1000
0000
0010
0000
0100
0001
0100
0001
,
0000
0001
0010
0100
,
1000
0010
0001
0010
,
1000
0000
0100
0000
0001
0100
1000
0000
,
0001
1000
0100
0010
,
0001
1000
0001
2000
0000
0000
3001
0000
,
1000
0000
0010
0000
0100
0000
0001
1000
,
0002
0000
0010
0000
2003
0000
3010
0100
,
0001
0000
0100
0000
0010
0000
1000
0001
,
2000
0100
3002
0100
,
2003
0000
3002
0000
0013
0100
0010
0100
,
0000
1000
1100
0001
,
0011
0000
0100
0000
1000
0010
0100
0000
,
0002
1000
1000
1003
,
0110
0000
0001
0000
1000
0100
0010
0000
,
0002
0100
2003
0100
,
3020
0100
1000
0130
,
0001
0000
1000
0000
0100
0010
0001
0000
,
1000
0010
0001
0000
0020
0000
1030
0000
,
0001
0010
1000
0000
0020
0000
0031
0000
,
1000
0010
0100
0001
,
0010
0100
0010
0100
2000
0000
3001
0000
,
0110
0000
1000
0000
0001
0010
0100
0000
,
2000
0010
3002
0010
,
0203
0010
0001
0310
,
1000
0000
0001
0000
0010
0100
1000
0000
,
0001
0100
1000
0000
0200
0000
0301
0000
,
1000
0100
0001
0000
0200
0000
1300
0000
,
0001
0100
0010
1000
,
0002
0023
0230
2300
,
3001
0010
0001
0000
0100
0010
0100
0000
,
0001
1000
0001
0000
1000
0100
1000
0000
,
0002
0203
2300
3020
,
0031
1000
0001
0000
0010
0000
0100
0000
,
1000
0010
0001
0000
0020
0000
1030
0000
,
0001
0010
1000
0000
0020
0000
0031
0000
,
1000
0000
0010
0100
0002
0000
1003
0000
,
0002
0010
2003
0010
,
3001
0000
0011
0000
0100
1000
0100
0000
,
1000
0000
0010
0000
0100
0001
0100
0000
,
0002
0100
2003
0100
,
3020
0100
1030
0002
,
1003
0100
0001
0000
0200
0000
1300
0000
,
0001
0100
1000
0000
0100
0010
0100
0000
,
1001
0000
0100
0010
0000
0100
0010
0010
,
0000
1000
0001
0010
1000
0010
0001
1000
;

//---------------dance-single - ----------------
#NOTES:
     dance-single:
     :
     Beginner:
     2:
     0.083272,0.179728,0.046262,0.101776,0.000000,63.000000,58.000000,5.000000,11.000000,0.000000,0.000000,0.083272,0.179728,0.046262,0.101776,0.000000,63.000000,58.000000,5.000000,11.000000,0.000000,0.000000:
0000
0000
0000
0000
,
0000
0000
0000
0000
,
0000
0000
0000
0000
,
0000
0000
0000
0000
,
0000
0000
0000
0000
,
1001
0000
0000
0000
,
0110
0000
0000
0000
,
1001
0000
0000
0000
,
0010
0000
0010
0000
,
0010
0000
0000
0000
,
0010
0000
0000
0000
,
0100
0000
0000
0000
,
0100
0000
0000
0000
,
1000
0000
0000
0000
,
1000
0000
0000
0000
,
0001
0000
0000
0000
,
1001
0000
0000
0000
,
0001
0000
0000
0000
,
1000
0000
0000
0000
,
0002
0000
0000
0000
,
0003
0000
0000
0000
,
1000
0000
0000
0000
,
0001
0000
0000
0000
,
2000
0000
0000
0000
,
3000
0000
0000
0000
,
0020
0000
0000
0000
,
0030
0000
0000
0000
,
0200
0000
0000
0000
,
0300
0000
0000
0000
,
0001
0000
0000
0000
,
0000
0100
0100
0000
,
0010
0000
0010
0000
,
0010
0000
0000
0000
,
1000
0000
0000
0000
,
0010
0000
0000
0000
,
0100
0000
0000
0000
,
0001
0000
0000
0000
,
2000
0000
0000
0000
,
3000
0000
0000
0000
,
0001
0000
0000
0000
,
1000
0000
0000
0000
,
0001
0000
0000
0000
,
0010
0000
0000
0000
,
0100
0000
0000
0000
,
1000
0000
0000
0000
,
0002
0000
0000
0000
,
0003
0000
0000
0000
,
1000
0000
0000
0000
,
0001
0000
0000
0000
,
0020
0000
0000
0000
,
0030
0000
0000
0000
,
0200
0000
0000
0000
,
0300
0000
0000
0000
,
1000
0000
1000
0000
,
1000
0000
0000
0000
,
0001
0000
0000
0000
,
1000
0000
0000
0000
,
0010
0000
0010
0000
,
0010
0000
0000
0000
,
0200
0000
0000
0000
,
0300
0000
0000
0000
,
0001
0000
0001
0000
,
0001
0000
0000
0000
,
2002
0000
0000
0000
,
3003
0000
0100
0100
;

//---------------dance-single - ----------------
#NOTES:
     dance-single:
     :
     Easy:
     6:
     0.270963,0.299547,0.064767,0.342339,0.000000,205.000000,198.000000,7.000000,37.000000,0.000000,0.000000,0.270963,0.299547,0.064767,0.342339,0.000000,205.000000,198.000000,7.000000,37.000000,0.000000,0.000000:
0000
0000
0000
0000
,
0000
0000
0000
0000
,
0000
0000
0000
0000
,
0000
0000
0000
0000
,
0000
0000
0000
0000
,
1000
0010
0001
0000
,
0001
0100
1000
0000
,
0002
0000
2003
0000
,
3001
0010
0100
1000
,
0001
0001
0002
0003
,
1000
1000
0100
0100
,
0010
0010
0020
0030
,
0001
0001
1000
1001
,
1000
1000
2000
3000
,
0001
0001
0010
0010
,
0100
0100
0200
0300
,
1000
1000
2002
3003
,
0001
1000
0100
0000
,
0010
0001
1000
0000
,
0002
0000
2003
0000
,
3000
0010
0010
0010
,
0100
0001
1000
0000
,
0100
1000
0001
0000
,
2000
0000
3002
0000
,
0103
0100
0020
0030
,
1000
0100
0001
0100
,
2000
0000
3002
0000
,
1003
0010
0001
0010
,
2000
0000
3002
0000
,
2003
0000
3010
0010
,
0000
0100
0001
1000
,
1001
0000
0100
0010
,
0220
0000
0000
0330
,
2000
0100
3002
0100
,
2003
0010
3002
0010
,
2003
0100
0100
3100
,
0001
0010
0100
1000
,
0010
0010
0010
0000
,
0100
0100
0200
0000
,
0310
1000
0001
0100
,
0010
1000
0100
0010
,
0002
0010
2003
0010
,
3002
0100
2003
0100
,
3002
0010
0010
0013
,
1000
0100
0010
0001
,
0100
0100
0100
0000
,
0010
0010
0020
0000
,
0130
0001
1000
0010
,
0100
0001
0010
0100
,
1000
0001
1000
0001
,
1000
0010
1000
0010
,
0100
0001
0100
0001
,
1000
0001
1000
0001
,
0010
0010
0010
0000
,
0100
0100
0200
0000
,
2300
0000
3002
0000
,
0103
0100
0010
0010
,
1000
0100
0001
0100
,
1000
0010
0001
0010
,
2000
0000
3002
0000
,
0013
0100
1000
0100
,
0010
0010
0010
0000
,
0001
0001
0001
1000
,
1001
0000
0000
0110
0000
0000
1001
0000
,
0000
0001
0010
1000
;
