#TITLE:Cosmical Rhythm★;
#SUBTITLE:;
#ARTIST:S.I.D-Sound feat. banami;
#TITLETRANSLIT:;
#SUBTITLETRANSLIT:;
#ARTISTTRANSLIT:;
#GENRE:Crossover;
#CREDIT:;
#BANNER:Cosmical Rhythm.png;
#BACKGROUND:Cosmical Rhythm-bg.png;
#LYRICSPATH:;
#CDTITLE:../cdtitle.png;
#MUSIC:Cosmical Rhythm.ogg;
#OFFSET:1.867000;
#SAMPLESTART:46.869999;
#SAMPLELENGTH:15.000000;
#LASTBEATHINT:1.849600;
#SELECTABLE:YES;
#BPMS:0.000000=128.000000
;
#STOPS:
;
#BGCHANGES:0.500=Cosmical Rhythm.avi=1.000=0=0=0=StretchNoLoop====,
99999=-nosongbg-=1.000=0=0=0 // don't automatically add -songbackground-
;
#KEYSOUNDS:;
#ATTACKS:;

//---------------dance-single - ----------------
#NOTES:
     dance-single:
     :
     Challenge:
     13:
     0.613307,0.701748,0.995268,0.649455,0.168690,509.000000,391.000000,118.000000,77.000000,172.000000,0.000000,0.613307,0.701748,0.995268,0.649455,0.168690,509.000000,391.000000,118.000000,77.000000,172.000000,0.000000:
// measure 0
0000
0000
0000
0000
,  // measure 1
0000
0000
0000
0000
,  // measure 2
0011
0000
0000
0000
0110
0000
0000
0110
0000
1000
0001
0000
0100
0000
0010
0000
,  // measure 3
1010
0000
0000
0000
0110
0000
0000
0110
0000
0000
0001
1000
0100
0010
0001
1000
,  // measure 4
0200
0000
0300
0000
0110
0000
0000
0110
0000
0001
1000
0000
0010
0000
0100
0000
,  // measure 5
0101
0000
0000
0000
0110
0000
0000
0110
0000
0000
1000
0000
1001
0000
0001
0000
,  // measure 6
0011
0000
0000
0000
0110
0000
0000
0110
0000
1000
0001
0000
0100
0000
0010
0000
,  // measure 7
1010
0000
0000
0000
0110
0000
0000
0110
0000
0000
0101
0000
0000
0000
2002
0000
,  // measure 8
0000
0000
3003
MMMM
,  // measure 9
0110
0000
0000
1001
0000
0000
0110
0000
MMMM
0000
0110
0000
1000
0000
0001
0000
,  // measure 10
2000
3020
0032
0203
,  // measure 11
2300
0000
3020
0000
0230
0000
0301
0001
,  // measure 12
2000
3200
0302
0023
,  // measure 13
2030
0000
0000
0000
3200
0000
0000
0310
0001
0000
0001
0000
1000
0000
0001
0000
,  // measure 14
1000
0000
0010
0000
0110
0000
1000
0100
0000
0010
0001
0010
0001
0000
1000
0000
,  // measure 15
0001
0000
0010
0000
0110
0000
0001
0100
0000
0010
1000
0010
1000
0000
0001
0000
,  // measure 16
1000
0000
0010
0000
0110
0000
1000
0100
0000
0010
0001
0010
0001
0000
1000
0000
,  // measure 17
0001
0010
0001
0000
0110
0000
1000
0001
1000
0001
1000
0000
0010
0100
0010
0100
,  // measure 18
0020
0000
0030
0110
MMMM
1001
0011
1100
,  // measure 19
MMMM
1001
0101
0011
MMMM
0101
1010
MMMM
,  // measure 20
2002
0000
3003
1001
MMMM
1100
0011
0110
,  // measure 21
MMMM
1100
1010
1001
MMMM
0110
1001
0010
,  // measure 22
0220
0000
0330
0110
MMMM
1001
0011
1100
,  // measure 23
MMMM
1001
0101
0011
MMMM
0101
1010
MMMM
,  // measure 24
2002
0000
3003
1001
MMMM
0011
0101
1010
,  // measure 25
MMMM
1010
1100
0011
MMMM
0110
2002
3003
,  // measure 26
MMMM
1000
0010
0001
1000
0001
0010
1000
,  // measure 27
MMMM
1000
0100
0001
1000
0001
0100
1000
,  // measure 28
MMMM
1000
0010
0001
1000
0001
0010
2000
,  // measure 29
0001
3001
0010
1000
0002
0203
2300
3001
,  // measure 30
MMMM
0001
0100
1000
0001
1000
0100
0001
,  // measure 31
MMMM
0001
0010
1000
0001
1000
0010
0001
,  // measure 32
MMMM
0001
0100
1000
0001
1000
0100
0020
,  // measure 33
1000
0000
1030
0000
0001
0000
0010
0100
1000
0000
0001
0000
0100
0010
0100
0010
,  // measure 34
0000
0000
1010
0000
0000
1001
0000
0000
0011
0000
0100
1000
0001
0000
0010
0000
,  // measure 35
0000
0000
0011
0000
0000
1001
0000
0000
1010
0000
0100
0001
1000
0000
0100
0000
,  // measure 36
0020
0000
0000
0032
2003
3020
0032
0023
,  // measure 37
2030
3002
0023
2030
3002
0203
2300
3002
,  // measure 38
0103
0010
0002
0000
0000
0000
0000
0000
0023
0000
0000
0230
0000
0000
0302
0000
,  // measure 39
0023
0000
0230
2300
0000
0000
3200
0310
,  // measure 40
1001
0010
1001
0100
0110
0001
0110
1000
,  // measure 41
2002
0000
0000
0000
0000
0000
3003
MMMM
,  // measure 42
0220
0000
0330
0110
MMMM
1001
0011
1100
,  // measure 43
MMMM
1001
0101
0011
MMMM
0101
1010
MMMM
,  // measure 44
2002
0000
3003
1001
MMMM
1100
0011
0110
,  // measure 45
MMMM
1100
1010
1001
MMMM
0110
1001
0010
,  // measure 46
0220
0000
0330
0110
MMMM
1001
0011
1100
,  // measure 47
MMMM
1001
0101
0011
MMMM
0101
1010
MMMM
,  // measure 48
2002
0000
3003
1001
MMMM
0011
0101
1010
,  // measure 49
MMMM
1010
1100
0011
MMMM
0110
2002
3003
,  // measure 50
MMMM
1000
0010
0001
1000
0001
0010
1000
,  // measure 51
MMMM
1000
0100
0001
1000
0001
0100
1000
,  // measure 52
MMMM
1000
0010
0001
1000
0001
0010
2000
,  // measure 53
0001
3001
0010
1000
0002
0203
2300
3001
,  // measure 54
MMMM
0001
0100
1000
0001
1000
0100
0001
,  // measure 55
MMMM
0001
0010
1000
0001
1000
0010
0001
,  // measure 56
MMMM
0001
0100
1000
0001
1000
0100
0020
,  // measure 57
1000
0000
1030
0000
0001
0000
0010
0100
1000
0000
0001
0000
0100
0010
0100
0010
,  // measure 58
2000
0000
3001
0010
1000
0001
1000
0010
,  // measure 59
0002
0000
1003
0010
0001
1000
0001
0010
,  // measure 60
2000
0000
3001
0100
1000
0001
1000
0200
,  // measure 61
0010
0310
1000
0001
0020
0230
2300
0002
,  // measure 62
0000
0000
0000
0000
,  // measure 63
0000
0000
0000
0000
,  // measure 64
3003
0000
0000
0000
;

//---------------dance-single - ----------------
#NOTES:
     dance-single:
     :
     Beginner:
     1:
     0.062656,0.107961,0.067476,0.059041,0.000000,52.000000,44.000000,8.000000,7.000000,0.000000,0.000000,0.062656,0.107961,0.067476,0.059041,0.000000,52.000000,44.000000,8.000000,7.000000,0.000000,0.000000:
0000
0000
0000
0000
,
0000
0000
0000
0000
,
0000
0000
0000
0000
,
0000
0000
0000
0000
,
0000
0000
0000
0000
,
0000
0000
0000
0000
,
1000
0000
0000
0000
,
0001
0000
0000
0000
,
2000
0000
3000
0000
,
0001
0000
0000
0000
,
0020
0000
0000
0000
,
0030
0000
0000
0000
,
0200
0000
0000
0000
,
0300
0000
0000
0000
,
0010
0000
0000
0000
,
0010
0000
0000
0000
,
0002
0000
0000
0000
,
0003
0000
0000
0000
,
1001
0000
0000
0000
,
0000
0000
0000
0000
,
0110
0000
0000
0000
,
0000
0000
0000
0000
,
1001
0000
0000
0000
,
0000
0000
0000
0000
,
0110
0000
0000
0000
,
0000
0000
0000
0000
,
0001
0000
0000
0000
,
0001
0000
0000
0000
,
1000
0000
0000
0000
,
1000
0000
0000
0000
,
0100
0000
0000
0000
,
0100
0000
0000
0000
,
0010
0000
0000
0000
,
0010
0000
0000
0000
,
0001
0000
0000
0000
,
0001
0000
0000
0000
,
1000
0000
0000
0000
,
1000
0000
0000
0000
,
0010
0000
0000
0000
,
0010
0000
0000
0000
,
0100
0000
0000
0000
,
0100
0000
0000
0000
,
1001
0000
0000
0000
,
0000
0000
0000
0000
,
0110
0000
0000
0000
,
0000
0000
0000
0000
,
1001
0000
0000
0000
,
0000
0000
0000
0000
,
0110
0000
0000
0000
,
0000
0000
0000
0000
,
1000
0000
0000
0000
,
1000
0000
0000
0000
,
0001
0000
0000
0000
,
0001
0000
0000
0000
,
0010
0000
0000
0000
,
0010
0000
0000
0000
,
0100
0000
0000
0000
,
0100
0000
0000
0000
,
2000
0000
0000
0000
,
3000
0000
0000
0000
,
0002
0000
0000
0000
,
0003
0000
0000
0000
,
2000
0000
0000
0000
,
0000
0000
0000
0000
,
3000
0000
0000
0000
;

//---------------dance-single - ----------------
#NOTES:
     dance-single:
     :
     Easy:
     5:
     0.196403,0.269903,0.075910,0.236165,0.000000,163.000000,154.000000,9.000000,28.000000,0.000000,0.000000,0.196403,0.269903,0.075910,0.236165,0.000000,163.000000,154.000000,9.000000,28.000000,0.000000,0.000000:
0000
0000
0000
0000
,
0000
0000
0000
0000
,
1000
0100
0001
0000
,
0100
1000
0010
0000
,
1000
0010
0001
0000
,
0010
1000
0100
0000
,
1000
0100
0001
0000
,
0100
1000
0010
0001
,
0020
0000
0030
0000
,
0100
0001
0010
1000
,
0020
0000
0001
0000
,
1000
0000
0031
1000
,
0020
0000
0001
0000
,
1000
0000
0031
0010
,
1000
0001
0010
0100
,
1000
0010
0100
0100
,
0001
1000
0010
0100
,
0001
0010
0100
0100
,
1002
0000
0000
0003
0000
0000
0000
0000
,
0020
0000
0000
0030
0000
0000
0000
0000
,
2001
0000
0000
3000
0000
0000
0000
0000
,
0200
0000
0000
0300
0000
0000
0000
0000
,
2001
0000
0000
3000
0000
0000
0000
0000
,
0020
0000
0000
0030
0000
0000
0000
0000
,
1002
0000
0000
0003
0000
0000
0000
0000
,
0200
0000
0000
0300
0000
0000
0000
0000
,
0000
0001
0010
1000
,
0000
1000
0010
0001
,
0000
0001
0100
1000
,
0100
0001
0010
0100
,
0000
1000
0010
0001
,
0000
0001
0010
1000
,
0000
1000
0100
0001
,
0100
1000
0010
0100
,
0001
0010
0100
1000
,
1000
0010
0100
0001
,
2000
0000
3001
1000
,
0001
0010
1000
0100
,
0002
0000
0013
0100
,
1000
0010
0001
0010
,
0100
0010
0100
0010
,
0220
0000
0000
0330
,
2001
0000
0000
3000
0000
0000
0000
0000
,
0200
0000
0000
0300
0000
0000
0000
0000
,
1002
0000
0000
0003
0000
0000
0000
0000
,
0020
0000
0000
0030
0000
0000
0000
0000
,
1002
0000
0000
0003
0000
0000
0000
0000
,
0200
0000
0000
0300
0000
0000
0000
0000
,
2001
0000
0000
3000
0000
0000
0000
0000
,
0020
0000
0000
0030
0000
0000
0000
0000
,
0000
1000
0100
0001
,
0000
0001
0100
1000
,
0000
1000
0010
0001
,
0010
1000
0100
0010
,
0000
0001
0100
1000
,
0000
1000
0100
0001
,
0000
0001
0010
1000
,
0010
0001
0100
0010
,
2000
0000
3100
0000
,
0002
0000
0103
0000
,
2000
0000
3010
0000
,
0002
0000
0013
0000
,
0200
0000
0000
0000
,
0000
0000
0000
0000
,
0300
0000
0000
0000
;

//---------------dance-single - ----------------
#NOTES:
     dance-single:
     :
     Medium:
     8:
     0.374732,0.404855,0.193993,0.312076,0.033738,311.000000,288.000000,23.000000,37.000000,0.000000,0.000000,0.374732,0.404855,0.193993,0.312076,0.033738,311.000000,288.000000,23.000000,37.000000,0.000000,0.000000:
0000
0000
0000
0000
,
0000
0000
0000
0000
,
1000
0000
0000
0000
0100
0000
0000
1100
0000
0000
0000
0000
0000
0000
0000
0000
,
0001
0000
0000
0000
0010
0000
0000
0011
0000
0000
0000
0000
0000
0000
0000
0000
,
1000
0000
0000
0000
0010
0000
0000
1010
0000
0000
0000
0000
0000
0000
0000
0000
,
0001
0000
0000
0000
0100
0000
0000
0101
0000
0000
0000
0000
0000
0000
0000
0000
,
1000
0000
0000
0000
0100
0000
0000
1100
0000
0000
0000
0000
0000
0000
0000
0000
,
0001
0000
0000
0000
0010
0000
0000
0011
0000
0000
0100
0000
0000
0000
2000
0000
,
0000
0000
3000
0000
,
1000
0000
0000
0001
0000
0000
0110
0000
0000
0000
1000
0000
0001
0000
0000
0000
,
2000
0100
3020
0100
,
2030
0000
0100
0000
3020
0000
0130
0001
,
0020
0100
0032
0100
,
0023
0000
0100
0000
0031
0100
0010
0000
,
1000
0000
1010
0000
0001
0010
0100
0000
,
1000
0000
1100
0000
0001
0100
0010
0000
,
1000
0000
1001
0000
1000
0001
0010
0000
,
0100
1000
0001
0000
0100
0010
0100
0010
,
2000
0000
3000
1100
0000
0100
1000
0001
,
0000
0001
1000
0010
0000
0100
0001
0000
,
0020
0000
0030
0011
0000
0001
1000
0010
,
0000
1000
0001
0010
0000
0100
0010
0001
,
2000
0000
3000
1010
0000
0010
1000
0001
,
0000
0001
1000
0100
0000
0010
0001
0000
,
2000
0000
3000
1001
0000
0001
0100
0010
,
0000
1000
0100
0010
0000
0001
1000
0000
,
0001
0000
0001
0000
1000
0010
0100
0001
,
1000
0000
1000
0000
0001
0010
0100
1000
,
0001
0000
0001
0000
1000
0100
0010
0000
,
0002
0000
1003
0000
0010
0100
0001
0000
,
1000
0000
1000
0000
0001
0100
0010
1000
,
0001
0000
0001
0000
1000
0100
0010
0001
,
1000
0000
1000
0000
0001
0010
0100
0000
,
2000
0000
3001
0000
0100
0010
1000
0000
,
0002
0000
0013
0000
0100
1000
0001
0000
,
1000
0100
0010
0000
0001
1000
0010
0000
,
0200
0000
0301
0000
1000
0001
0100
0000
,
0020
0000
1030
0002
0000
0013
0100
0000
,
2000
0000
0000
0000
3001
0000
0000
0000
0100
0000
0000
0010
0000
0000
1000
0000
,
0200
0000
0310
0002
0000
0000
1003
0010
,
0110
1001
0110
1001
,
0220
0000
0000
0330
,
0002
0000
0003
0101
0000
0100
0001
1000
,
0000
1000
0001
0010
0000
0100
1000
0000
,
0020
0000
0030
1010
0000
1000
0001
0010
,
0000
0001
1000
0010
0000
0100
0010
1000
,
0002
0000
0003
0011
0000
0010
0001
1000
,
0000
1000
0001
0100
0000
0010
1000
0000
,
0002
0000
0003
1001
0000
1000
0100
0010
,
0000
0001
0100
0010
0000
1000
0001
0000
,
1000
0000
1000
0000
0001
0010
0100
1000
,
0001
0000
0001
0000
1000
0010
0100
0001
,
1000
0000
1000
0000
0001
0100
0010
0000
,
2000
0000
3001
0000
0010
0100
1000
0000
,
0001
0000
0001
0000
1000
0100
0010
0001
,
1000
0000
1000
0000
0001
0100
0010
1000
,
0001
0000
0001
0000
1000
0010
0100
0000
,
0002
0000
1003
0000
0100
0010
0001
0000
,
2000
0100
0001
0100
,
3002
0010
1000
0010
,
2003
0100
0001
0100
,
3002
0203
2300
3020
,
0032
0000
0000
0000
,
0000
0000
0000
0000
,
0003
0000
0000
0000
;

//---------------dance-single - ----------------
#NOTES:
     dance-single:
     :
     Hard:
     11:
     0.512093,0.485826,0.514503,0.463896,0.033738,425.000000,364.000000,61.000000,55.000000,0.000000,0.000000,0.512093,0.485826,0.514503,0.463896,0.033738,425.000000,364.000000,61.000000,55.000000,0.000000,0.000000:
0000
0000
0000
0000
,
0000
0000
0000
0000
,
0011
0000
0000
0000
0011
0000
0000
0011
0000
0000
0000
0000
0000
0000
0000
0000
,
1100
0000
0000
0000
1100
0000
0000
1100
0000
0000
0000
0000
0000
0000
0000
0000
,
1010
0000
0000
0000
1010
0000
0000
1010
0000
0000
0000
0000
0000
0000
0000
0000
,
0101
0000
0000
0000
0101
0000
0000
0101
0000
0000
0000
0000
0000
0000
0000
0000
,
1001
0000
0000
0000
1001
0000
0000
1001
0000
0000
0000
0000
0000
0000
0000
0000
,
0110
0000
0000
0000
0110
0000
0000
0110
0000
0000
1001
0000
0000
0000
0220
0000
,
0000
0000
0330
0000
,
0110
0000
0000
0110
0000
0000
1001
0000
0000
0000
0110
0000
1000
0000
1000
0000
,
0002
0023
0230
2300
,
3002
0000
0023
0000
0230
0000
1300
0001
,
2000
3020
0230
0302
,
2003
0000
0000
0000
3020
0000
0000
0130
0001
0000
1000
0000
0100
0000
1000
0000
,
0001
0010
0001
0010
0001
0100
0001
0100
,
0010
1000
0010
1000
0100
1000
0100
1000
,
0001
0010
0100
1000
0001
0100
0010
1000
,
1000
0100
0010
0001
1000
1000
0001
0001
,
2002
0000
3003
1001
0000
1000
0010
0110
,
0000
0001
0010
0110
0000
1000
0001
0000
,
2002
0000
3003
1001
0000
0100
0010
1010
,
0000
0100
0010
0011
0000
1000
0010
0100
,
2002
0000
3003
1001
0000
0001
0010
0110
,
0000
1000
0010
0110
0000
0001
1000
0000
,
2002
0000
3003
1001
0000
0100
0010
0011
,
0000
0100
0010
1010
0000
0001
0010
0000
,
0100
1000
0100
1000
0001
0100
0010
1000
,
0001
0010
0001
0010
0100
1000
0001
1000
,
0010
0001
0010
1000
0001
0010
1000
0020
,
0100
0130
1000
0001
2000
3020
0032
0023
,
0130
0001
0100
0001
1000
0100
0010
0001
,
1000
0010
1000
0010
0100
0001
1000
0001
,
0010
1000
0010
0001
1000
0010
0001
0020
,
0100
0130
0001
1000
0001
0010
1000
0010
,
0001
1000
0100
1000
0001
1000
0100
0001
,
0100
1000
0001
1000
0010
0001
0010
1000
,
0002
0000
1003
0001
0010
1000
0001
0100
,
1000
0001
1000
0010
0001
1000
0100
0001
,
0020
0000
1000
0000
0031
1000
0100
0001
,
0100
1000
0001
1000
0010
0001
0010
1000
,
1100
0101
0011
1010
,
2002
0000
0000
3003
,
2002
0000
3003
1001
0000
0001
0010
0110
,
0000
1000
0010
0110
0000
0001
1000
0000
,
2002
0000
3003
1001
0000
0100
0010
0011
,
0000
0100
0010
1010
0000
0001
0010
0100
,
2002
0000
3003
1001
0000
1000
0010
0110
,
0000
0001
0010
0110
0000
1000
0001
0000
,
2002
0000
3003
1001
0000
0100
0010
1010
,
0000
0100
0010
0011
0000
1000
0010
0000
,
0100
0001
0100
0001
1000
0100
0010
0001
,
1000
0010
1000
0010
0100
0001
1000
0001
,
0010
1000
0010
0001
1000
0010
0001
0020
,
0100
0130
0001
1000
0002
0023
2030
3020
,
0130
1000
0100
1000
0001
0100
0010
1000
,
0001
0010
0001
0010
0100
1000
0001
1000
,
0010
0001
0010
1000
0001
0010
1000
0020
,
0100
0130
1000
0001
1000
0010
0001
0010
,
2000
0000
0100
0000
3001
0100
1000
0100
,
0002
0000
0100
0000
1003
0100
0001
0100
,
2000
0000
0100
0000
3001
0100
1000
0200
,
0010
0310
1000
0001
0020
0230
2300
0002
,
0000
0000
0000
0000
,
0000
0000
0000
0000
,
3003
0000
0000
0000
;

//---------------dance-double - ----------------
#NOTES:
     dance-double:
     :
     Easy:
     5:
     0.177124,0.269903,0.075910,0.236165,0.000000,147.000000,138.000000,9.000000,28.000000,0.000000,0.000000,0.177124,0.269903,0.075910,0.236165,0.000000,147.000000,138.000000,9.000000,28.000000,0.000000,0.000000:
00000000
00000000
00000000
00000000
,
00000000
00000000
00000000
00000000
,
10000000
01000000
00010000
00000000
,
00001000
00000100
00000001
00000000
,
00000001
00000010
00001000
00000000
,
00010000
00100000
10000000
00000000
,
10000000
01000000
00010000
00000000
,
00001000
00000100
00000001
00000010
,
00002000
00000000
00003000
00000000
,
00010000
01000000
10000000
00100000
,
00020000
00000000
00000000
00000000
,
00000000
00000000
00000000
00030000
,
00002000
00000000
00000000
00000000
,
00000000
00000000
00000000
00003000
,
00010000
00000100
00010000
00000100
,
00001000
00000010
00001000
00000010
,
00000100
00000001
00000100
00000001
,
00000010
00001000
00010000
00100000
,
02100000
00000000
00000000
03000000
00000000
00000000
00000000
00000000
,
00002000
00000000
00000000
00003000
00000000
00000000
00000000
00000000
,
00021000
00000000
00000000
00030000
00000000
00000000
00000000
00000000
,
00000200
00000000
00000000
00000300
00000000
00000000
00000000
00000000
,
00000120
00000000
00000000
00000030
00000000
00000000
00000000
00000000
,
00020000
00000000
00000000
00030000
00000000
00000000
00000000
00000000
,
00012000
00000000
00000000
00003000
00000000
00000000
00000000
00000000
,
00200000
00000000
00000000
00300000
00000000
00000000
00000000
00000000
,
00000000
10000000
00010000
00001000
,
00000000
00000001
00001000
00010000
,
00000000
10000000
00010000
00001000
,
00000001
00000000
00000010
00000000
,
00000000
00000001
00001000
00010000
,
00000000
10000000
00010000
00001000
,
00000000
00000001
00001000
00010000
,
10000000
00000000
00100000
00000000
,
10000000
01000000
00100000
00010000
,
00001000
00000100
00000010
00000001
,
00002000
00000000
00003001
00000001
,
00000010
00001000
00010000
00100000
,
20000000
00000000
30010000
00010000
,
01000000
00100000
00010000
00001000
,
00000010
00000100
00000010
00000100
,
00002002
00000000
00000000
00003003
,
00000120
00000000
00000000
00000030
00000000
00000000
00000000
00000000
,
00020000
00000000
00000000
00030000
00000000
00000000
00000000
00000000
,
00012000
00000000
00000000
00003000
00000000
00000000
00000000
00000000
,
00200000
00000000
00000000
00300000
00000000
00000000
00000000
00000000
,
02100000
00000000
00000000
03000000
00000000
00000000
00000000
00000000
,
00002000
00000000
00000000
00003000
00000000
00000000
00000000
00000000
,
00021000
00000000
00000000
00030000
00000000
00000000
00000000
00000000
,
00000200
00000000
00000000
00000300
00000000
00000000
00000000
00000000
,
00000000
00000001
00001000
00010000
,
00000000
10000000
00010000
00001000
,
00000000
00000001
00001000
00010000
,
10000000
00000000
01000000
00000000
,
00000000
10000000
00010000
00001000
,
00000000
00000001
00001000
00010000
,
00000000
10000000
00010000
00001000
,
00000001
00000000
00000100
00000000
,
00002000
00000000
00003100
00000000
,
00020000
00000000
01030000
00000000
,
00002000
00000000
00003010
00000000
,
00020000
00000000
00130000
00000000
,
00002000
00000000
00000000
00000000
,
00000000
00000000
00000000
00000000
,
00003000
00000000
00000000
00000000
;

//---------------dance-double - ----------------
#NOTES:
     dance-double:
     :
     Challenge:
     13:
     0.606077,0.647768,0.986834,0.657889,0.151821,503.000000,386.000000,117.000000,78.000000,344.000000,0.000000,0.606077,0.647768,0.986834,0.657889,0.151821,503.000000,386.000000,117.000000,78.000000,344.000000,0.000000:
00000000
00000000
00000000
00000000
,
00000000
00000000
00000000
00000000
,
00110000
00000000
00000000
00000000
00011000
00000000
00000000
00001010
00000000
00000100
00000001
00000000
00000100
00000000
00000010
00000000
,
00001010
00000000
00000000
00000000
00011000
00000000
00000000
00110000
00000000
00000000
01000000
10000000
00010000
00100000
01000000
10000000
,
00020000
00000000
00030000
00000000
10010000
00000000
00000000
00110000
00000000
00100000
00001000
00000000
00010000
00000000
00001000
00000000
,
00011000
00000000
00000000
00000000
01010000
00000000
00000000
10100000
00000000
00000000
10000000
00000000
11000000
00000000
00100000
00000000
,
00110000
00000000
00000000
00000000
00011000
00000000
00000000
00001010
00000000
00000100
00000001
00000000
00000100
00000000
00000010
00000000
,
00001010
00000000
00000000
00000000
00011000
00000000
00000000
00110000
00000000
00000000
11000000
00000000
00000000
00000000
20020000
00000000
,
00000000
00000000
30030000
MMMMMMMM
,
01100000
00000000
00000000
00011000
00000000
00000000
00000110
00000000
MMMMMMMM
00000000
00001001
00000000
00000010
00000000
00000100
00000000
,
00000020
00000032
00000203
00002300
,
00023000
00000000
02030000
00000000
23000000
00000000
30010000
00100000
,
02000000
23000000
30200000
00320000
,
00032000
00000000
00000000
00000000
00003020
00000000
00000000
00000031
00001000
00000000
00000100
00000000
00000010
00000000
00000100
00000000
,
00001000
00000000
00000001
00000000
00001001
00000000
00000001
00000010
00000000
00000010
00000100
00000000
00010000
00000000
00001000
00000000
,
00010000
00000000
00001000
00000000
00011000
00000000
00010000
01000000
00000000
01000000
00100000
00000000
00010000
00000000
10000000
00000000
,
00010000
00000000
10000000
00000000
10010000
00000000
10000000
00100000
00000000
00100000
01000000
00000000
00001000
00000000
00010000
00000000
,
00001000
00010000
00001000
00000000
00011000
00000000
00100000
00010000
00000000
00010000
00100000
00000000
01000000
10000000
01000000
00000000
,
02200000
00000000
03300000
01100000
MMMMMMMM
10010000
11000000
10100000
,
MMMMMMMM
01010000
01001000
00011000
MMMMMMMM
00010100
00011000
MMMMMMMM
,
00000220
00000000
00000330
00000110
MMMMMMMM
00000101
00000110
00001001
,
MMMMMMMM
00010100
00011000
01001000
MMMMMMMM
10010000
01000000
00100000
,
02200000
00000000
03300000
01100000
MMMMMMMM
10010000
10100000
11000000
,
MMMMMMMM
00110000
00101000
00011000
MMMMMMMM
00010010
00011000
MMMMMMMM
,
00000220
00000000
00000330
00000110
MMMMMMMM
00000011
00000110
00001001
,
MMMMMMMM
00010010
00011000
00101000
MMMMMMMM
01100000
20020000
30030000
,
MMMMMMMM
10000000
00100000
00010000
00001000
00000010
00000001
00001000
,
MMMMMMMM
00000010
00010000
00100000
00001000
00010000
00100000
10000000
,
MMMMMMMM
00100000
00001000
00000010
00001000
00010000
00000010
00000200
,
00000001
00000301
00001000
00000100
00000002
00002003
00003020
00000130
,
MMMMMMMM
00000001
00000100
00001000
00010000
01000000
10000000
00010000
,
MMMMMMMM
01000000
00001000
00000100
00010000
00001000
00000100
00000001
,
MMMMMMMM
00000100
00010000
01000000
00010000
00001000
01000000
00200000
,
10000000
00000000
10300000
00000000
00010000
00000000
00100000
01000000
10000000
00000000
01000000
00000000
00100000
00010000
00100000
00010000
,
00000000
00000000
10100000
00000000
00000000
01010000
00000000
00000000
00011000
00000000
00000100
00001000
00000010
00000000
00000100
00000000
,
00000000
00000000
00000101
00000000
00000000
00001010
00000000
00000000
00011000
00000000
00100000
00010000
01000000
00000000
00100000
00000000
,
20000000
00000000
00000000
32000000
03200000
02300000
03020000
00032000
,
00003200
00000320
00000230
00000302
00000023
00000230
00020300
00032000
,
00013000
00100000
02000000
00000000
00000000
00000000
00000000
00000000
03020000
00000000
00000000
20030000
00000000
00000000
32000000
00000000
,
03020000
00000000
02030000
03200000
00000000
00000000
00320000
10030000
,
10010000
00010000
00011000
00001000
00001001
00001000
00011000
00010000
,
20020000
00000000
00000000
00000000
00000000
00000000
30030000
MMMMMMMM
,
02200000
00000000
03300000
01100000
MMMMMMMM
10010000
11000000
10100000
,
MMMMMMMM
01010000
01001000
00011000
MMMMMMMM
00010100
00011000
MMMMMMMM
,
00000220
00000000
00000330
00000110
MMMMMMMM
00000101
00000110
00001001
,
MMMMMMMM
00010100
00011000
01001000
MMMMMMMM
10010000
01000000
00100000
,
02200000
00000000
03300000
01100000
MMMMMMMM
10010000
10100000
11000000
,
MMMMMMMM
00110000
00101000
00011000
MMMMMMMM
00010010
00011000
MMMMMMMM
,
00000220
00000000
00000330
00000110
MMMMMMMM
00000011
00000110
00001001
,
MMMMMMMM
00010010
00011000
00101000
MMMMMMMM
01100000
20020000
30030000
,
MMMMMMMM
10000000
00100000
00010000
00001000
00000010
00000001
00001000
,
MMMMMMMM
00000010
00010000
00100000
00001000
00010000
00100000
10000000
,
MMMMMMMM
00100000
00001000
00000010
00001000
00010000
00000010
00000200
,
00000001
00000301
00001000
00000100
00000002
00002003
00003020
00000130
,
MMMMMMMM
00000001
00000100
00001000
00010000
01000000
10000000
00010000
,
MMMMMMMM
01000000
00001000
00000100
00010000
00001000
00000100
00000001
,
MMMMMMMM
00000100
00010000
01000000
00010000
00001000
01000000
00200000
,
10000000
00000000
10300000
00000000
00010000
00000000
00100000
01000000
10000000
00000000
01000000
00000000
00100000
00010000
00100000
00010000
,
20000000
00000000
31000000
00010000
00001000
00000100
00000010
00001000
,
00000002
00000000
00000013
00001000
00010000
00100000
01000000
00010000
,
20000000
00000000
30100000
00010000
00001000
00000010
00000100
00002000
,
00000010
00003010
00010000
00001000
00200000
02300000
23000000
00020000
,
00000000
00000000
00000000
00000000
,
00000000
00000000
00000000
00000000
,
30030000
00000000
00000000
00000000
;

//---------------dance-double - ----------------
#NOTES:
     dance-double:
     :
     Hard:
     11:
     0.512093,0.485826,0.514503,0.463896,0.033738,425.000000,364.000000,61.000000,55.000000,0.000000,0.000000,0.512093,0.485826,0.514503,0.463896,0.033738,425.000000,364.000000,61.000000,55.000000,0.000000,0.000000:
00000000
00000000
00000000
00000000
,
00000000
00000000
00000000
00000000
,
00010100
00000000
00000000
00000000
00010100
00000000
00000000
00010100
00000000
00000000
00000000
00000000
00000000
00000000
00000000
00000000
,
00101000
00000000
00000000
00000000
00101000
00000000
00000000
00101000
00000000
00000000
00000000
00000000
00000000
00000000
00000000
00000000
,
00010010
00000000
00000000
00000000
00010010
00000000
00000000
00010010
00000000
00000000
00000000
00000000
00000000
00000000
00000000
00000000
,
01001000
00000000
00000000
00000000
01001000
00000000
00000000
01001000
00000000
00000000
00000000
00000000
00000000
00000000
00000000
00000000
,
00010100
00000000
00000000
00000000
00010100
00000000
00000000
00010100
00000000
00000000
00000000
00000000
00000000
00000000
00000000
00000000
,
00101000
00000000
00000000
00000000
00101000
00000000
00000000
00101000
00000000
00000000
00011000
00000000
00000000
00000000
02002000
00000000
,
00000000
00000000
03003000
00000000
,
00011000
00000000
00000000
00011000
00000000
00000000
10010000
00000000
00000000
00000000
01100000
00000000
10000000
00000000
00010000
00000000
,
20000000
30200000
02300000
03020000
,
00032000
00000000
00003020
00000000
00000230
00000000
00000301
00001000
,
00000002
00000023
00000230
00002300
,
00023000
00000000
00000000
00000000
00230000
00000000
00000000
01300000
10000000
00000000
00010000
00000000
10000000
00000000
00100000
00000000
,
01000000
00001000
01000000
00001000
00100000
00010000
00100000
00010000
,
00001000
00000100
00001000
00000100
00010000
00000010
00010000
00000010
,
00000100
00000001
00000100
00000001
00000010
00000100
00000010
00000100
,
00010000
00001000
00100000
00010000
01000000
00100000
10000000
00010000
,
20020000
00000000
30030000
10010000
00000000
00010000
10000000
01100000
,
00000000
10000000
00010000
01100000
00000000
00010000
00001000
00000000
,
00022000
00000000
00033000
00011000
00000000
00010000
00001000
00000110
,
00000000
00000001
00001000
00000110
00000000
00001000
00000001
00001000
,
00002002
00000000
00003003
00001001
00000000
00001000
00000001
00000110
,
00000000
00000001
00001000
00000110
00000000
00001000
00010000
00000000
,
00022000
00000000
00033000
00011000
00000000
00001000
00010000
01100000
,
00000000
10000000
00010000
01100000
00000000
00010000
10000000
00000000
,
00010000
00100000
10000000
00100000
00010000
10000000
00100000
00010000
,
00001000
00000010
00000001
00001000
00000010
00000001
00000010
00001000
,
00000001
00000010
00001000
00010000
00100000
10000000
00010000
20000000
,
01000000
31000000
00010000
00001000
00000200
00000302
00000023
00000230
,
00001300
00000100
00000001
00000100
00001000
00000001
00000100
00001000
,
00010000
01000000
10000000
00010000
01000000
10000000
01000000
00010000
,
10000000
01000000
00010000
00001000
00000100
00000001
00001000
00000002
,
00000010
00000013
00001000
00010000
00100000
10000000
01000000
00100000
,
00010000
10000000
01000000
00010000
01000000
10000000
00100000
00010000
,
00001000
00000100
00000001
00001000
00000001
00000010
00001000
00000010
,
00000002
00000000
00001003
00000001
00000010
00001000
00010000
01000000
,
10000000
00010000
10000000
00100000
00010000
00001000
00000100
00000001
,
00000020
00000000
00001000
00000000
00000031
00001000
00000001
00000100
,
00001000
00010000
00100000
10000000
00010000
00100000
01000000
10000000
,
10100000
01010000
00011000
00001100
,
00000022
00000000
00000000
00000033
,
00002002
00000000
00003003
00001001
00000000
00001000
00000001
00000110
,
00000000
00000001
00001000
00000110
00000000
00001000
00010000
00000000
,
00022000
00000000
00033000
00011000
00000000
00001000
00010000
01100000
,
00000000
10000000
00010000
01100000
00000000
00010000
10000000
00010000
,
20020000
00000000
30030000
10010000
00000000
00010000
10000000
01100000
,
00000000
10000000
00010000
01100000
00000000
00010000
00001000
00000000
,
00022000
00000000
00033000
00011000
00000000
00010000
00001000
00000110
,
00000000
00000001
00001000
00000110
00000000
00001000
00000001
00000000
,
00001000
00000010
00000001
00000010
00001000
00000001
00000010
00001000
,
00010000
00100000
10000000
00010000
00100000
10000000
00100000
00010000
,
10000000
00100000
00010000
00001000
00000010
00000001
00001000
00000002
,
00000100
00000103
00001000
00010000
02000000
23000000
30200000
02300000
,
03010000
01000000
10000000
01000000
00010000
10000000
01000000
00010000
,
00001000
00000100
00000001
00001000
00000100
00000001
00000100
00001000
,
00000001
00000100
00001000
00010000
01000000
10000000
00010000
20000000
,
00100000
30100000
00010000
00001000
00000010
00000001
00000100
00000010
,
00002000
00000000
00000100
00000000
00003001
00000100
00001000
00010000
,
00002000
00000000
00010000
00000000
00003010
00001000
00010000
01000000
,
20000000
00000000
01000000
00000000
30010000
01000000
10000000
02000000
,
00100000
03100000
00010000
00001000
00000020
00000230
00002300
00000002
,
00000000
00000000
00000000
00000000
,
00000000
00000000
00000000
00000000
,
00003003
00000000
00000000
00000000
;

//---------------dance-double - ----------------
#NOTES:
     dance-double:
     :
     Medium:
     8:
     0.372322,0.377865,0.193993,0.286772,0.033738,309.000000,286.000000,23.000000,34.000000,0.000000,0.000000,0.372322,0.377865,0.193993,0.286772,0.033738,309.000000,286.000000,23.000000,34.000000,0.000000,0.000000:
00000000
00000000
00000000
00000000
,
00000000
00000000
00000000
00000000
,
00100000
00000000
00000000
00000000
00010000
00000000
00000000
00110000
00000000
00000000
00000000
00000000
00000000
00000000
00000000
00000000
,
00000010
00000000
00000000
00000000
00001000
00000000
00000000
00001010
00000000
00000000
00000000
00000000
00000000
00000000
00000000
00000000
,
01000000
00000000
00000000
00000000
00010000
00000000
00000000
01010000
00000000
00000000
00000000
00000000
00000000
00000000
00000000
00000000
,
00000100
00000000
00000000
00000000
00001000
00000000
00000000
00001100
00000000
00000000
00000000
00000000
00000000
00000000
00000000
00000000
,
00100000
00000000
00000000
00000000
00010000
00000000
00000000
00110000
00000000
00000000
00000000
00000000
00000000
00000000
00000000
00000000
,
00000010
00000000
00000000
00000000
00001000
00000000
00000000
00001010
00000000
00000000
00010000
00000000
00000000
00000000
00002000
00000000
,
00000000
00000000
00003000
00000000
,
00010000
00000000
00000000
00001000
00000000
00000000
00011000
00000000
00000000
00000000
00001000
00000000
00010000
00000000
00000000
00000000
,
00002000
00000100
00010000
00000100
,
00023000
00000000
01000000
00000000
00001000
00000000
01030000
00010000
,
00002000
00000010
00010000
00000010
,
00023000
00000000
00100000
00000000
00031000
00010000
00100000
00000000
,
10000000
00000000
10010000
00000000
00010000
00100000
01000000
00000000
,
00010000
00000000
00011000
00000000
00001000
00000100
00000010
00000000
,
00001000
00000000
00001001
00000000
00000001
00000010
00000100
00000000
,
00001000
00000100
00000010
00000000
00000001
00001000
00000001
00000000
,
00002000
00000000
00003000
00001100
00000000
00001000
00000100
00010000
,
00000000
00001000
01000000
00010000
00000000
10000000
01000000
00000000
,
00200000
00000000
00300000
00110000
00000000
00010000
00100000
00001000
,
00000000
00010000
00000010
00001000
00000000
00000001
00000010
00000100
,
00002000
00000000
00003000
00001100
00000000
00001000
00000100
00010000
,
00000000
00001000
01000000
00010000
00000000
10000000
01000000
00000000
,
00200000
00000000
00300000
01100000
00000000
00010000
10000000
00100000
,
00000000
01000000
00001000
00010000
00000000
00001000
00000010
00000000
,
00000001
00000000
00000001
00000000
00001000
00000100
00000010
00000100
,
00010000
00000000
00010000
00000000
00001000
01000000
00100000
01000000
,
00010000
00000000
00010000
00000000
10000000
01000000
00100000
00000000
,
02000000
00000000
13000000
00000000
00010000
01000000
00100000
00000000
,
10000000
00000000
10000000
00000000
00010000
00100000
01000000
00100000
,
00001000
00000000
00001000
00000000
00010000
00000010
00000100
00000010
,
00001000
00000000
00001000
00000000
00000001
00000010
00000100
00000000
,
00000020
00000000
00000031
00000000
00001000
00000010
00000100
00000000
,
00000002
00000000
00000013
00000000
00000100
00001000
00000100
00000000
,
00010000
00001000
00010000
00000000
00000010
00001000
00000010
00000000
,
00020000
00000000
00031000
00000000
00100000
00010000
10000000
00000000
,
00200000
00000000
01300000
00020000
00000000
10030000
01000000
00000000
,
00020000
00000000
00000000
00000000
00031000
00000000
00000000
00000000
00000100
00000000
00000000
00000010
00000000
00000000
00001000
00000000
,
00000002
00000000
00000013
00000200
00000000
00000000
00000310
00000000
,
00000011
00001010
00011000
00110000
,
20200000
00000000
00000000
30300000
,
00020000
00000000
00030000
01010000
00000000
00010000
01000000
00001000
,
00000000
00010000
00000100
00001000
00000000
00000001
00000100
00000000
,
00000020
00000000
00000030
00001010
00000000
00001000
00000010
00010000
,
00000000
00001000
00100000
00010000
00000000
10000000
00100000
01000000
,
00020000
00000000
00030000
01010000
00000000
00010000
01000000
00001000
,
00000000
00010000
00000100
00001000
00000000
00000001
00000100
00000000
,
00000020
00000000
00000030
00000110
00000000
00001000
00000001
00000010
,
00000000
00000100
00010000
00001000
00000000
00010000
00100000
00000000
,
10000000
00000000
10000000
00000000
00010000
01000000
00100000
01000000
,
00001000
00000000
00001000
00000000
00010000
00000100
00000010
00000100
,
00001000
00000000
00001000
00000000
00000001
00000100
00000010
00000000
,
00000200
00000000
00000301
00000000
00001000
00000100
00000010
00000000
,
00000001
00000000
00000001
00000000
00001000
00000010
00000100
00000010
,
00010000
00000000
00010000
00000000
00001000
00100000
01000000
00100000
,
00010000
00000000
00010000
00000000
10000000
00100000
01000000
00000000
,
00200000
00000000
10300000
00000000
00010000
00100000
01000000
00000000
,
00200000
00010000
00001000
00010000
,
00302000
00010000
01000000
00010000
,
00203000
00010000
00001000
00010000
,
00302000
00003200
00000302
00000023
,
00002030
00000000
00000000
00000000
,
00000000
00000000
00000000
00000000
,
00003000
00000000
00000000
00000000
;
